Sérgio Reis – MPB no JT

peter Category: music

Sérgio Reis – MPB no JT (1997)
EAC rip | Flac (Tracks) - 271,20 MB - Log - no CUE | MP3 - 320 Kbps CBR - 91,27 MB | Covers
Pop – Country - Brazilian | Label: BMG

Eighth volume of the collection “MPB no JT” with a selection of the biggest success of singer Sérgio Reis

Tracklist

01. Baita Macho
02. Bandeira do Divino
03. O Menino da Gaita
04. Peão de Boiadeiro
05. Cálix Bento
06. Serafim e seus Filhos
07. Chalana
08. Boiadeiro Errante
09. Filho Adotivo
10. Disparada
11. Sina de Violeiro
12. Procissão

EAC log
Exact Audio Copy V0.99 prebeta 5 from 4. May 2009

EAC extraction logfile from 18. October 2010, 19:04

Sérgio Reis / MPB no JT 8

Used drive : HL-DT-STDVDRAM GSA-4081B Adapter: 1 ID: 0

Read mode : Secure
Utilize accurate stream : Yes
Defeat audio cache : No
Make use of C2 pointers : Yes

Combined read/write offset correction : 0
Overread into Lead-In and Lead-Out : No
Fill up missing offset samples with silence : Yes
Delete leading and trailing silent blocks : No
Null samples used in CRC calculations : No
Used interface : Native Win32 interface for Win NT & 2000
Gap handling : Not detected, thus appended to previous track

Used output format : User Defined Encoder
Selected bitrate : 1024 kBit/s
Quality : High
Add ID3 tag : No
Command line compressor : f:Arquivos de programasExact Audio CopyFLACFLAC.EXE
Additional command line options : -6 -V -T "ARTIST=%a" -T "TITLE=%t" -T "ALBUM=%g" -T "DATE=%y" -T "TRACKNUMBER=%n" -T "GENRE=%m" -T "COMMENT=%e" %s -o %d TOC of the extracted CD

Track | Start | Length | Start sector | End sector
---------------------------------------------------------
1 | 0:00.00 | 3:15.42 | 0 | 14666
2 | 3:15.42 | 3:56.15 | 14667 | 32381
3 | 7:11.57 | 4:14.70 | 32382 | 51501
4 | 11:26.52 | 2:27.12 | 51502 | 62538
5 | 13:53.64 | 3:18.53 | 62539 | 77441
6 | 17:12.42 | 3:55.45 | 77442 | 95111
7 | 21:08.12 | 2:47.35 | 95112 | 107671
8 | 23:55.47 | 3:31.38 | 107672 | 123534
9 | 27:27.10 | 3:48.67 | 123535 | 140701
10 | 31:16.02 | 4:09.68 | 140702 | 159444
11 | 35:25.70 | 3:26.22 | 159445 | 174916
12 | 38:52.17 | 2:39.48 | 174917 | 186889 Track 1

Filename O:MPB No JTSérgio Reis - MPB no JT 8 [1997] (320 Kbps) FlacSérgio Reis - MPB no JT 8 [1997] Flac1. Sérgio Reis - MPB no JT 8 - Baita Macho.wav

Peak level 97.7 %
Track quality 99.8 %
Copy CRC 3890E857
Copy OK

Track 2

Filename O:MPB No JTSérgio Reis - MPB no JT 8 [1997] (320 Kbps) FlacSérgio Reis - MPB no JT 8 [1997] Flac2. Sérgio Reis - MPB no JT 8 - Bandeira do Divino.wav

Peak level 97.7 %
Track quality 99.9 %
Copy CRC 00D554C0
Copy OK

Track 3

Filename O:MPB No JTSérgio Reis - MPB no JT 8 [1997] (320 Kbps) FlacSérgio Reis - MPB no JT 8 [1997] Flac3. Sérgio Reis - MPB no JT 8 - O Menino da Gaita.wav

Peak level 94.2 %
Track quality 100.0 %
Copy CRC D567431E
Copy OK

Track 4

Filename O:MPB No JTSérgio Reis - MPB no JT 8 [1997] (320 Kbps) FlacSérgio Reis - MPB no JT 8 [1997] Flac4. Sérgio Reis - MPB no JT 8 - Pe o de Boiadeiro.wav

Peak level 97.7 %
Track quality 100.0 %
Copy CRC 6F795948
Copy OK

Track 5

Filename O:MPB No JTSérgio Reis - MPB no JT 8 [1997] (320 Kbps) FlacSérgio Reis - MPB no JT 8 [1997] Flac5. Sérgio Reis - MPB no JT 8 - C lix Bento.wav

Peak level 97.7 %
Track quality 100.0 %
Copy CRC 8ED8B20F
Copy OK

Track 6

Filename O:MPB No JTSérgio Reis - MPB no JT 8 [1997] (320 Kbps) FlacSérgio Reis - MPB no JT 8 [1997] Flac6. Sérgio Reis - MPB no JT 8 - Serafim e seus Filhos.wav

Peak level 97.7 %
Track quality 100.0 %
Copy CRC A786AFD6
Copy OK

Track 7

Filename O:MPB No JTSérgio Reis - MPB no JT 8 [1997] (320 Kbps) FlacSérgio Reis - MPB no JT 8 [1997] Flac7. Sérgio Reis - MPB no JT 8 - Chalana.wav

Peak level 95.4 %
Track quality 100.0 %
Copy CRC 6273E128
Copy OK

Track 8

Filename O:MPB No JTSérgio Reis - MPB no JT 8 [1997] (320 Kbps) FlacSérgio Reis - MPB no JT 8 [1997] Flac8. Sérgio Reis - MPB no JT 8 - Boiadeiro Errante.wav

Peak level 85.7 %
Track quality 100.0 %
Copy CRC 343586AB
Copy OK

Track 9

Filename O:MPB No JTSérgio Reis - MPB no JT 8 [1997] (320 Kbps) FlacSérgio Reis - MPB no JT 8 [1997] Flac9. Sérgio Reis - MPB no JT 8 - Filho Adotivo.wav

Peak level 97.0 %
Track quality 100.0 %
Copy CRC 564D3CB9
Copy OK

Track 10

Filename O:MPB No JTSérgio Reis - MPB no JT 8 [1997] (320 Kbps) FlacSérgio Reis - MPB no JT 8 [1997] Flac10. Sérgio Reis - MPB no JT 8 - Disparada.wav

Peak level 89.9 %
Track quality 99.9 %
Copy CRC EF6DF689
Copy OK

Track 11

Filename O:MPB No JTSérgio Reis - MPB no JT 8 [1997] (320 Kbps) FlacSérgio Reis - MPB no JT 8 [1997] Flac11. Sérgio Reis - MPB no JT 8 - Sina de Violeiro.wav

Peak level 89.6 %
Track quality 100.0 %
Copy CRC DC866D90
Copy OK

Track 12

Filename O:MPB No JTSérgio Reis - MPB no JT 8 [1997] (320 Kbps) FlacSérgio Reis - MPB no JT 8 [1997] Flac12. Sérgio Reis - MPB no JT 8 - Prociss o.wav

Peak level 97.7 %
Track quality 100.0 %
Copy CRC 7A86CFF2
Copy OK

No errors occurred

End of status report

------------------------------------------------------------

Exact Audio Copy V0.99 prebeta 5 from 4. May 2009

EAC extraction logfile from 18. October 2010, 19:04

Sérgio Reis / MPB no JT 8

Used drive : HL-DT-STDVDRAM GSA-4081B Adapter: 1 ID: 0

Read mode : Secure
Utilize accurate stream : Yes
Defeat audio cache : No
Make use of C2 pointers : Yes

Combined read/write offset correction : 0
Overread into Lead-In and Lead-Out : No
Fill up missing offset samples with silence : Yes
Delete leading and trailing silent blocks : No
Null samples used in CRC calculations : No
Used interface : Native Win32 interface for Win NT & 2000
Gap handling : Not detected, thus appended to previous track

Used output format : User Defined Encoder
Selected bitrate : 1024 kBit/s
Quality : High
Add ID3 tag : No
Command line compressor : f:Arquivos de programasExact Audio CopyFLACFLAC.EXE
Additional command line options : -6 -V -T "ARTIST=%a" -T "TITLE=%t" -T "ALBUM=%g" -T "DATE=%y" -T "TRACKNUMBER=%n" -T "GENRE=%m" -T "COMMENT=%e" %s -o %d TOC of the extracted CD

Track | Start | Length | Start sector | End sector
---------------------------------------------------------
1 | 0:00.00 | 3:15.42 | 0 | 14666
2 | 3:15.42 | 3:56.15 | 14667 | 32381
3 | 7:11.57 | 4:14.70 | 32382 | 51501
4 | 11:26.52 | 2:27.12 | 51502 | 62538
5 | 13:53.64 | 3:18.53 | 62539 | 77441
6 | 17:12.42 | 3:55.45 | 77442 | 95111
7 | 21:08.12 | 2:47.35 | 95112 | 107671
8 | 23:55.47 | 3:31.38 | 107672 | 123534
9 | 27:27.10 | 3:48.67 | 123535 | 140701
10 | 31:16.02 | 4:09.68 | 140702 | 159444
11 | 35:25.70 | 3:26.22 | 159445 | 174916
12 | 38:52.17 | 2:39.48 | 174917 | 186889 Track 1

Filename O:MPB No JTSérgio Reis - MPB no JT 8 [1997] (320 Kbps) FlacSérgio Reis - MPB no JT 8 [1997] Flac1. Sérgio Reis - MPB no JT 8 - Baita Macho.wav

Peak level 97.7 %
Track quality 99.8 %
Copy CRC 3890E857
Copy OK

Track 2

Filename O:MPB No JTSérgio Reis - MPB no JT 8 [1997] (320 Kbps) FlacSérgio Reis - MPB no JT 8 [1997] Flac2. Sérgio Reis - MPB no JT 8 - Bandeira do Divino.wav

Peak level 97.7 %
Track quality 99.9 %
Copy CRC 00D554C0
Copy OK

Track 3

Filename O:MPB No JTSérgio Reis - MPB no JT 8 [1997] (320 Kbps) FlacSérgio Reis - MPB no JT 8 [1997] Flac3. Sérgio Reis - MPB no JT 8 - O Menino da Gaita.wav

Peak level 94.2 %
Track quality 100.0 %
Copy CRC D567431E
Copy OK

Track 4

Filename O:MPB No JTSérgio Reis - MPB no JT 8 [1997] (320 Kbps) FlacSérgio Reis - MPB no JT 8 [1997] Flac4. Sérgio Reis - MPB no JT 8 - Pe o de Boiadeiro.wav

Peak level 97.7 %
Track quality 100.0 %
Copy CRC 6F795948
Copy OK

Track 5

Filename O:MPB No JTSérgio Reis - MPB no JT 8 [1997] (320 Kbps) FlacSérgio Reis - MPB no JT 8 [1997] Flac5. Sérgio Reis - MPB no JT 8 - C lix Bento.wav

Peak level 97.7 %
Track quality 100.0 %
Copy CRC 8ED8B20F
Copy OK

Track 6

Filename O:MPB No JTSérgio Reis - MPB no JT 8 [1997] (320 Kbps) FlacSérgio Reis - MPB no JT 8 [1997] Flac6. Sérgio Reis - MPB no JT 8 - Serafim e seus Filhos.wav

Peak level 97.7 %
Track quality 100.0 %
Copy CRC A786AFD6
Copy OK

Track 7

Filename O:MPB No JTSérgio Reis - MPB no JT 8 [1997] (320 Kbps) FlacSérgio Reis - MPB no JT 8 [1997] Flac7. Sérgio Reis - MPB no JT 8 - Chalana.wav

Peak level 95.4 %
Track quality 100.0 %
Copy CRC 6273E128
Copy OK

Track 8

Filename O:MPB No JTSérgio Reis - MPB no JT 8 [1997] (320 Kbps) FlacSérgio Reis - MPB no JT 8 [1997] Flac8. Sérgio Reis - MPB no JT 8 - Boiadeiro Errante.wav

Peak level 85.7 %
Track quality 100.0 %
Copy CRC 343586AB
Copy OK

Track 9

Filename O:MPB No JTSérgio Reis - MPB no JT 8 [1997] (320 Kbps) FlacSérgio Reis - MPB no JT 8 [1997] Flac9. Sérgio Reis - MPB no JT 8 - Filho Adotivo.wav

Peak level 97.0 %
Track quality 100.0 %
Copy CRC 564D3CB9
Copy OK

Track 10

Filename O:MPB No JTSérgio Reis - MPB no JT 8 [1997] (320 Kbps) FlacSérgio Reis - MPB no JT 8 [1997] Flac10. Sérgio Reis - MPB no JT 8 - Disparada.wav

Peak level 89.9 %
Track quality 99.9 %
Copy CRC EF6DF689
Copy OK

Track 11

Filename O:MPB No JTSérgio Reis - MPB no JT 8 [1997] (320 Kbps) FlacSérgio Reis - MPB no JT 8 [1997] Flac11. Sérgio Reis - MPB no JT 8 - Sina de Violeiro.wav

Peak level 89.6 %
Track quality 100.0 %
Copy CRC DC866D90
Copy OK

Track 12

Filename O:MPB No JTSérgio Reis - MPB no JT 8 [1997] (320 Kbps) FlacSérgio Reis - MPB no JT 8 [1997] Flac12. Sérgio Reis - MPB no JT 8 - Prociss o.wav

Peak level 97.7 %
Track quality 100.0 %
Copy CRC 7A86CFF2
Copy OK

No errors occurred

End of status report

Megaupload

MP3 Fileserve

Flac MP3



Par De Reis | Reis 2 Saladuslik Saar | De Ongelofelijke Reis | De Hobbit Een Onverwachte Reis | De Reis Om De Wereld In 80 Dagen Is Safe 1 | Sergio Reis E Filhos | Sergio Y Es | Sergio Mendes Best Of | Exodo Deuses E Reis Dublado
Free Full Download Sérgio Reis – MPB no JT form MediaFire link RapidShare, ifile.it, Uploaded.to, Zippyshare, FileSonic, turbobit, ul.to, ORON, DepositFiles,rapidgator.net, extabit.com, filefactory.com. Sérgio Reis – MPB no JT Torrent Download with keygen, crack, serial, cdkey,password,1080P,hd, 2015, 2016
Dear visitor, you went to the site as unregistered user.
We encourage you to register .

Add comment

Name:*
E-Mail:*
Comment:
  • bowtiesmilelaughingblushsmileyrelaxedsmirk
    heart_eyeskissing_heartkissing_closed_eyesflushedrelievedsatisfiedgrin
    winkstuck_out_tongue_winking_eyestuck_out_tongue_closed_eyesgrinningkissingstuck_out_tonguesleeping
    worriedfrowninganguishedopen_mouthgrimacingconfusedhushed
    expressionlessunamusedsweat_smilesweatdisappointed_relievedwearypensive
    disappointedconfoundedfearfulcold_sweatperseverecrysob
    joyastonishedscreamtired_faceangryragetriumph
    sleepyyummasksunglassesdizzy_faceimpsmiling_imp
    neutral_faceno_mouthinnocent
Enter the two words shown in the image:

Sitemap We don't Store Any File In Server. The Search and free download links all published by our users.if You Have Any Doubts About Legality Of Content, plz contact us.
  • count 88x31px