Rufus Huff - Rufus Huff (2009)

jone Category: music

Rufus Huff - Rufus Huff (2009)
EAC Rip | FLAC (Image) + CUE + LOG | 463 MB | + Covers
Genre: Blues/Psychedelic/Southern Rock | Label: Zoho Music | Catalog Number: 200904 | Release Date: Apr 14, 2009
RAR 5% Rec. | Rapidshare + Filesonic

The extremely retro sound of Rufus Huff's self-titled album reaches back to the heyday of blues-rock in the early '70s, particularly British acts in the bluesy hard rock/nearly metal style like Led Zeppelin, Free, and Jeff Beck's early groups. This CD came about nearly 40 years after that heyday, but it sounds very much like it could have been cut way back then, Jarrod England's vocals in particular bearing mucho similarity to Robert Plant at his most macho. Greg Martin of the Kentucky Headhunters is by far the most celebrated of the musicians, playing feisty hard rock guitar and co-producing. The effect is very much like hearing a bar band whose members have really studied the form cold, but happen (unlike many bar bands) to write most of their original material, though this disc does have covers of the old Chicago blues classics "Good Morning Little School Girl" and "I Ain't Superstitious." Does it add anything to the tradition (which was itself a bit of a bastardization of the American blues tradition)? No; it's well-executed but formulaic, and the constant high-octane boasting tone of most of the tunes can grate if this kind of stuff isn't your main diet--by Richie Unterberger


------------
Tracklist
------------
1. 13 Daze 4:52_Play_
2. High on Heaven Hill 4:37
3. Run Rufus Run 5:43
4. El Lago 6:21
5. Shirley's 5:13
6. Gotta Have Her Name 5:54
7. Good Morning Little School Girl 5:23_Play_
8. It's All Right 5:49
9. The Bottom 6:24
10. Hain't No Good Life 4:48
11. I Ain't Superstitious 2:49_Play_
12. Funky Junk 1:41


Personnel:
Jarrod England - Vocals
Greg Martin - Guitars
Dean Smith - Bass
Chris Hardesty - Drums,Percussion
Sandra & Tonya Dye - Additional Vocals on Tracks 4 and 8


EAC LOG
Exact Audio Copy V1.0 beta 3 from 29. August 2011

EAC extraction logfile from 11. November 2011, 10:29

Rufus Huff / Rufus Huff

Used drive : ASUS DRW-24B1LT Adapter: 3 ID: 0

Read mode : Secure
Utilize accurate stream : Yes
Defeat audio cache : Yes
Make use of C2 pointers : No

Read offset correction : 6
Overread into Lead-In and Lead-Out : No
Fill up missing offset samples with silence : Yes
Delete leading and trailing silent blocks : No
Null samples used in CRC calculations : Yes
Used interface : Native Win32 interface for Win NT & 2000

Used output format : User Defined Encoder
Selected bitrate : 1024 kBit/s
Quality : High
Add ID3 tag : Yes
Command line compressor : C:Program FilesExact Audio CopyFLACFLAC.EXE
Additional command line options : -6 -V -T "ARTIST=%artist%" -T "TITLE=%title%" -T "ALBUM=%albumtitle%" -T "DATE=%year%" -T "TRACKNUMBER=%tracknr%" -T "GENRE=%genre%" -T "COMMENT=%comment%" %hascover%--picture="%coverfile%"%hascover% %source% -o %dest% TOC of the extracted CD

Track | Start | Length | Start sector | End sector
---------------------------------------------------------
1 | 0:00.00 | 4:52.29 | 0 | 21928
2 | 4:52.29 | 4:37.70 | 21929 | 42773
3 | 9:30.24 | 5:43.59 | 42774 | 68557
4 | 15:14.08 | 6:21.36 | 68558 | 97168
5 | 21:35.44 | 5:13.13 | 97169 | 120656
6 | 26:48.57 | 5:54.69 | 120657 | 147275
7 | 32:43.51 | 5:23.03 | 147276 | 171503
8 | 38:06.54 | 5:49.42 | 171504 | 197720
9 | 43:56.21 | 6:24.30 | 197721 | 226550
10 | 50:20.51 | 4:48.27 | 226551 | 248177
11 | 55:09.03 | 2:49.53 | 248178 | 260905
12 | 57:58.56 | 1:40.36 | 260906 | 268441 Range status and errors

Selected range

Filename D:MUSIKRufus Huff - Rufus Huff [FLAC] (2009)Rufus Huff - Rufus Huff.wav

Peak level 100.0 %
Extraction speed 7.7 X
Range quality 100.0 %
Copy CRC E2E704AA
Copy OK

No errors occurred


AccurateRip summary

Track 1 not present in database
Track 2 not present in database
Track 3 not present in database
Track 4 not present in database
Track 5 not present in database
Track 6 not present in database
Track 7 not present in database
Track 8 not present in database
Track 9 not present in database
Track 10 not present in database
Track 11 not present in database
Track 12 not present in database

None of the tracks are present in the AccurateRip database

End of status report

==== Log checksum AC25597A70BE6D7D5FC73FE51B5763A75FC00B12377CE145968400D5A556C9B3 ====


AllMusic
Official Website
ZohoMusic

In case you encounter dead links in any of my posts, please send me a private message !!!!

NO mirrors and/or direct links in your comments, please !!!!


**** Rapidshare ****

Part 1|Part 2|Part 3|Part 4|Part 5

**** Filesonic ****

Part 1|Part 2|Part 3|Part 4|Part 5

The files are interchangeable!

***** Pass: countryfreak *****



Rufus Out Of The Game | Ac Dc 2009 | Pro Evolution 2009 2009 | Rufus Wainwright Prima Donna | Up In The Air 2009 | Met Art 2009 | Wwe No Way Out 2009 | Rufus Wainwright All Days Are Night | Rufus Create Bootable Usb Flash Drives | Rufus And Chaka Khan
Free Full Download Rufus Huff - Rufus Huff (2009) form MediaFire link RapidShare, ifile.it, Uploaded.to, Zippyshare, FileSonic, turbobit, ul.to, ORON, DepositFiles,rapidgator.net, extabit.com, filefactory.com. Rufus Huff - Rufus Huff (2009) Torrent Download with keygen, crack, serial, cdkey,password,1080P,hd, 2015, 2016
Dear visitor, you went to the site as unregistered user.
We encourage you to register .

Add comment

Name:*
E-Mail:*
Comment:
  • bowtiesmilelaughingblushsmileyrelaxedsmirk
    heart_eyeskissing_heartkissing_closed_eyesflushedrelievedsatisfiedgrin
    winkstuck_out_tongue_winking_eyestuck_out_tongue_closed_eyesgrinningkissingstuck_out_tonguesleeping
    worriedfrowninganguishedopen_mouthgrimacingconfusedhushed
    expressionlessunamusedsweat_smilesweatdisappointed_relievedwearypensive
    disappointedconfoundedfearfulcold_sweatperseverecrysob
    joyastonishedscreamtired_faceangryragetriumph
    sleepyyummasksunglassesdizzy_faceimpsmiling_imp
    neutral_faceno_mouthinnocent
Enter the two words shown in the image:

Sitemap We don't Store Any File In Server. The Search and free download links all published by our users.if You Have Any Doubts About Legality Of Content, plz contact us.
  • count 88x31px