Pergolesi - Stabat Mater / Missa S. Emidio / Dixit Dominus (Claudio Abbado) RE-UPLOAD

jone Category: music

Pergolesi - Stabat Mater/Missa S. Emidio/ Dixit Dominus (Claudio Abbado)
Classical | EAC Rip | FLAC, IMG+CUE, LOG | Archiv Produktion | Covers | 3cd, 912.78 MB

Pergolesi Year 2010 celebrates the birth 300 years ago of a first rank composer. Had Pergolesi not died young, his name would rank among the most stellar and influential of Italy’s 18th-century composers. Despite the brevity of his life – he died at 26 – Pergolesi created numerous deathless works.
The special edition comprising the three albums comes in a nice hardcover booklet and is an ideal gift for the festive season. As an extra the combined booklet contains all texts in Italian, additional images, and a Pergolesi timeline.
The Stabat Mater album released in August 2009 got excellent reviews in the international press. Characteristic are these comments in The Times: “Abbado’s commitment to period style is never in doubt . . . He has exceptional soloists: Rachel Harnisch and Sara Mingardo in the Stabat, ravishing in the harmonic suspensions of their duets; a lovely toned Julia Kleiter in the Salve; and the exemplary Giuliano Carmignola in the rarely recorded Violin Concerto, a little masterpiece, all but forgotten by the mainstream.”
Pergolesi’s church music is distinguished not just by lively declamation of the text but by the melodic charm of the solo sections, which contrast richly to the choral passages. Abbado’s passion for this music meets these sacred compositions on the exalted level where they were composed
The Dixit Dominus, Salve Regina in A minor, Confitebor tibi, Domine, and Chi non ode e chi non vede are recorded live.


Pergolesi – Stabat Mater; Violin Concerto B-dur; Salve Regina c-moll (Claudio Abbado, Sara Mingardo, Rachel Harnisch, Julia Kleiter, Giuliano Carmignola [2009]
Catalog Number: 477 8077 | 65:12 | 1cd, 299.18 MB
PSMCA
Giovanni Battista Pergolesi had a tragically short career, living just 26 years, and producing most of his mature works over a period of about five years. This album includes three of the composer's most representative pieces. The most familiar is the 40-minute Stabat mater for soprano, alto, and orchestra, which was the most frequently published composition of the 18th century. This version, featuring soprano Rachel Harnisch and contralto Sara Mingardo, makes a splendid introduction to the work and should be of interest to anyone who loves this poignant music. Both soloists have expressive voices of exceptional purity and intensity, beautifully suited to this alternately serene and wrenching score. Mingardo is particularly striking in the aria, "Fac, ut portem Christi mortem," in which she descends into a baritonal range with startlingly solid, oaken timbre. The cheery, playful tone of the Violin Concerto reveals the composer's versatility and Giuliano Carmignola nails its technical demands with lovely tone and disarming grace. The album includes one of Pergolesi's four settings of Salve regina, with soprano Julia Kleiter. It's a largely somber work, similar in emotional tone to the Stabat mater. In spite of its name, the Bologna-based Orchestra Mozart plays music of all eras, and under Claudio Abbado's leadership it brings just the right fleet agility to this music, which is balanced between the Baroque and Classical eras. The sound of the live performances is clean and well balanced, with a warm ambience.
by Stephen Eddins

Performer:
Rachel Harnisch, soprano
Sara Mingardo, contralto
Julia Kleiter, soprano
Giuliano Carmignola, violin
Orchestra Mozart
Conductor - Claudio Abbado

Tracklisting:
1. Stabat Mater. Duet: Stabat Mater dolorosa
2. Aria (soprano): Cujus animam gementem
3. Duet: O quam tristis et afflicta
4. Aria (contralto): Quae moerebat et dolebat
5. Duet: Quis est homo, qui non fleret
6. Aria (soprano): Vidit suum dulcem natum
7. Aria (contralto): Eia, Mater, fons amoris
8. Duet: Fac, ut ardeat cor meum
9. Duet: Sancta Mater, istud agas
10. Aria (contralto): Fac, ut portem Christi mortem
11. Duet: Inflammatus et accensus
12. Duet: Quando corpus morietur - Amen
13. Concerto for Violin in B Flat major: I. Allegro
14. II. Largo
15. III. Allegro
16. Salve Regina in C minor: I. Salve Regina
17. II. Ad te clamamus
18. III. Eia ergo
19. IV. Et Jesum benedictum
20. V. O clemens, o pia


Pergolesi - Missa S. Emidio, Salve Regina f-moll, Manca la guida al pie, Laudate pueri Dominum (Claudio Abbado, Sara Mingardo) [2010]
Catalog Number: 00289 477 8463 | 72’49 | 1cd, 319.68 MB
PMSEA
Had Pergolesi not died young, his name would rank among the most stellar and influential of Italy’s 18th-century composers. Despite the brevity of his life – he died at 26 – Pergolesi created numerous deathless works
In this second album of Claudio Abbado’s Pergolesi Project, the renowned maestro conducts the Missa S. Emidio, Manca la guida al pie, Laudate pueri Dominum, and the Salve Regina in F minor. Abbado’s passion for this music meets these sacred compositions on the exalted level where they were composed
Pergolesi’s church music is distinguished not just by lively declamation of the text but by the melodic charm of the solo sections, which contrast richly to the choral passages
To be released in February, this album showcases the talents of such singers as Rachel Harnisch, Sara Mingardo, Veronica Cangemi, and Teresa Romano, who bring exceptional vocal and interpretive gifts to this deceptively simple repertoire
The Stabat Mater album released in August 2009 got excellent reviews in the international press: “Abbado’s commitment to period style is never in doubt . . . He has exceptional soloists: Rachel Harnisch and Sara Mingardo in the Stabat, ravishing in the harmonic suspensions of their duets; a lovely toned Julia Kleiter in the Salve; and the exemplary Giuliano Carmignola in the rarely recorded Violin Concerto, a little masterpiece, all but forgotten by the mainstream.” (The Times)

Performer:
Veronica Cangemi - soprano
Sara Mingardo - contralto
Rachel Harnisch - soprano
Teresa Romano – mezzo-soprano
Coro della Radiotelevisione Svizzera
Orchestra Mozart
Conductor - Claudio Abbado

Tracklisting:
1. Missa S. Emidio. I. Kyrie Eleison
2. II. Christe Eleison
3. III. Kyrie Eleison
4. IV. Gloria In Excelsis Deo
5. V. Laudamus Te
6. VI. Gratias Agimus Tibi
7. VII. Domine Deus
8. VIII. Qui Tollis Peccata Mundi (I)
9. IX. Qui Tollis Peccata Mundi (II)
10. X. Qui Sedes Ad Dexteram Patris
11. XI. Quoniam Tu Solus Sanctus
12. XII. Cum Sancto Spiritu. Amen
13. Salve Regina in f-moll. I. Salve Regina
14. II. Ad Te Clamamus
15. III. Eia Ergo
16. IV. Et Jesum Benedictum
17. V. O Clemens, O Pia
18. Manca La Guida Al Piè. Recitativo: È Dover Che Le Luci
19. Aria: Manca La Guida Al Piè
20. Laudate Pueri Dominum. I. Laudate Pueri
21. II. A Solis Ortu
22. III. Excelsus Super Omnes
23. IV. Quis Sicut Dominus
24. V. Suscitans A Terra
25. VI. Gloria Patri
26. VII. Sicut Erat In Principio


Pergolesi – Confitebor tibi, Domine; Chi non ode e chon en vede; Salve Regina a-moll; Dixit Dominus (Claudio Abbado, Julia Kleiter, Rosa Bove, Rachel Harnisch) [2010]
Catalog Number: 00289 477 8465 | 65’03 | 1cd, 293.92 MB

Pergolesi Year 2010 marks the birth 300 years ago of a first rank composer and singular voice. Claudio Abbado's affinity for Pergolesi is a joy to the ear and balm to the soul. The introductory album of maestro's Pergolesi Project, the famous Stabat Mater, was rapturously received by the press.
Characteristic are these comments in The Times: "Abbado's commitment to period style is never in doubt...He has exceptional soloists: Rachel Harnisch and Sara Mingardo in the Stabat, ravishing in the harmonic suspensions of their duets; a lovely toned Julia Kleiter in the Salve; and the exemplary Giuliano Carmignola in the rarely recorded Violin Concerto, a little masterpiece, all but forgotten by the mainstream."

Performer:
Julia Kleiter, soprano
Rachel Harnisch, soprano
Rosa Bove, contralto
Lucio Gallo, bass-baritone
Coro della Radiotelevisione Svizzera
Orchestra Mozart
Conductor - Claudio Abbado

Tracklisting:
1. CONFITEBOR TIBI, DOMINE. I. Confitebor tibi, Domine
2. II. Confessio et magnificentia opus eius
3. III. Fidelia omnia mandata eius
4. IV. Redemptionem misit populo suo
5. V. Sanctum et terribile nomen eius
6. VI. Gloria Patri
7. VII. Sicut erat in principio
8. CHI NON ODE E CHI NON VEDE. Aria: Chi non ode e chi non vede
9. Recitativo: Di costei parlo
10. Largo: Tu dovresti, Amor tiranno
11. Recitativo: Ma dove io mi rivolgo?
12. Largo stentato: Miseri affetti miei
13. Aria. Presto: Cadro contento
14. SALVE REGINA a-moll. I. Salve Regina
15. II. Ad te clamamus
16. III. Eia ergo
17. IV. O clemens, o pia
18. DIXIT DOMINUS. I. Dixit Dominus
19. II. Virgam virtutis
20. III. Dominare
21. IV. Tecum principium
22. V. Juravit Dominus
23. VI. Dominus a dextris tuis
24. VII. Gloria Patri

LOG PSMCA:
Exact Audio Copy V1.0 beta 1 from 15. November 2010

EAC extraction logfile from 13. March 2012, 14:40

Claudio Abbado, R.Harnisch, S.Mingardo, J.Kleiter, G.Carmignola / Pergolesi - Stabat Mater, Violin Concerto, Salve Regina c-moll

Used drive : PIONEER DVD-RW DVR-218L Adapter: 1 ID: 0

Read mode : Secure
Utilize accurate stream : Yes
Defeat audio cache : Yes
Make use of C2 pointers : No

Read offset correction : 6
Overread into Lead-In and Lead-Out : No
Fill up missing offset samples with silence : Yes
Delete leading and trailing silent blocks : No
Null samples used in CRC calculations : Yes
Used interface : Native Win32 interface for Win NT & 2000

Used output format : User Defined Encoder
Selected bitrate : 192 kBit/s
Quality : High
Add ID3 tag : No
Command line compressor : C:Program FilesExact Audio CopyFlacflac.exe
Additional command line options : -T "DATE=%y" -T "GENRE=%m" -8 -V %s TOC of the extracted CD

Track | Start | Length | Start sector | End sector
---------------------------------------------------------
1 | 0:00.00 | 4:14.34 | 0 | 19083
2 | 4:14.34 | 2:20.44 | 19084 | 29627
3 | 6:35.03 | 2:14.26 | 29628 | 39703
4 | 8:49.29 | 2:09.69 | 39704 | 49447
5 | 10:59.23 | 2:31.04 | 49448 | 60776
6 | 13:30.27 | 3:35.34 | 60777 | 76935
7 | 17:05.61 | 2:14.74 | 76936 | 87059
8 | 19:20.60 | 2:20.04 | 87060 | 97563
9 | 21:40.64 | 5:31.45 | 97564 | 122433
10 | 27:12.34 | 3:52.12 | 122434 | 139845
11 | 31:04.46 | 2:12.27 | 139846 | 149772
12 | 33:16.73 | 5:15.33 | 149773 | 173430
13 | 38:32.31 | 5:10.70 | 173431 | 196750
14 | 43:43.26 | 3:37.37 | 196751 | 213062
15 | 47:20.63 | 3:52.00 | 213063 | 230462
16 | 51:12.63 | 3:58.18 | 230463 | 248330
17 | 55:11.06 | 3:54.39 | 248331 | 265919
18 | 59:05.45 | 1:30.41 | 265920 | 272710
19 | 60:36.11 | 2:16.45 | 272711 | 282955
20 | 62:52.56 | 2:16.62 | 282956 | 293217 Range status and errors

Selected range

Filename C:Pergolesi - Stabat Mater, Violin Concerto, Salve Regina c-moll.wav

Peak level 99.8 %
Extraction speed 0.0 X
Range quality 100.0 %
Test CRC FACE71A7
Copy CRC FACE71A7
Copy OK

No errors occurred


AccurateRip summary

Track 1 accurately ripped (confidence 5) [C88EA595]
Track 2 accurately ripped (confidence 5) [E9BABB44]
Track 3 accurately ripped (confidence 5) [D1DC8F65]
Track 4 accurately ripped (confidence 5) [B0E8AA7F]
Track 5 accurately ripped (confidence 5) [66EBB2D2]
Track 6 accurately ripped (confidence 5) [F51D5FD4]
Track 7 accurately ripped (confidence 5) [64C9CA5B]
Track 8 accurately ripped (confidence 5) [77E81067]
Track 9 accurately ripped (confidence 5) [7AD1288D]
Track 10 accurately ripped (confidence 5) [E4256078]
Track 11 accurately ripped (confidence 5) [81FAC276]
Track 12 accurately ripped (confidence 5) [85BE5929]
Track 13 accurately ripped (confidence 5) [9331EB59]
Track 14 accurately ripped (confidence 5) [B1D3E240]
Track 15 accurately ripped (confidence 5) [67356489]
Track 16 accurately ripped (confidence 5) [2617E940]
Track 17 accurately ripped (confidence 5) [E3D198C0]
Track 18 accurately ripped (confidence 5) [0D542D5D]
Track 19 accurately ripped (confidence 5) [2F1C64B2]
Track 20 accurately ripped (confidence 5) [33707B3E]

All tracks accurately ripped

End of status report

==== Log checksum 72108A4AEC43814A59289482EEB6D7F1D27F2FFDBAA70E6369EF034AB2DDF884 ====

LOG PMSEA:
Exact Audio Copy V1.0 beta 1 from 15. November 2010

EAC extraction logfile from 13. March 2012, 16:11

Claudio Abbado, V. Cangemi, S.Mingardo, R.Harnisch, T.Romano / Pergolesi - Missa S. Emidio, Salve Regina f-moll

Used drive : PIONEER DVD-RW DVR-218L Adapter: 1 ID: 0

Read mode : Secure
Utilize accurate stream : Yes
Defeat audio cache : Yes
Make use of C2 pointers : No

Read offset correction : 6
Overread into Lead-In and Lead-Out : No
Fill up missing offset samples with silence : Yes
Delete leading and trailing silent blocks : No
Null samples used in CRC calculations : Yes
Used interface : Native Win32 interface for Win NT & 2000

Used output format : User Defined Encoder
Selected bitrate : 192 kBit/s
Quality : High
Add ID3 tag : No
Command line compressor : C:Program FilesExact Audio CopyFlacflac.exe
Additional command line options : -T "DATE=%y" -T "GENRE=%m" -8 -V %s TOC of the extracted CD

Track | Start | Length | Start sector | End sector
---------------------------------------------------------
1 | 0:00.00 | 0:45.18 | 0 | 3392
2 | 0:45.18 | 2:28.00 | 3393 | 14492
3 | 3:13.18 | 0:58.32 | 14493 | 18874
4 | 4:11.50 | 2:40.65 | 18875 | 30939
5 | 6:52.40 | 2:07.57 | 30940 | 40521
6 | 9:00.22 | 3:48.33 | 40522 | 57654
7 | 12:48.55 | 4:12.38 | 57655 | 76592
8 | 17:01.18 | 2:15.36 | 76593 | 86753
9 | 19:16.54 | 4:03.74 | 86754 | 105052
10 | 23:20.53 | 2:19.37 | 105053 | 115514
11 | 25:40.15 | 1:47.62 | 115515 | 123601
12 | 27:28.02 | 2:40.21 | 123602 | 135622
13 | 30:08.23 | 4:38.39 | 135623 | 156511
14 | 34:46.62 | 4:44.29 | 156512 | 177840
15 | 39:31.16 | 1:33.13 | 177841 | 184828
16 | 41:04.29 | 2:18.04 | 184829 | 195182
17 | 43:22.33 | 2:09.35 | 195183 | 204892
18 | 45:31.68 | 2:09.27 | 204893 | 214594
19 | 47:41.20 | 6:35.15 | 214595 | 244234
20 | 54:16.35 | 3:05.21 | 244235 | 258130
21 | 57:21.56 | 3:38.04 | 258131 | 274484
22 | 60:59.60 | 2:05.71 | 274485 | 283930
23 | 63:05.56 | 2:05.06 | 283931 | 293311
24 | 65:10.62 | 2:29.26 | 293312 | 304512
25 | 67:40.13 | 2:53.36 | 304513 | 317523
26 | 70:33.49 | 2:15.36 | 317524 | 327684 Range status and errors

Selected range

Filename C:Pergolesi - Missa S. Emidio, Salve Regina f-moll.wav

Peak level 100.0 %
Extraction speed 0.0 X
Range quality 100.0 %
Test CRC A872F368
Copy CRC A872F368
Copy OK

No errors occurred


AccurateRip summary

Track 1 accurately ripped (confidence 2) [2F484A71]
Track 2 accurately ripped (confidence 2) [40043EE8]
Track 3 accurately ripped (confidence 2) [A20CEE6B]
Track 4 accurately ripped (confidence 2) [9EF343EC]
Track 5 accurately ripped (confidence 2) [23FE4779]
Track 6 accurately ripped (confidence 2) [A6164735]
Track 7 accurately ripped (confidence 2) [CA6FF2D6]
Track 8 accurately ripped (confidence 2) [EBB197A8]
Track 9 accurately ripped (confidence 2) [3CEB17D3]
Track 10 accurately ripped (confidence 2) [80C8EDF6]
Track 11 accurately ripped (confidence 2) [F485BC6E]
Track 12 accurately ripped (confidence 2) [49F91931]
Track 13 accurately ripped (confidence 2) [CE3ED51E]
Track 14 accurately ripped (confidence 2) [AAFFA201]
Track 15 accurately ripped (confidence 2) [D3DA07A8]
Track 16 accurately ripped (confidence 2) [4B3B1516]
Track 17 accurately ripped (confidence 2) [EB36A2F8]
Track 18 accurately ripped (confidence 2) [86B8D384]
Track 19 accurately ripped (confidence 2) [46711E77]
Track 20 accurately ripped (confidence 2) [DB705CB3]
Track 21 accurately ripped (confidence 2) [519C8E8A]
Track 22 accurately ripped (confidence 2) [0EDCCBA2]
Track 23 accurately ripped (confidence 2) [7DFEBBF4]
Track 24 accurately ripped (confidence 2) [3A2049E1]
Track 25 accurately ripped (confidence 2) [1B5179E7]
Track 26 accurately ripped (confidence 2) [D3AB8610]

All tracks accurately ripped

End of status report

==== Log checksum 557517ECCB3B5AF1437C76D6568FF0D9AC39B479907E1E3DDAC9152978996FDC ====

LOG PDDCA:
Exact Audio Copy V1.0 beta 1 from 15. November 2010

EAC extraction logfile from 13. March 2012, 17:46

Claudio Abbado, J.Kleiter, R.Bove, R.Harnisch / Pergolesi - Dixit Dominus, Salve Regina a-moll

Used drive : PIONEER DVD-RW DVR-218L Adapter: 1 ID: 0

Read mode : Secure
Utilize accurate stream : Yes
Defeat audio cache : Yes
Make use of C2 pointers : No

Read offset correction : 6
Overread into Lead-In and Lead-Out : No
Fill up missing offset samples with silence : Yes
Delete leading and trailing silent blocks : No
Null samples used in CRC calculations : Yes
Used interface : Native Win32 interface for Win NT & 2000

Used output format : User Defined Encoder
Selected bitrate : 192 kBit/s
Quality : High
Add ID3 tag : No
Command line compressor : C:Program FilesExact Audio CopyFlacflac.exe
Additional command line options : -T "DATE=%y" -T "GENRE=%m" -8 -V %s TOC of the extracted CD

Track | Start | Length | Start sector | End sector
---------------------------------------------------------
1 | 0:00.00 | 2:09.15 | 0 | 9689
2 | 2:09.15 | 4:38.57 | 9690 | 30596
3 | 6:47.72 | 2:08.73 | 30597 | 40269
4 | 8:56.70 | 0:53.48 | 40270 | 44292
5 | 9:50.43 | 3:56.06 | 44293 | 61998
6 | 13:46.49 | 0:58.21 | 61999 | 66369
7 | 14:44.70 | 2:59.70 | 66370 | 79864
8 | 17:44.65 | 7:20.38 | 79865 | 112902
9 | 25:05.28 | 1:00.17 | 112903 | 117419
10 | 26:05.45 | 1:23.24 | 117420 | 123668
11 | 27:28.69 | 0:26.27 | 123669 | 125645
12 | 27:55.21 | 0:57.63 | 125646 | 129983
13 | 28:53.09 | 4:18.51 | 129984 | 149384
14 | 33:11.60 | 3:19.05 | 149385 | 164314
15 | 36:30.65 | 2:17.14 | 164315 | 174603
16 | 38:48.04 | 2:14.30 | 174604 | 184683
17 | 41:02.34 | 3:24.33 | 184684 | 200016
18 | 44:26.67 | 3:14.74 | 200017 | 214640
19 | 47:41.66 | 2:13.42 | 214641 | 224657
20 | 49:55.33 | 1:02.09 | 224658 | 229316
21 | 50:57.42 | 2:35.20 | 229317 | 240961
22 | 53:32.62 | 1:45.73 | 240962 | 248909
23 | 55:18.60 | 4:38.64 | 248910 | 269823
24 | 59:57.49 | 5:05.29 | 269824 | 292727 Range status and errors

Selected range

Filename C:Pergolesi - Dixit Dominus, Salve Regina a-moll.wav

Peak level 99.0 %
Extraction speed 0.1 X
Range quality 100.0 %
Test CRC EAF650FB
Copy CRC EAF650FB
Copy OK

No errors occurred


AccurateRip summary

Track 1 accurately ripped (confidence 3) [67055FE9]
Track 2 accurately ripped (confidence 3) [93B82A0A]
Track 3 accurately ripped (confidence 3) [CC32B7B4]
Track 4 accurately ripped (confidence 3) [BD924068]
Track 5 accurately ripped (confidence 3) [E82F8F59]
Track 6 accurately ripped (confidence 3) [9E6ADCA7]
Track 7 accurately ripped (confidence 3) [B1B692AD]
Track 8 accurately ripped (confidence 3) [EF1C0B5B]
Track 9 accurately ripped (confidence 3) [332FAF99]
Track 10 accurately ripped (confidence 3) [73D06B4F]
Track 11 accurately ripped (confidence 3) [BDACB8E8]
Track 12 accurately ripped (confidence 3) [AA242A53]
Track 13 accurately ripped (confidence 3) [D77FF449]
Track 14 accurately ripped (confidence 3) [79A7F846]
Track 15 accurately ripped (confidence 3) [2E4E1217]
Track 16 accurately ripped (confidence 3) [1BE48787]
Track 17 accurately ripped (confidence 3) [C31783E6]
Track 18 accurately ripped (confidence 3) [1E405DF5]
Track 19 accurately ripped (confidence 3) [E7894465]
Track 20 accurately ripped (confidence 3) [45517A76]
Track 21 accurately ripped (confidence 3) [20E505E7]
Track 22 accurately ripped (confidence 3) [B940E727]
Track 23 accurately ripped (confidence 3) [197E6581]
Track 24 accurately ripped (confidence 3) [50824CFA]

All tracks accurately ripped

End of status report

==== Log checksum FE48140D7314AFEA8D61D2B773E905212F9CC35EE3C6A08DC1C73219811524B6 ====




Tokyo Mater | Pergolesi | Claudio Calabrese | Pollini Abbado Beethoven | Kickass Upload A | Claudio Baglioni Tutti Qui | Beethoven Piano Abbado | The Cars Mater | Upload Torrent Tutorial | Mahler Lucerne Abbado
Free Full Download Pergolesi - Stabat Mater / Missa S. form MediaFire link RapidShare, ifile.it, Uploaded.to, Zippyshare, FileSonic, turbobit, ul.to, ORON, DepositFiles,rapidgator.net, extabit.com, filefactory.com. Pergolesi - Stabat Mater / Missa S. Torrent Download with keygen, crack, serial, cdkey,password,1080P,hd, 2015, 2016
Dear visitor, you went to the site as unregistered user.
We encourage you to register .

Add comment

Name:*
E-Mail:*
Comment:
  • bowtiesmilelaughingblushsmileyrelaxedsmirk
    heart_eyeskissing_heartkissing_closed_eyesflushedrelievedsatisfiedgrin
    winkstuck_out_tongue_winking_eyestuck_out_tongue_closed_eyesgrinningkissingstuck_out_tonguesleeping
    worriedfrowninganguishedopen_mouthgrimacingconfusedhushed
    expressionlessunamusedsweat_smilesweatdisappointed_relievedwearypensive
    disappointedconfoundedfearfulcold_sweatperseverecrysob
    joyastonishedscreamtired_faceangryragetriumph
    sleepyyummasksunglassesdizzy_faceimpsmiling_imp
    neutral_faceno_mouthinnocent
Enter the two words shown in the image:

Sitemap We don't Store Any File In Server. The Search and free download links all published by our users.if You Have Any Doubts About Legality Of Content, plz contact us.
  • count 88x31px