North Mississippi Allstars - Polaris (2003)

peter Category: music

North Mississippi Allstars - Polaris (2003)
EAC Rip | FLAC (Image) + CUE + LOG | 309 MB | Covers Included
Genre: Rock/Blues-Rock | Label: Tone-Cool/ATO | Catalog Number: 21513/ATO-0012 | Release Date: Apr 22, 2003 | RAR 5% Rec. | RS.com + HF.com

North Mississippi Allstars return with Polaris, their most ambitious album yet. They added Duwayne Burnside on guitar and vocals, and brought an even more eclectic group of songs to the table. Starting with the soulful rocker "Eyes," they slide right into a fabulous version of Junior Kimbrough's "Meet Me in the City." "Conan" starts with nice fingerpicked acoustic guitars before moving into and out of a country boogie before the guitar solo. Luther Dickinson's meaty slide is featured on all over the place, often recalling Duane Allman. Pegged as roots rockers and loosely identified with the jam-band scene, North Mississippi Allstars might surprise some people with tunes like "Otay" and "Time for the Sun to Rise," which are extremely well-produced pure pop tunes. The Dickinson brothers have done a great job with production all the way around: crisp and clean without sounding glossy, and a rich, warm tone throughout. The band seems equally at ease doing greasy country blues or bright shiny pop, making it all seem effortless (or like on "Be So Glad" where 95-year-old Othar Turner's fife mixes with drum machines and Cody Burnside's rapping, bridging three generations and at least two styles of music). Things end with a hidden track called "Goin Home," an up-tempo instrumental that recalls the best elements of the Allman Brothers Band. With Polaris, North Mississippi Allstars have turned in their best set yet, showing that they're at the vanguard of a new Southern rock.



-----------------
Tracklist
-----------------

1. Eyes 3:54
2. Meet Me In the City 4:07
3. Conan 4:04
4. All Along 2:44
5. Otay 2:57
6. Kids These Daze 2:58
7. One To Grow On 4:44
8. Never In All My Bad Days 2:52
9. Bad Bad Pain 2:43
10. Polaris 3:22
11. Time For the Sun To Rise 4:16
12. Be So Glad 5:53

Personnel:
Luther Dickinson - Guitars,Toy Drum Kit,Vocals
Cody Dickinson - Drums,Guitars,Piano,Organ,Vocals
Chris Chew - Bass,Vocals
Duwayne Burnside - Guitar,Vocals

Guest Musicians:
Jim Dickinson - Omnichord,Mellotron,Fuzzwahclav,Piano
Otha Turner - Cane Fife,Vocals
Noel Gallagher - Vocals
Shawn Lane - Guitar
Steve Selvidge - Guitar,Vocals
Carwyn Burnside - Rap
Jimmy Crosthwait - Vocals
Susan Marshall - Vocals
Reba Russell - Vocals
Jim Spake - Baritone Sax
Tower of Sour - Sax & Trumpet
John C. Stubblefield - Double Bass
B. Gokham Somel - Cello
Heather Trussell - Violin
Diden Somel - Viola
Jonathon Kirkscey - Cello
Virginia Cupples - French Horn
Michael Scott - Bassoon
Patrick Plunk - Clarinet
Robyn Oakes - Oboe

Flac Download RS.com

Part 1 Part 2 Part 3 Part 4

Flac Download HF.com

Part 1 Part 2 Part 3 Part 4

***** Pass: avaxhome *****

EAC LOG
Exact Audio Copy V0.99 prebeta 5 from 4. May 2009

EAC extraction logfile from 20. July 2010, 8:30

North Mississippi Allstars / Polaris

Used drive : HL-DT-STDVDRAM GSA-H60N Adapter: 3 ID: 0

Read mode : Secure
Utilize accurate stream : Yes
Defeat audio cache : Yes
Make use of C2 pointers : No

Read offset correction : 667
Overread into Lead-In and Lead-Out : No
Fill up missing offset samples with silence : Yes
Delete leading and trailing silent blocks : No
Null samples used in CRC calculations : Yes
Used interface : Native Win32 interface for Win NT & 2000

Used output format : User Defined Encoder
Selected bitrate : 1024 kBit/s
Quality : High
Add ID3 tag : No
Command line compressor : C:Program FilesExact Audio CopyFLACFLAC.EXE
Additional command line options : -6 -V -T "ARTIST=%a" -T "TITLE=%t" -T "ALBUM=%g" -T "DATE=%y" -T "TRACKNUMBER=%n" -T "GENRE=%m" -T "COMMENT=%e" %s -o %d TOC of the extracted CD

Track | Start | Length | Start sector | End sector
---------------------------------------------------------
1 | 0:00.00 | 4:05.29 | 0 | 18403
2 | 4:05.29 | 4:07.58 | 18404 | 36986
3 | 8:13.12 | 4:04.25 | 36987 | 55311
4 | 12:17.37 | 2:44.62 | 55312 | 67673
5 | 15:02.24 | 2:57.45 | 67674 | 80993
6 | 17:59.69 | 2:58.28 | 80994 | 94371
7 | 20:58.22 | 4:44.46 | 94372 | 115717
8 | 25:42.68 | 2:52.29 | 115718 | 128646
9 | 28:35.22 | 2:43.12 | 128647 | 140883
10 | 31:18.34 | 3:22.64 | 140884 | 156097
11 | 34:41.23 | 4:17.06 | 156098 | 175378
12 | 38:58.29 | 6:10.05 | 175379 | 203133 Range status and errors

Selected range

Filename D:MUSIKNorth Mississippi Allstars - Polaris [FLA] (2003)North Mississippi Allstars - Polaris.wav

Peak level 96.6 %
Range quality 100.0 %
Copy CRC C1C32D81
Copy OK

No errors occurred


AccurateRip summary

Track 1 accurately ripped (confidence 20) [A2C64367]
Track 2 accurately ripped (confidence 20) [71F7D924]
Track 3 accurately ripped (confidence 20) [92E589C1]
Track 4 accurately ripped (confidence 20) [DDBC5977]
Track 5 accurately ripped (confidence 20) [233EE80B]
Track 6 accurately ripped (confidence 19) [05C2D772]
Track 7 accurately ripped (confidence 20) [DC675755]
Track 8 accurately ripped (confidence 20) [D0069DBA]
Track 9 accurately ripped (confidence 20) [3CD0F97C]
Track 10 accurately ripped (confidence 20) [05713A5C]
Track 11 accurately ripped (confidence 19) [A648C2CE]
Track 12 accurately ripped (confidence 19) [BB2E2F15]

All tracks accurately ripped

End of status report


CUE TOOLS LOG
[CUETools log; Date: 20.07.2010 09:15:01; Version: 2.0.9]
[AccurateRip ID: 00136f03-00b42fdb-990a940c] found.
Track [ CRC ] Status
01 [a2c64367] (20/22) Accurately ripped
02 [71f7d924] (20/22) Accurately ripped
03 [92e589c1] (20/22) Accurately ripped
04 [ddbc5977] (20/22) Accurately ripped
05 [233ee80b] (20/22) Accurately ripped
06 [05c2d772] (19/21) Accurately ripped
07 [dc675755] (20/22) Accurately ripped
08 [d0069dba] (20/22) Accurately ripped
09 [3cd0f97c] (20/22) Accurately ripped
10 [05713a5c] (20/22) Accurately ripped
11 [a648c2ce] (19/21) Accurately ripped
12 [bb2e2f15] (19/21) Accurately ripped
Offsetted by -659:
01 [f705ba15] (02/22) Accurately ripped
02 [1c097441] (02/22) Accurately ripped
03 [d84366c1] (02/22) Accurately ripped
04 [e3d97a88] (02/22) Accurately ripped
05 [52865455] (02/22) Accurately ripped
06 [463f61da] (02/21) Accurately ripped
07 [0ad97c05] (02/22) Accurately ripped
08 [d7e52e82] (02/22) Accurately ripped
09 [5c5c85ef] (02/22) Accurately ripped
10 [b8188d0b] (02/22) Accurately ripped
11 [564e2947] (02/21) Accurately ripped
12 [57084cff] (02/21) Accurately ripped

Track Peak [ CRC32 ] [W/O NULL] [ LOG ]
-- 96,6 [C1C32D81] [0ED56AE8] CRC32
01 96,6 [CC34B009] [CB5E51BE]
02 96,6 [4D0E8E48] [FB080D19]
03 96,6 [F8940186] [6505EE88]
04 95,3 [B3FA1E84] [4EC4D963]
05 96,6 [7E2D64DA] [F380BB89]
06 96,6 [986DEDA9] [9D111D73]
07 96,6 [DEE85DAC] [CE3D24EC]
08 96,6 [3E422BD3] [974F382F]
09 95,4 [29AFEB5F] [78470592]
10 96,6 [1FA537D4] [16519FEA]
11 96,6 [3F35116C] [F3A00049]
12 96,6 [9CDD18A3] [EEBD270E]


Homepage North Mississippi Allstars




The Greyboy Allstars | Wii Mario Allstars | North Mississippi All | The Bourne Conspiracy Pal X360 Allstars | Prom Night Mississippi | Project Runway Allstars | Masterchef Allstars S01E18 | The Love Allstars | Mississippi Masala 1991 | North Mississippi Allstars
Free Full Download North Mississippi Allstars - Polaris form MediaFire link RapidShare, ifile.it, Uploaded.to, Zippyshare, FileSonic, turbobit, ul.to, ORON, DepositFiles,rapidgator.net, extabit.com, filefactory.com. North Mississippi Allstars - Polaris Torrent Download with keygen, crack, serial, cdkey,password,1080P,hd, 2015, 2016
Dear visitor, you went to the site as unregistered user.
We encourage you to register .

Add comment

Name:*
E-Mail:*
Comment:
  • bowtiesmilelaughingblushsmileyrelaxedsmirk
    heart_eyeskissing_heartkissing_closed_eyesflushedrelievedsatisfiedgrin
    winkstuck_out_tongue_winking_eyestuck_out_tongue_closed_eyesgrinningkissingstuck_out_tonguesleeping
    worriedfrowninganguishedopen_mouthgrimacingconfusedhushed
    expressionlessunamusedsweat_smilesweatdisappointed_relievedwearypensive
    disappointedconfoundedfearfulcold_sweatperseverecrysob
    joyastonishedscreamtired_faceangryragetriumph
    sleepyyummasksunglassesdizzy_faceimpsmiling_imp
    neutral_faceno_mouthinnocent
Enter the two words shown in the image:

Sitemap We don't Store Any File In Server. The Search and free download links all published by our users.if You Have Any Doubts About Legality Of Content, plz contact us.
  • count 88x31px