Chet Atkins - Mr. Guitar - The Complete Recordings 1955-1960 (2004) 7 CD *Upgraded Repost*

alice Category: music

Chet Atkins - Mr. Guitar - The Complete Recordings 1955-1960 (2004) 7 CD
EAC, FLAC tracks, CUE+LOG - 2.25 GB | MP3 320 CBR - 1.2 GB | JPG artwork - 10 MB
Country | 5% recovery record | Source: Internet - Bear Family Records

Without Chet Atkins, country music may never have crossed over into the pop charts in the '50s and '60s. Although he recorded hundreds of solo records, Atkins' largest influence came as a session musician and a record producer. During the '50s and '60s, he helped create the Nashville sound, a style of country music that owed nearly as much to pop as it did to honky tonks.

I originally posted this as MP3 only. Now I have found this FLAC copy. I created these MP3 files in this post from the FLAC files so all of these files are different from the original post. Thanks go to the original ripper!



Tracklist:

cd1-01 - Cherry Pink And Apple Blossom White
cd1-02 - (The Wallflower) Dance With Me, Henry
cd1-03 - Darling, Je Vous Aime Beaucoup
cd1-04 - Tweedle Dee
cd1-05 - Hey, Mr. Guitar (Hey, Mr. Banjo)
cd1-06 - Unchained Melody
cd1-07 - Tennessee Polka
cd1-08 - Blues In The Night
cd1-09 - Black Mountain Rag
cd1-10 - Somebody Stole My Gal
cd1-11 - Shine On Harvest Moon
cd1-12 - Jingle Bells
cd1-13 - Christmas Carols
cd1-14 - Cecilia
cd1-15 - Arrivederci, Roma
cd1-16 - Sleigh Bells, Reindeer And Snow (Poss. Merle Atkins Vocal)
cd1-17 - New Spanish Two Step
cd1-18 - Intermezzo
cd1-19 - Tenderly
cd1-20 - Minute Waltz
cd1-21 - Minuet (From French Harpicord Suite, Prelude From Six Short Preludes)
cd1-22 - Schon Rosemarie
cd1-23 - Tip-Toe Through The Tulips With Me
cd1-24 - Arkansas Traveller
cd1-25 - Little Rock Getaway
cd1-26 - Ochi Chornya (Dark Eyes)
cd1-27 - Londonderry Air
cd1-28 - La Golondrina (The Swallow)
cd1-29 - The Poor People Of Paris (Jean's Song)
cd1-30 - Honey
cd1-31 - The Poor People Of Paris (Jean's Song)(2nd Version)
cd1-32 - Honey (2nd Version)

cd2-01 - The Lady Loves Me
cd2-02 - New Spanish Two Step (With Hank Snow)
cd2-03 - Reminiscing (With Hank Snow)
cd2-04 - Memphis Blues
cd2-05 - Oh! By Jingo
cd2-06 - Hello Ma Baby
cd2-07 - Indian Love Call
cd2-08 - Alice Blue Gown
cd2-09 - The Third Man Theme
cd2-10 - Blue Gypsy
cd2-11 - St. Louis Blues
cd2-12 - Dance Of The Golden Rod
cd2-13 - Unchained Melody
cd2-14 - Gavotte In D
cd2-15 - Malaguena
cd2-16 - Glow Worm
cd2-17 - In The Mood
cd2-18 - Heartaches
cd2-19 - Swedish Rhapsody
cd2-20 - Waltz In A-Flat
cd2-21 - Adelita
cd2-22 - Petite Waltz
cd2-23 - Liza
cd2-24 - Trambone
cd2-25 - Peanut Vendor
cd2-26 - Blue Echo
cd2-27 - Tricky
cd2-28 - Martinque
cd2-29 - Dig These Blues
cd2-30 - Colonial Ballroom
cd2-31 - Midnight

cd3-01 - El Cumbanchero
cd3-02 - Anna
cd3-03 - Tiger Rag
cd3-04 - Jitterbug Waltz
cd3-05 - Lullaby
cd3-06 - August Moon
cd3-07 - Beloved
cd3-08 - I Feel It In My Soul
cd3-09 - The Lord Done Brought Him Out
cd3-10 - The Red Leaves Of Autumn
cd3-11 - Because
cd3-12 - No Greater Love
cd3-13 - It's About Time
cd3-14 - Don't Tease My Heart
cd3-15 - Fascinating Melody
cd3-16 - Moon Over Burma
cd3-17 - A Great Love
cd3-18 - My Love Will Never Grow Old
cd3-19 - Saw Mill River Road
cd3-20 - Delightful Interlude
cd3-21 - Head Over Heels
cd3-22 - I Must Be Losing My Heart
cd3-23 - I Won't Cry Anymore
cd3-24 - When It's Cherry Blossom Time
cd3-25 - Portuguese Washerwoman
cd3-26 - You Do Something To Me
cd3-27 - Shadow Waltz
cd3-28 - Walk Don't Run
cd3-29 - Lara's Theme
cd3-30 - Lullaby Of The Leaves

cd4-01 - Ain't Misbehavin'
cd4-02 - Avorada
cd4-03 - Bourree
cd4-04 - Johnson Rag
cd4-05 - Yesterdays
cd4-06 - Hidden Charm
cd4-07 - You're Just In Love
cd4-08 - Don't Blame Me
cd4-09 - Jungle Drums
cd4-10 - Czardas
cd4-11 - Martha
cd4-12 - Sophisticated Lady
cd4-13 - April In Portugal
cd4-14 - Nagasaki
cd4-15 - Muskrat Ramble
cd4-16 - Say 'si Si'
cd4-17 - Ay Ay Ay
cd4-18 - Yankee Doodle Dixie
cd4-19 - In The Chapel In The Moonlight
cd4-20 - Villa
cd4-21 - Yankee Doodle Dixie
cd4-22 - Siesta
cd4-23 - Jessie
cd4-24 - Slinkey
cd4-25 - Asleep In The Deep (Jim Atkins, Vocal)
cd4-26 - Out Of Nowhere (Jim Atkins, Vocal)
cd4-27 - Even Tho' (Jim Atkins, Vocal)
cd4-28 - When Day Is Done (Jim Atkins, Vocal)
cd4-29 - I'll Be With You In Apple Blossom Time (Jim Atkins, Vocal)
cd4-30 - Swanee River (Jim Atkins, Vocal)

cd5-01 - My Funny Valentine
cd5-02 - I Know That You Know
cd5-03 - Zing Went The Strings Of My Heart
cd5-04 - I'm Forever Blowing Bubbles
cd5-05 - Country Style
cd5-06 - Estrellita
cd5-07 - Little Old Lady
cd5-08 - Let It Be Me
cd5-09 - Meet Mister Callaghan
cd5-10 - Santa Lucia
cd5-11 - Armen's Theme
cd5-12 - Theme From 'picnic'
cd5-13 - The Three Bells
cd5-14 - The Theme From 'limelight'
cd5-15 - Greensleeves
cd5-16 - Theme From 'a Dream'
cd5-17 - Jitterbug Waltz
cd5-18 - Peek-A-Boo Moon
cd5-19 - Backwoods
cd5-20 - Walkin' The Strings
cd5-21 - Beautiful Brown Eyes
cd5-22 - Tennessee Waltz
cd5-23 - Birmingham Jail
cd5-24 - The Prisoner's Song
cd5-25 - In The Good Old Summertime
cd5-26 - Titanic
cd5-27 - Cold Cold Heart
cd5-28 - John Henry
cd5-29 - Goodnight Irene
cd5-30 - Music! Music! Music!

cd6-01 - Bill Bailey
cd6-02 - Sweet Bunch Of Daisies
cd6-03 - Hello Bluebird
cd6-04 - Rainbow
cd6-05 - Country Gentleman
cd6-06 - Piano Concerto In C Minor
cd6-07 - Show Me The Way To Go Home
cd6-08 - Django's Castle (Manoir De Mes Reves)
cd6-09 - Blackjack
cd6-10 - Boo Boo Stick Beat
cd6-11 - Boo Boo Stick Beat (2nd Version)
cd6-12 - Blue Rhapsody
cd6-13 - 'til There Was You
cd6-14 - High Noon
cd6-15 - Take A Message To Mary
cd6-16 - Sleep Walk
cd6-17 - Night Train
cd6-18 - One Mint Julep
cd6-19 - Come Softly To Me
cd6-20 - White Silver Sands
cd6-21 - Hot Toddy
cd6-22 - Hot Toddy
cd6-23 - Till There Was You
cd6-24 - Teensville
cd6-25 - Oh, Lonesome Me
cd6-26 - Delicado
cd6-27 - Sabrosa
cd6-28 - Maria Elena
cd6-29 - Peanut Vendor
cd6-30 - Marcheta
cd6-31 - Begin The Beguine
cd6-32 - Poinciana (Song Of The Tree)
cd6-33 - Yours

cd7-01 - Siboney
cd7-02 - El Relicario
cd7-03 - Tzena, Tzena, Tzena
cd7-04 - The Streets Of Laredo
cd7-05 - Lambeth Walk
cd7-06 - In A Little Spanish Town
cd7-07 - Lullaby Of Birdland
cd7-08 - Hot Mocking Bird
cd7-09 - Tammy
cd7-10 - Goofus
cd7-11 - Theme From 'a Summer Place'
cd7-12 - Whispering
cd7-13 - Marie
cd7-14 - Bonita
cd7-15 - Whatever Will Be, Will Be
cd7-16 - Sleep
cd7-17 - Rainbow's End
cd7-18 - Theme From 'the Dark At The Top Of The Stairs'
cd7-19 - Hocus Pocus
cd7-20 - Blue Moon Of Kentucky
cd7-21 - Heartbreak Hotel
cd7-22 - It's Now Or Never
cd7-23 - Warm All Over [From The Most Happy Fella]
cd7-24 - Big D [From The Most Happy Fella]
cd7-25 - Don't Cry [From The Most Happy Fella]
cd7-26 - Standing On The Corner [From The Most Happy Fella]
cd7-27 - Why Don't You Leave Me Alone
cd7-28 - Empty Slippers

EAC LOG CD1
Exact Audio Copy V1.0 beta 3 from 29. August 2011

EAC extraction logfile from 29. September 2013, 17:02

Chet Atkins / Mr. Guitar: The Complete Recordings1955-1960 - Disc 1 of 7

Used drive : HL-DT-STDVDRAM GT33N Adapter: 0 ID: 1

Read mode : Secure
Utilize accurate stream : Yes
Defeat audio cache : Yes
Make use of C2 pointers : No

Read offset correction : 103
Overread into Lead-In and Lead-Out : No
Fill up missing offset samples with silence : Yes
Delete leading and trailing silent blocks : No
Null samples used in CRC calculations : Yes
Used interface : Native Win32 interface for Win NT & 2000
Gap handling : Appended to previous track

Used output format : User Defined Encoder
Selected bitrate : 1024 kBit/s
Quality : High
Add ID3 tag : No
Command line compressor : C:Program Files (x86)Exact Audio CopyFlacflac.exe
Additional command line options : -8 -V -T "ARTIST=%artist%" -T "TITLE=%title%" -T "ALBUM=%albumtitle%" -T "DATE=

%year%" -T "TRACKNUMBER=%tracknr%" -T "GENRE=%genre%" -T "PERFORMER=%albuminterpret%" -T "COMPOSER=%composer%"

%haslyrics%--tag-from-file=LYRICS="%lyricsfile%"%haslyrics% -T "ALBUMARTIST=%albumartist%" -T "DISCNUMBER=

%cdnumber%" -T "TOTALDISCS=%totalcds%" -T "TOTALTRACKS=%numtracks%" -T "COMMENT=%comment%" %source% -o %dest% TOC of the extracted CD

Track | Start | Length | Start sector | End sector
---------------------------------------------------------
1 | 0:00.00 | 2:05.55 | 0 | 9429
2 | 2:05.55 | 2:21.50 | 9430 | 20054
3 | 4:27.30 | 2:21.22 | 20055 | 30651
4 | 6:48.52 | 2:23.68 | 30652 | 41444
5 | 9:12.45 | 2:02.65 | 41445 | 50659
6 | 11:15.35 | 2:27.30 | 50660 | 61714
7 | 13:42.65 | 2:03.45 | 61715 | 70984
8 | 15:46.35 | 2:25.22 | 70985 | 81881
9 | 18:11.57 | 2:29.38 | 81882 | 93094
10 | 20:41.20 | 2:11.37 | 93095 | 102956
11 | 22:52.57 | 2:09.43 | 102957 | 112674
12 | 25:02.25 | 2:04.60 | 112675 | 122034
13 | 27:07.10 | 2:51.37 | 122035 | 134896
14 | 29:58.47 | 2:27.73 | 134897 | 145994
15 | 32:26.45 | 2:48.70 | 145995 | 158664
16 | 35:15.40 | 1:59.50 | 158665 | 167639
17 | 37:15.15 | 2:12.30 | 167640 | 177569
18 | 39:27.45 | 2:32.35 | 177570 | 189004
19 | 42:00.05 | 3:23.35 | 189005 | 204264
20 | 45:23.40 | 1:46.25 | 204265 | 212239
21 | 47:09.65 | 2:28.57 | 212240 | 223396
22 | 49:38.47 | 2:00.30 | 223397 | 232426
23 | 51:39.02 | 2:20.35 | 232427 | 242961
24 | 53:59.37 | 2:21.40 | 242962 | 253576
25 | 56:21.02 | 2:18.13 | 253577 | 263939
26 | 58:39.15 | 2:45.65 | 263940 | 276379
27 | 61:25.05 | 2:45.62 | 276380 | 288816
28 | 64:10.67 | 2:46.30 | 288817 | 301296
29 | 66:57.22 | 1:59.20 | 301297 | 310241
30 | 68:56.42 | 2:16.20 | 310242 | 320461
31 | 71:12.62 | 2:17.05 | 320462 | 330741
32 | 73:29.67 | 2:19.10 | 330742 | 341176 Track 1

Filename C:Rips1 - Cherry Pink And Apple Blossom White (1955).wav

Pre-gap length 0:00:02.00

Peak level 97.9 %
Extraction speed 1.1 X
Track quality 100.0 %
Test CRC 19FEA349
Copy CRC 19FEA349
Accurately ripped (confidence 2) [D18FB03D] (AR v2)
Copy OK

Track 2

Filename C:Rips2 - (The Wallflower) Dance With Me, Henry (1955).wav

Pre-gap length 0:00:01.45

Peak level 97.9 %
Extraction speed 1.2 X
Track quality 100.0 %
Test CRC 46F6780D
Copy CRC 46F6780D
Accurately ripped (confidence 2) [1017C38C] (AR v2)
Copy OK

Track 3

Filename C:Rips3 - Darling, Je Vous Aime Beaucoup (1955).wav

Pre-gap length 0:00:02.00

Peak level 99.9 %
Extraction speed 1.2 X
Track quality 100.0 %
Test CRC 27F65141
Copy CRC 27F65141
Accurately ripped (confidence 2) [95B196F1] (AR v2)
Copy OK

Track 4

Filename C:Rips4 - Tweedle Dee (1955).wav

Pre-gap length 0:00:01.22

Peak level 97.9 %
Extraction speed 1.3 X
Track quality 100.0 %
Test CRC B098EAB5
Copy CRC B098EAB5
Accurately ripped (confidence 2) [ACE40189] (AR v2)
Copy OK

Track 5

Filename C:Rips5 - Hey, Mr. Guitar (Hey, Mr. Banjo) (1955).wav

Pre-gap length 0:00:01.40

Peak level 97.9 %
Extraction speed 1.3 X
Track quality 100.0 %
Test CRC FB618442
Copy CRC FB618442
Accurately ripped (confidence 2) [AE9340EE] (AR v2)
Copy OK

Track 6

Filename C:Rips6 - Unchained Melody (1955).wav

Pre-gap length 0:00:01.30

Peak level 94.3 %
Extraction speed 1.2 X
Track quality 99.9 %
Test CRC C397D26F
Copy CRC C397D26F
Accurately ripped (confidence 2) [ECC47680] (AR v2)
Copy OK

Track 7

Filename C:Rips7 - Tennessee Polka (Recorded 1955 - Released 2004).wav

Peak level 97.9 %
Extraction speed 1.4 X
Track quality 100.0 %
Test CRC C7D67852
Copy CRC C7D67852
Accurately ripped (confidence 2) [0156EC5E] (AR v2)
Copy OK

Track 8

Filename C:Rips8 - Blues In The Night (1955).wav

Pre-gap length 0:00:01.68

Peak level 97.9 %
Extraction speed 1.5 X
Track quality 100.0 %
Test CRC AF9D0550
Copy CRC AF9D0550
Accurately ripped (confidence 2) [83C6FEF1] (AR v2)
Copy OK

Track 9

Filename C:Rips9 - Black Mountain Rag (Recorded 1955 - Released 1956).wav

Pre-gap length 0:00:02.15

Peak level 97.9 %
Extraction speed 1.6 X
Track quality 100.0 %
Test CRC 902ACC39
Copy CRC 902ACC39
Accurately ripped (confidence 2) [B77B1236] (AR v2)
Copy OK

Track 10

Filename C:Rips10 - Somebody Stole My Gal (1955).wav

Pre-gap length 0:00:01.35

Peak level 97.9 %
Extraction speed 1.3 X
Track quality 99.9 %
Test CRC DB86C5ED
Copy CRC DB86C5ED
Accurately ripped (confidence 2) [8C2A3DAA] (AR v2)
Copy OK

Track 11

Filename C:Rips11 - Shine On Harvest Moon (1955).wav

Pre-gap length 0:00:01.10

Peak level 94.6 %
Extraction speed 1.6 X
Track quality 100.0 %
Test CRC 6B861E4C
Copy CRC 6B861E4C
Accurately ripped (confidence 2) [96583184] (AR v2)
Copy OK

Track 12

Filename C:Rips12 - Jingle Bells (1955).wav

Pre-gap length 0:00:01.68

Peak level 97.9 %
Extraction speed 1.3 X
Track quality 99.9 %
Test CRC 19BFDD1D
Copy CRC 19BFDD1D
Accurately ripped (confidence 2) [1FCB4484] (AR v2)
Copy OK

Track 13

Filename C:Rips13 - Christmas Carols (1955).wav

Pre-gap length 0:00:01.20

Peak level 97.9 %
Extraction speed 1.8 X
Track quality 100.0 %
Test CRC 67FB2969
Copy CRC 67FB2969
Accurately ripped (confidence 2) [B0EA2048] (AR v2)
Copy OK

Track 14

Filename C:Rips14 - Cecilia (Recorded 1955 - Released 1956).wav

Pre-gap length 0:00:01.40

Peak level 97.9 %
Extraction speed 1.8 X
Track quality 100.0 %
Test CRC 3BD40315
Copy CRC 3BD40315
Accurately ripped (confidence 2) [567AB49E] (AR v2)
Copy OK

Track 15

Filename C:Rips15 - Arrivederci, Roma (Recorded 1955 - Released 2004).wav

Pre-gap length 0:00:02.53

Peak level 97.9 %
Extraction speed 1.9 X
Track quality 100.0 %
Test CRC 6FC52A69
Copy CRC 6FC52A69
Accurately ripped (confidence 2) [43F1DA66] (AR v2)
Copy OK

Track 16

Filename C:Rips16 - Sleigh Bells, Reindeer And Snow (Recorded 1955 - Released 2004).wav

Pre-gap length 0:00:01.05

Peak level 97.9 %
Extraction speed 1.8 X
Track quality 100.0 %
Test CRC 8C4BC145
Copy CRC 8C4BC145
Accurately ripped (confidence 2) [340CCB1F] (AR v2)
Copy OK

Track 17

Filename C:Rips17 - New Spanish Two-Step (Recorded 1955 - Released 2004).wav

Pre-gap length 0:00:01.63

Peak level 89.3 %
Extraction speed 1.9 X
Track quality 100.0 %
Test CRC 59DD9E8F
Copy CRC 59DD9E8F
Accurately ripped (confidence 2) [C164591B] (AR v2)
Copy OK

Track 18

Filename C:Rips18 - Intermezzo (1955).wav

Pre-gap length 0:00:02.38

Peak level 97.9 %
Extraction speed 2.0 X
Track quality 100.0 %
Test CRC E48E2129
Copy CRC E48E2129
Accurately ripped (confidence 2) [1B4DF584] (AR v2)
Copy OK

Track 19

Filename C:Rips19 - Tenderly (1955).wav

Pre-gap length 0:00:01.73

Peak level 97.9 %
Extraction speed 2.2 X
Track quality 100.0 %
Test CRC B8FD1F73
Copy CRC B8FD1F73
Accurately ripped (confidence 2) [B834B044] (AR v2)
Copy OK

Track 20

Filename C:Rips20 - Minute Waltz (1955).wav

Pre-gap length 0:00:01.15

Peak level 97.9 %
Extraction speed 1.9 X
Track quality 100.0 %
Test CRC C26C9D62
Copy CRC C26C9D62
Accurately ripped (confidence 2) [0047D387] (AR v2)
Copy OK

Track 21

Filename C:Rips21 - Minuet (from French Harpsichord Suite ''Prelude From Six Short Preludes'') (1955).wav

Pre-gap length 0:00:02.00

Peak level 97.9 %
Extraction speed 2.1 X
Track quality 100.0 %
Test CRC DAB9AC8B
Copy CRC DAB9AC8B
Accurately ripped (confidence 2) [1DC212E3] (AR v2)
Copy OK

Track 22

Filename C:Rips22 - Schön Rosmarie (1955).wav

Pre-gap length 0:00:01.10

Peak level 89.3 %
Extraction speed 2.0 X
Track quality 100.0 %
Test CRC 5B051F01
Copy CRC 5B051F01
Accurately ripped (confidence 2) [1496C3AB] (AR v2)
Copy OK

Track 23

Filename C:Rips23 - Tip-Toe Through The Tulips With Me (1955).wav

Pre-gap length 0:00:01.30

Peak level 97.9 %
Extraction speed 2.2 X
Track quality 100.0 %
Test CRC 51648119
Copy CRC 51648119
Accurately ripped (confidence 2) [4AA7C132] (AR v2)
Copy OK

Track 24

Filename C:Rips24 - Arkansaw Traveler (1955).wav

Pre-gap length 0:00:01.55

Peak level 97.9 %
Extraction speed 2.2 X
Track quality 100.0 %
Test CRC 0DC95FDE
Copy CRC 0DC95FDE
Accurately ripped (confidence 2) [2831B663] (AR v2)
Copy OK

Track 25

Filename C:Rips25 - Little Rock Getaway (1955).wav

Pre-gap length 0:00:02.25

Peak level 97.9 %
Extraction speed 2.2 X
Track quality 100.0 %
Test CRC 588AA60E
Copy CRC 588AA60E
Accurately ripped (confidence 2) [F21446B2] (AR v2)
Copy OK

Track 26

Filename C:Rips26 - Ochi Chornya (Dark Eyes) (1955).wav

Pre-gap length 0:00:01.55

Peak level 97.9 %
Extraction speed 2.3 X
Track quality 100.0 %
Test CRC 5D890052
Copy CRC 5D890052
Accurately ripped (confidence 2) [9EF87BE6] (AR v2)
Copy OK

Track 27

Filename C:Rips27 - Londonderry Air (1955).wav

Pre-gap length 0:00:01.63

Peak level 97.9 %
Extraction speed 2.4 X
Track quality 100.0 %
Test CRC F87DF494
Copy CRC F87DF494
Accurately ripped (confidence 2) [F032F927] (AR v2)
Copy OK

Track 28

Filename C:Rips28 - La Golondrina (The Swallow) (1955).wav

Pre-gap length 0:00:01.15

Peak level 97.9 %
Extraction speed 2.4 X
Track quality 100.0 %
Test CRC D0DEF69A
Copy CRC D0DEF69A
Accurately ripped (confidence 2) [82B7EBF5] (AR v2)
Copy OK

Track 29

Filename C:Rips29 - The Poor People Of Paris (Jean's Song) (Recorded 1955 - Released 1956).wav

Pre-gap length 0:00:01.42

Peak level 97.9 %
Extraction speed 2.3 X
Track quality 100.0 %
Test CRC 93953730
Copy CRC 93953730
Accurately ripped (confidence 2) [3CF5FE04] (AR v2)
Copy OK

Track 30

Filename C:Rips30 - Honey (Recorded 1955 - Released 1956).wav

Pre-gap length 0:00:02.32

Peak level 97.9 %
Extraction speed 2.4 X
Track quality 100.0 %
Test CRC D857EB85
Copy CRC D857EB85
Accurately ripped (confidence 2) [03E0B165] (AR v2)
Copy OK

Track 31

Filename C:Rips31 - The Poor People Of Paris (Jean's Song) (2nd Version) (Recorded 1955 - Released

1956).wav

Pre-gap length 0:00:02.10

Peak level 97.9 %
Extraction speed 2.4 X
Track quality 100.0 %
Test CRC FB7D24D8
Copy CRC FB7D24D8
Accurately ripped (confidence 2) [FAD3A9BE] (AR v2)
Copy OK

Track 32

Filename C:Rips32 - Honey (2nd Version) (Recorded 1955 - Released 1956).wav

Pre-gap length 0:00:01.60

Peak level 97.9 %
Extraction speed 2.0 X
Track quality 99.9 %
Test CRC 9D19B071
Copy CRC 9D19B071
Accurately ripped (confidence 2) [73121A1F] (AR v2)
Copy OK All tracks accurately ripped

No errors occurred

End of status report

==== Log checksum CFE1C54B571A29093D3354BC260E21662BCF16798DBE9F363D364BD779A4A97D ====

EAC LOG CD2
Exact Audio Copy V1.0 beta 3 from 29. August 2011

EAC extraction logfile from 27. October 2013, 16:02

Chet Atkins / Mr. Guitar: The Complete Recordings1955-1960 - Disc 2 of 7

Used drive : HL-DT-STDVDRAM GT33N Adapter: 0 ID: 1

Read mode : Secure
Utilize accurate stream : Yes
Defeat audio cache : Yes
Make use of C2 pointers : No

Read offset correction : 103
Overread into Lead-In and Lead-Out : No
Fill up missing offset samples with silence : Yes
Delete leading and trailing silent blocks : No
Null samples used in CRC calculations : Yes
Used interface : Native Win32 interface for Win NT & 2000
Gap handling : Appended to previous track

Used output format : User Defined Encoder
Selected bitrate : 1024 kBit/s
Quality : High
Add ID3 tag : No
Command line compressor : C:Program Files (x86)Exact Audio CopyFlacflac.exe
Additional command line options : -8 -V -T "ARTIST=%artist%" -T "TITLE=%title%" -T "ALBUM=%albumtitle%" -T "DATE=

%year%" -T "TRACKNUMBER=%tracknr%" -T "GENRE=%genre%" -T "PERFORMER=%albuminterpret%" -T "COMPOSER=%composer%"

%haslyrics%--tag-from-file=LYRICS="%lyricsfile%"%haslyrics% -T "ALBUMARTIST=%albumartist%" -T "DISCNUMBER=

%cdnumber%" -T "TOTALDISCS=%totalcds%" -T "TOTALTRACKS=%numtracks%" -T "COMMENT=%comment%" %source% -o %dest% TOC of the extracted CD

Track | Start | Length | Start sector | End sector
---------------------------------------------------------
1 | 0:00.00 | 2:22.32 | 0 | 10681
2 | 2:22.32 | 2:08.30 | 10682 | 20311
3 | 4:30.62 | 2:14.48 | 20312 | 30409
4 | 6:45.35 | 2:45.62 | 30410 | 42846
5 | 9:31.22 | 1:53.05 | 42847 | 51326
6 | 11:24.27 | 2:34.33 | 51327 | 62909
7 | 13:58.60 | 2:57.02 | 62910 | 76186
8 | 16:55.62 | 2:20.43 | 76187 | 86729
9 | 19:16.30 | 3:05.27 | 86730 | 100631
10 | 22:21.57 | 2:57.68 | 100632 | 113974
11 | 25:19.50 | 2:59.70 | 113975 | 127469
12 | 28:19.45 | 2:01.17 | 127470 | 136561
13 | 30:20.62 | 2:58.05 | 136562 | 149916
14 | 33:18.67 | 1:41.20 | 149917 | 157511
15 | 35:00.12 | 2:46.20 | 157512 | 169981
16 | 37:46.32 | 2:13.68 | 169982 | 180024
17 | 40:00.25 | 2:17.40 | 180025 | 190339
18 | 42:17.65 | 2:07.10 | 190340 | 199874
19 | 44:25.00 | 2:33.32 | 199875 | 211381
20 | 46:58.32 | 1:48.25 | 211382 | 219506
21 | 48:46.57 | 1:38.03 | 219507 | 226859
22 | 50:24.60 | 2:48.67 | 226860 | 239526
23 | 53:13.52 | 2:46.33 | 239527 | 252009
24 | 56:00.10 | 2:12.50 | 252010 | 261959
25 | 58:12.60 | 2:01.17 | 261960 | 271051
26 | 60:14.02 | 2:20.33 | 271052 | 281584
27 | 62:34.35 | 2:40.42 | 281585 | 293626
28 | 65:15.02 | 2:37.05 | 293627 | 305406
29 | 67:52.07 | 2:24.53 | 305407 | 316259
30 | 70:16.60 | 2:26.17 | 316260 | 327226
31 | 72:43.02 | 2:26.45 | 327227 | 338221 Track 1

Filename C:RipsChet Atkins - Mr. Guitar- The Complete Recordings1955-1960Chet Atkins - Mr. Guitar- The

Complete Recordings1955-1960 - Disc 2 of 71 - Chet Atkins - The Lady Loves Me (1956).wav

Pre-gap length 0:00:02.00

Peak level 99.9 %
Extraction speed 0.9 X
Track quality 99.9 %
Test CRC F68962D6
Copy CRC F68962D6
Accurately ripped (confidence 2) [5A72BE87] (AR v2)
Copy OK

Track 2

Filename C:RipsChet Atkins - Mr. Guitar- The Complete Recordings1955-1960Chet Atkins - Mr. Guitar- The

Complete Recordings1955-1960 - Disc 2 of 72 - Chet Atkins with Hank Snow - New Spanish Two Step (1956).wav

Pre-gap length 0:00:01.15

Peak level 97.9 %
Extraction speed 1.2 X
Track quality 100.0 %
Test CRC 80189716
Copy CRC 80189716
Accurately ripped (confidence 2) [BA0447C7] (AR v2)
Copy OK

Track 3

Filename C:RipsChet Atkins - Mr. Guitar- The Complete Recordings1955-1960Chet Atkins - Mr. Guitar- The

Complete Recordings1955-1960 - Disc 2 of 73 - Chet Atkins with Hank Snow - Reminiscing (1956).wav

Pre-gap length 0:00:01.52

Peak level 100.0 %
Extraction speed 1.2 X
Track quality 100.0 %
Test CRC 29101C8C
Copy CRC 29101C8C
Accurately ripped (confidence 2) [058C0D38] (AR v2)
Copy OK

Track 4

Filename C:RipsChet Atkins - Mr. Guitar- The Complete Recordings1955-1960Chet Atkins - Mr. Guitar- The

Complete Recordings1955-1960 - Disc 2 of 74 - Chet Atkins - Memphis Blues (1956).wav

Pre-gap length 0:00:01.45

Peak level 97.9 %
Extraction speed 1.4 X
Track quality 100.0 %
Test CRC 95B55D36
Copy CRC 95B55D36
Accurately ripped (confidence 2) [64A28D38] (AR v2)
Copy OK

Track 5

Filename C:RipsChet Atkins - Mr. Guitar- The Complete Recordings1955-1960Chet Atkins - Mr. Guitar- The

Complete Recordings1955-1960 - Disc 2 of 75 - Chet Atkins - Oh! By Jingo (1956).wav

Pre-gap length 0:00:01.07

Peak level 97.9 %
Extraction speed 1.3 X
Track quality 100.0 %
Test CRC 29FD3998
Copy CRC 29FD3998
Accurately ripped (confidence 2) [EC17E379] (AR v2)
Copy OK

Track 6

Filename C:RipsChet Atkins - Mr. Guitar- The Complete Recordings1955-1960Chet Atkins - Mr. Guitar- The

Complete Recordings1955-1960 - Disc 2 of 76 - Chet Atkins - Hello Ma Baby (1956).wav

Pre-gap length 0:00:01.67

Peak level 97.9 %
Extraction speed 1.4 X
Track quality 100.0 %
Test CRC 5DB59B11
Copy CRC 5DB59B11
Accurately ripped (confidence 2) [4ECC0420] (AR v2)
Copy OK

Track 7

Filename C:RipsChet Atkins - Mr. Guitar- The Complete Recordings1955-1960Chet Atkins - Mr. Guitar- The

Complete Recordings1955-1960 - Disc 2 of 77 - Chet Atkins - Indian Love Call (1956).wav

Pre-gap length 0:00:01.55

Peak level 97.9 %
Extraction speed 1.6 X
Track quality 100.0 %
Test CRC 85EC43E1
Copy CRC 85EC43E1
Accurately ripped (confidence 2) [3BD7C966] (AR v2)
Copy OK

Track 8

Filename C:RipsChet Atkins - Mr. Guitar- The Complete Recordings1955-1960Chet Atkins - Mr. Guitar- The

Complete Recordings1955-1960 - Disc 2 of 78 - Chet Atkins - Alice Blue Gown (1956).wav

Pre-gap length 0:00:01.25

Peak level 97.9 %
Extraction speed 1.5 X
Track quality 100.0 %
Test CRC A623120B
Copy CRC A623120B
Accurately ripped (confidence 2) [F295DE0B] (AR v2)
Copy OK

Track 9

Filename C:RipsChet Atkins - Mr. Guitar- The Complete Recordings1955-1960Chet Atkins - Mr. Guitar- The

Complete Recordings1955-1960 - Disc 2 of 79 - Chet Atkins - The Third Man Theme (1956).wav

Pre-gap length 0:00:01.63

Peak level 97.9 %
Extraction speed 1.7 X
Track quality 100.0 %
Test CRC 781505FB
Copy CRC 781505FB
Accurately ripped (confidence 2) [8DC7EB2E] (AR v2)
Copy OK

Track 10

Filename C:RipsChet Atkins - Mr. Guitar- The Complete Recordings1955-1960Chet Atkins - Mr. Guitar- The

Complete Recordings1955-1960 - Disc 2 of 710 - Chet Atkins - Blue Gypsy (1956).wav

Pre-gap length 0:00:01.50

Peak level 97.9 %
Extraction speed 1.8 X
Track quality 100.0 %
Test CRC 93C52664
Copy CRC 93C52664
Accurately ripped (confidence 2) [42C07FC7] (AR v2)
Copy OK

Track 11

Filename C:RipsChet Atkins - Mr. Guitar- The Complete Recordings1955-1960Chet Atkins - Mr. Guitar- The

Complete Recordings1955-1960 - Disc 2 of 711 - Chet Atkins - St. Louis Blues (1956).wav

Pre-gap length 0:00:01.40

Peak level 97.9 %
Extraction speed 1.5 X
Track quality 99.9 %
Test CRC 53A1EA80
Copy CRC 53A1EA80
Accurately ripped (confidence 2) [3B7013C3] (AR v2)
Copy OK

Track 12

Filename C:RipsChet Atkins - Mr. Guitar- The Complete Recordings1955-1960Chet Atkins - Mr. Guitar- The

Complete Recordings1955-1960 - Disc 2 of 712 - Chet Atkins - Dance Of The Golden Rod (1956).wav

Pre-gap length 0:00:01.58

Peak level 97.9 %
Extraction speed 1.7 X
Track quality 100.0 %
Test CRC 1F9488A0
Copy CRC 1F9488A0
Accurately ripped (confidence 2) [3D2B61AD] (AR v2)
Copy OK

Track 13

Filename C:RipsChet Atkins - Mr. Guitar- The Complete Recordings1955-1960Chet Atkins - Mr. Guitar- The

Complete Recordings1955-1960 - Disc 2 of 713 - Chet Atkins - Unchained Melody (1956).wav

Pre-gap length 0:00:02.27

Peak level 97.9 %
Extraction speed 1.9 X
Track quality 100.0 %
Test CRC 50E35B11
Copy CRC 50E35B11
Accurately ripped (confidence 2) [87DDCE1F] (AR v2)
Copy OK

Track 14

Filename C:RipsChet Atkins - Mr. Guitar- The Complete Recordings1955-1960Chet Atkins - Mr. Guitar- The

Complete Recordings1955-1960 - Disc 2 of 714 - Chet Atkins - Gavotte In D (1956).wav

Pre-gap length 0:00:01.02

Peak level 97.9 %
Extraction speed 1.3 X
Track quality 99.8 %
Test CRC 25C4B1AF
Copy CRC 25C4B1AF
Accurately ripped (confidence 2) [290DEA15] (AR v2)
Copy OK

Track 15

Filename C:RipsChet Atkins - Mr. Guitar- The Complete Recordings1955-1960Chet Atkins - Mr. Guitar- The

Complete Recordings1955-1960 - Disc 2 of 715 - Chet Atkins - Malaguena (1956).wav

Pre-gap length 0:00:01.30

Peak level 97.9 %
Extraction speed 2.0 X
Track quality 100.0 %
Test CRC 8344F07B
Copy CRC 8344F07B
Accurately ripped (confidence 2) [71EE0847] (AR v2)
Copy OK

Track 16

Filename C:RipsChet Atkins - Mr. Guitar- The Complete Recordings1955-1960Chet Atkins - Mr. Guitar- The

Complete Recordings1955-1960 - Disc 2 of 716 - Chet Atkins - Glow Worm (1956).wav

Pre-gap length 0:00:01.45

Peak level 97.9 %
Extraction speed 1.9 X
Track quality 100.0 %
Test CRC BAEF99C0
Copy CRC BAEF99C0
Accurately ripped (confidence 2) [C023AEC5] (AR v2)
Copy OK

Track 17

Filename C:RipsChet Atkins - Mr. Guitar- The Complete Recordings1955-1960Chet Atkins - Mr. Guitar- The

Complete Recordings1955-1960 - Disc 2 of 717 - Chet Atkins - In The Mood (1956).wav

Pre-gap length 0:00:01.38

Peak level 97.9 %
Extraction speed 2.0 X
Track quality 100.0 %
Test CRC D04F5BED
Copy CRC D04F5BED
Accurately ripped (confidence 2) [CEBD2FE5] (AR v2)
Copy OK

Track 18

Filename C:RipsChet Atkins - Mr. Guitar- The Complete Recordings1955-1960Chet Atkins - Mr. Guitar- The

Complete Recordings1955-1960 - Disc 2 of 718 - Chet Atkins - Heartaches (1956).wav

Pre-gap length 0:00:01.00

Peak level 97.9 %
Extraction speed 1.6 X
Track quality 99.9 %
Test CRC 99B04696
Copy CRC 99B04696
Accurately ripped (confidence 2) [D2E4CF21] (AR v2)
Copy OK

Track 19

Filename C:RipsChet Atkins - Mr. Guitar- The Complete Recordings1955-1960Chet Atkins - Mr. Guitar- The

Complete Recordings1955-1960 - Disc 2 of 719 - Chet Atkins - Swedish Rhapsody (1956).wav

Pre-gap length 0:00:01.68

Peak level 97.9 %
Extraction speed 2.1 X
Track quality 100.0 %
Test CRC 8DFB7E51
Copy CRC 8DFB7E51
Accurately ripped (confidence 2) [DE94E406] (AR v2)
Copy OK

Track 20

Filename C:RipsChet Atkins - Mr. Guitar- The Complete Recordings1955-1960Chet Atkins - Mr. Guitar- The

Complete Recordings1955-1960 - Disc 2 of 720 - Chet Atkins - Waltz In A-Flat (1956).wav

Pre-gap length 0:00:01.67

Peak level 97.9 %
Extraction speed 2.0 X
Track quality 100.0 %
Test CRC A315D458
Copy CRC A315D458
Accurately ripped (confidence 2) [0620FEA4] (AR v2)
Copy OK

Track 21

Filename C:RipsChet Atkins - Mr. Guitar- The Complete Recordings1955-1960Chet Atkins - Mr. Guitar- The

Complete Recordings1955-1960 - Disc 2 of 721 - Chet Atkins - Adelita (1956).wav

Pre-gap length 0:00:01.30

Peak level 97.9 %
Extraction speed 1.9 X
Track quality 100.0 %
Test CRC 748960B9
Copy CRC 748960B9
Accurately ripped (confidence 2) [7A4ABD95] (AR v2)
Copy OK

Track 22

Filename C:RipsChet Atkins - Mr. Guitar- The Complete Recordings1955-1960Chet Atkins - Mr. Guitar- The

Complete Recordings1955-1960 - Disc 2 of 722 - Chet Atkins - Petite Waltz (1956).wav

Pre-gap length 0:00:01.55

Peak level 97.9 %
Extraction speed 2.2 X
Track quality 100.0 %
Test CRC D5C8B83B
Copy CRC D5C8B83B
Accurately ripped (confidence 2) [C98A4161] (AR v2)
Copy OK

Track 23

Filename C:RipsChet Atkins - Mr. Guitar- The Complete Recordings1955-1960Chet Atkins - Mr. Guitar- The

Complete Recordings1955-1960 - Disc 2 of 723 - Chet Atkins - Liza (1956).wav

Pre-gap length 0:00:02.22

Peak level 97.9 %
Extraction speed 2.3 X
Track quality 100.0 %
Test CRC 4EA04C23
Copy CRC 4EA04C23
Accurately ripped (confidence 2) [2D110504] (AR v2)
Copy OK

Track 24

Filename C:RipsChet Atkins - Mr. Guitar- The Complete Recordings1955-1960Chet Atkins - Mr. Guitar- The

Complete Recordings1955-1960 - Disc 2 of 724 - Chet Atkins - Trambone (1957).wav

Pre-gap length 0:00:01.65

Peak level 97.9 %
Extraction speed 2.2 X
Track quality 100.0 %
Test CRC CE61B6A7
Copy CRC CE61B6A7
Accurately ripped (confidence 2) [6B3D545B] (AR v2)
Copy OK

Track 25

Filename C:RipsChet Atkins - Mr. Guitar- The Complete Recordings1955-1960Chet Atkins - Mr. Guitar- The

Complete Recordings1955-1960 - Disc 2 of 725 - Chet Atkins - Peanut Vendor (1957).wav

Pre-gap length 0:00:01.43

Peak level 97.9 %
Extraction speed 2.2 X
Track quality 100.0 %
Test CRC 0072C868
Copy CRC 0072C868
Accurately ripped (confidence 2) [C99E7153] (AR v2)
Copy OK

Track 26

Filename C:RipsChet Atkins - Mr. Guitar- The Complete Recordings1955-1960Chet Atkins - Mr. Guitar- The

Complete Recordings1955-1960 - Disc 2 of 726 - Chet Atkins - Blue Echo (1957).wav

Pre-gap length 0:00:01.72

Peak level 97.9 %
Extraction speed 1.9 X
Track quality 99.9 %
Test CRC AB469FE9
Copy CRC AB469FE9
Accurately ripped (confidence 2) [B7AFC7DF] (AR v2)
Copy OK

Track 27

Filename C:RipsChet Atkins - Mr. Guitar- The Complete Recordings1955-1960Chet Atkins - Mr. Guitar- The

Complete Recordings1955-1960 - Disc 2 of 727 - Chet Atkins - Tricky (1957).wav

Pre-gap length 0:00:02.45

Peak level 97.9 %
Extraction speed 2.4 X
Track quality 100.0 %
Test CRC 28102E62
Copy CRC 28102E62
Accurately ripped (confidence 2) [8F25EED8] (AR v2)
Copy OK

Track 28

Filename C:RipsChet Atkins - Mr. Guitar- The Complete Recordings1955-1960Chet Atkins - Mr. Guitar- The

Complete Recordings1955-1960 - Disc 2 of 728 - Chet Atkins - Martinique (1957).wav

Pre-gap length 0:00:01.50

Peak level 97.9 %
Extraction speed 2.4 X
Track quality 100.0 %
Test CRC 8477A598
Copy CRC 8477A598
Accurately ripped (confidence 2) [12D15520] (AR v2)
Copy OK

Track 29

Filename C:RipsChet Atkins - Mr. Guitar- The Complete Recordings1955-1960Chet Atkins - Mr. Guitar- The

Complete Recordings1955-1960 - Disc 2 of 729 - Chet Atkins - Dig These Blues (1957).wav

Pre-gap length 0:00:01.17

Peak level 97.9 %
Extraction speed 2.4 X
Track quality 100.0 %
Test CRC 07ACD15F
Copy CRC 07ACD15F
Accurately ripped (confidence 2) [D57500C8] (AR v2)
Copy OK

Track 30

Filename C:RipsChet Atkins - Mr. Guitar- The Complete Recordings1955-1960Chet Atkins - Mr. Guitar- The

Complete Recordings1955-1960 - Disc 2 of 730 - Chet Atkins - Colonial Ballroom (1957).wav

Pre-gap length 0:00:02.03

Peak level 97.9 %
Extraction speed 2.5 X
Track quality 100.0 %
Test CRC 553F5E5A
Copy CRC 553F5E5A
Accurately ripped (confidence 2) [B578F021] (AR v2)
Copy OK

Track 31

Filename C:RipsChet Atkins - Mr. Guitar- The Complete Recordings1955-1960Chet Atkins - Mr. Guitar- The

Complete Recordings1955-1960 - Disc 2 of 731 - Chet Atkins - Midnight (Recorded 1957 - Released 2004).wav

Pre-gap length 0:00:01.72

Peak level 97.9 %
Extraction speed 2.5 X
Track quality 100.0 %
Test CRC D1F52EDE
Copy CRC D1F52EDE
Accurately ripped (confidence 2) [9AA4B7B0] (AR v2)
Copy OK All tracks accurately ripped

No errors occurred

End of status report

==== Log checksum 75D8CBC4C2DDCDB812B3DF82F300526DA7F8317B16B7B01A7DC660BD5F7A1A9B ====

EAC LOG CD3
Exact Audio Copy V1.0 beta 3 from 29. August 2011

EAC extraction logfile from 27. October 2013, 19:36

Chet Atkins / Mr. Guitar: The Complete Recordings1955-1960 - Disc 3 of 7

Used drive : HL-DT-STDVDRAM GT33N Adapter: 0 ID: 1

Read mode : Secure
Utilize accurate stream : Yes
Defeat audio cache : Yes
Make use of C2 pointers : No

Read offset correction : 103
Overread into Lead-In and Lead-Out : No
Fill up missing offset samples with silence : Yes
Delete leading and trailing silent blocks : No
Null samples used in CRC calculations : Yes
Used interface : Native Win32 interface for Win NT & 2000
Gap handling : Appended to previous track

Used output format : User Defined Encoder
Selected bitrate : 1024 kBit/s
Quality : High
Add ID3 tag : No
Command line compressor : C:Program Files (x86)Exact Audio CopyFlacflac.exe
Additional command line options : -8 -V -T "ARTIST=%artist%" -T "TITLE=%title%" -T "ALBUM=%albumtitle%" -T "DATE=

%year%" -T "TRACKNUMBER=%tracknr%" -T "GENRE=%genre%" -T "PERFORMER=%albuminterpret%" -T "COMPOSER=%composer%"

%haslyrics%--tag-from-file=LYRICS="%lyricsfile%"%haslyrics% -T "ALBUMARTIST=%albumartist%" -T "DISCNUMBER=

%cdnumber%" -T "TOTALDISCS=%totalcds%" -T "TOTALTRACKS=%numtracks%" -T "COMMENT=%comment%" %source% -o %dest% TOC of the extracted CD

Track | Start | Length | Start sector | End sector
---------------------------------------------------------
1 | 0:00.00 | 2:05.27 | 0 | 9401
2 | 2:05.27 | 2:07.08 | 9402 | 18934
3 | 4:12.35 | 1:53.10 | 18935 | 27419
4 | 6:05.45 | 3:20.40 | 27420 | 42459
5 | 9:26.10 | 2:14.60 | 42460 | 52569
6 | 11:40.70 | 2:37.42 | 52570 | 64386
7 | 14:18.37 | 2:23.45 | 64387 | 75156
8 | 16:42.07 | 2:09.23 | 75157 | 84854
9 | 18:51.30 | 2:19.45 | 84855 | 95324
10 | 21:11.00 | 2:17.15 | 95325 | 105614
11 | 23:28.15 | 2:11.22 | 105615 | 115461
12 | 25:39.37 | 2:35.28 | 115462 | 127114
13 | 28:14.65 | 2:27.47 | 127115 | 138186
14 | 30:42.37 | 2:27.55 | 138187 | 149266
15 | 33:10.17 | 2:49.63 | 149267 | 162004
16 | 36:00.05 | 2:50.55 | 162005 | 174809
17 | 38:50.60 | 2:38.60 | 174810 | 186719
18 | 41:29.45 | 2:07.65 | 186720 | 196309
19 | 43:37.35 | 2:39.10 | 196310 | 208244
20 | 46:16.45 | 2:33.45 | 208245 | 219764
21 | 48:50.15 | 2:43.32 | 219765 | 232021
22 | 51:33.47 | 2:10.35 | 232022 | 241806
23 | 53:44.07 | 2:00.60 | 241807 | 250866
24 | 55:44.67 | 2:03.73 | 250867 | 260164
25 | 57:48.65 | 2:08.25 | 260165 | 269789
26 | 59:57.15 | 2:19.40 | 269790 | 280254
27 | 62:16.55 | 2:25.52 | 280255 | 291181
28 | 64:42.32 | 2:26.40 | 291182 | 302171
29 | 67:08.72 | 2:27.18 | 302172 | 313214
30 | 69:36.15 | 2:39.12 | 313215 | 325151 Track 1

Filename C:RipsChet Atkins - Mr. Guitar- The Complete Recordings1955-1960Chet Atkins - Mr. Guitar- The

Complete Recordings1955-1960 - Disc 3 of 71 - El Cumbanchero (1957).wav

Pre-gap length 0:00:02.00

Peak level 97.9 %
Extraction speed 1.1 X
Track quality 100.0 %
Test CRC E981761F
Copy CRC E981761F
Accurately ripped (confidence 2) [3CAF5FBA] (AR v2)
Copy OK

Track 2

Filename C:RipsChet Atkins - Mr. Guitar- The Complete Recordings1955-1960Chet Atkins - Mr. Guitar- The

Complete Recordings1955-1960 - Disc 3 of 72 - Anna (1957).wav

Pre-gap length 0:00:01.15

Peak level 97.9 %
Extraction speed 0.9 X
Track quality 99.9 %
Test CRC 736412DC
Copy CRC 736412DC
Accurately ripped (confidence 2) [06438A75] (AR v2)
Copy OK

Track 3

Filename C:RipsChet Atkins - Mr. Guitar- The Complete Recordings1955-1960Chet Atkins - Mr. Guitar- The

Complete Recordings1955-1960 - Disc 3 of 73 - Tiger Rag (1957).wav

Pre-gap length 0:00:02.13

Peak level 97.9 %
Extraction speed 1.2 X
Track quality 100.0 %
Test CRC 05FC1DFA
Copy CRC 05FC1DFA
Accurately ripped (confidence 2) [07AB5FB7] (AR v2)
Copy OK

Track 4

Filename C:RipsChet Atkins - Mr. Guitar- The Complete Recordings1955-1960Chet Atkins - Mr. Guitar- The

Complete Recordings1955-1960 - Disc 3 of 74 - Jitterbug Waltz (Recorded 1957 - Released 2004).wav

Pre-gap length 0:00:02.20

Peak level 97.9 %
Extraction speed 1.2 X
Track quality 99.9 %
Test CRC 1000377D
Copy CRC 1000377D
Accurately ripped (confidence 2) [98D29C9F] (AR v2)
Copy OK

Track 5

Filename C:RipsChet Atkins - Mr. Guitar- The Complete Recordings1955-1960Chet Atkins - Mr. Guitar- The

Complete Recordings1955-1960 - Disc 3 of 75 - Lullaby (Recorded 1957 - Released 2004).wav

Pre-gap length 0:00:01.60

Peak level 97.9 %
Extraction speed 1.1 X
Track quality 99.9 %
Test CRC E61BF9B2
Copy CRC E61BF9B2
Accurately ripped (confidence 2) [349F0CDB] (AR v2)
Copy OK

Track 6

Filename C:RipsChet Atkins - Mr. Guitar- The Complete Recordings1955-1960Chet Atkins - Mr. Guitar- The

Complete Recordings1955-1960 - Disc 3 of 76 - August Moon (Recorded 1957 - Released 2004).wav

Pre-gap length 0:00:01.58

Peak level 97.9 %
Extraction speed 1.5 X
Track quality 100.0 %
Test CRC 818EDB92
Copy CRC 818EDB92
Accurately ripped (confidence 2) [4A20AFD4] (AR v2)
Copy OK

Track 7

Filename C:RipsChet Atkins - Mr. Guitar- The Complete Recordings1955-1960Chet Atkins - Mr. Guitar- The

Complete Recordings1955-1960 - Disc 3 of 77 - Beloved (Recorded 1957 - Released 2004).wav

Peak level 97.9 %
Extraction speed 1.5 X
Track quality 100.0 %
Test CRC D1786B4D
Copy CRC D1786B4D
Accurately ripped (confidence 2) [68B15D40] (AR v2)
Copy OK

Track 8

Filename C:RipsChet Atkins - Mr. Guitar- The Complete Recordings1955-1960Chet Atkins - Mr. Guitar- The

Complete Recordings1955-1960 - Disc 3 of 78 - I Feel It In My Soul (Recorded 1957 - Released 2004).wav

Pre-gap length 0:00:01.10

Peak level 97.9 %
Extraction speed 1.5 X
Track quality 100.0 %
Test CRC EF2A35B5
Copy CRC EF2A35B5
Accurately ripped (confidence 2) [22A1148C] (AR v2)
Copy OK

Track 9

Filename C:RipsChet Atkins - Mr. Guitar- The Complete Recordings1955-1960Chet Atkins - Mr. Guitar- The

Complete Recordings1955-1960 - Disc 3 of 79 - The Lord Done Brought Him Out (Recorded 1957 - Released 2004).wav

Pre-gap length 0:00:01.28

Peak level 97.9 %
Extraction speed 1.6 X
Track quality 100.0 %
Test CRC BBB476F2
Copy CRC BBB476F2
Accurately ripped (confidence 2) [2AC5754A] (AR v2)
Copy OK

Track 10

Filename C:RipsChet Atkins - Mr. Guitar- The Complete Recordings1955-1960Chet Atkins - Mr. Guitar- The

Complete Recordings1955-1960 - Disc 3 of 710 - The Red Leaves Of Autumn (Recorded 1957 - Released 2004).wav

Pre-gap length 0:00:01.00

Peak level 97.9 %
Extraction speed 1.6 X
Track quality 100.0 %
Test CRC EA1E9E1B
Copy CRC EA1E9E1B
Accurately ripped (confidence 2) [5301C7A2] (AR v2)
Copy OK

Track 11

Filename C:RipsChet Atkins - Mr. Guitar- The Complete Recordings1955-1960Chet Atkins - Mr. Guitar- The

Complete Recordings1955-1960 - Disc 3 of 711 - Because (Recorded 1957 - Released 2004).wav

Pre-gap length 0:00:01.30

Peak level 97.9 %
Extraction speed 1.7 X
Track quality 100.0 %
Test CRC 7EC4D3E6
Copy CRC 7EC4D3E6
Accurately ripped (confidence 2) [7FB7047E] (AR v2)
Copy OK

Track 12

Filename C:RipsChet Atkins - Mr. Guitar- The Complete Recordings1955-1960Chet Atkins - Mr. Guitar- The

Complete Recordings1955-1960 - Disc 3 of 712 - No Greater Love (Recorded 1957 - Released 2004).wav

Pre-gap length 0:00:01.52

Peak level 97.9 %
Extraction speed 1.5 X
Track quality 99.9 %
Test CRC A9B0DA36
Copy CRC A9B0DA36
Accurately ripped (confidence 2) [C4BC82EF] (AR v2)
Copy OK

Track 13

Filename C:RipsChet Atkins - Mr. Guitar- The Complete Recordings1955-1960Chet Atkins - Mr. Guitar- The

Complete Recordings1955-1960 - Disc 3 of 713 - It's About Time (Recorded 1957 - Released 2004).wav

Pre-gap length 0:00:01.18

Peak level 97.9 %
Extraction speed 1.8 X
Track quality 100.0 %
Test CRC D84C44E9
Copy CRC D84C44E9
Accurately ripped (confidence 2) [83C8B962] (AR v2)
Copy OK

Track 14

Filename C:RipsChet Atkins - Mr. Guitar- The Complete Recordings1955-1960Chet Atkins - Mr. Guitar- The

Complete Recordings1955-1960 - Disc 3 of 714 - Don't Tease My Heart (Recorded 1957 - Released 2004).wav

Pre-gap length 0:00:01.45

Peak level 97.9 %
Extraction speed 1.5 X
Track quality 99.9 %
Test CRC 543D6CB8
Copy CRC 543D6CB8
Accurately ripped (confidence 2) [F60EC6DC] (AR v2)
Copy OK

Track 15

Filename C:RipsChet Atkins - Mr. Guitar- The Complete Recordings1955-1960Chet Atkins - Mr. Guitar- The

Complete Recordings1955-1960 - Disc 3 of 715 - Fascinating Melody (Recorded 1957 - Released 2004).wav

Pre-gap length 0:00:01.35

Peak level 97.9 %
Extraction speed 2.0 X
Track quality 100.0 %
Test CRC 7737E7E1
Copy CRC 7737E7E1
Accurately ripped (confidence 2) [05CF17F8] (AR v2)
Copy OK

Track 16

Filename C:RipsChet Atkins - Mr. Guitar- The Complete Recordings1955-1960Chet Atkins - Mr. Guitar- The

Complete Recordings1955-1960 - Disc 3 of 716 - Moon Over Burma (Recorded 1957 - Released 2004).wav

Pre-gap length 0:00:01.30

Peak level 97.9 %
Extraction speed 2.0 X
Track quality 100.0 %
Test CRC 34857D68
Copy CRC 34857D68
Accurately ripped (confidence 2) [DDF9D685] (AR v2)
Copy OK

Track 17

Filename C:RipsChet Atkins - Mr. Guitar- The Complete Recordings1955-1960Chet Atkins - Mr. Guitar- The

Complete Recordings1955-1960 - Disc 3 of 717 - A Great Love (Recorded 1957 - Released 2004).wav

Pre-gap length 0:00:01.13

Peak level 97.9 %
Extraction speed 2.1 X
Track quality 100.0 %
Test CRC 5436C0F1
Copy CRC 5436C0F1
Accurately ripped (confidence 2) [37FEBEE1] (AR v2)
Copy OK

Track 18

Filename C:RipsChet Atkins - Mr. Guitar- The Complete Recordings1955-1960Chet Atkins - Mr. Guitar- The

Complete Recordings1955-1960 - Disc 3 of 718 - My Love Will Never Grow Old (Recorded 1957 - Released 2004).wav

Pre-gap length 0:00:01.63

Peak level 97.9 %
Extraction speed 2.0 X
Track quality 100.0 %
Test CRC D982AD0A
Copy CRC D982AD0A
Accurately ripped (confidence 2) [190C12E8] (AR v2)
Copy OK

Track 19

Filename C:RipsChet Atkins - Mr. Guitar- The Complete Recordings1955-1960Chet Atkins - Mr. Guitar- The

Complete Recordings1955-1960 - Disc 3 of 719 - Saw Mill River Road (Recorded 1957 - Released 2004).wav

Pre-gap length 0:00:02.35

Peak level 97.9 %
Extraction speed 2.1 X
Track quality 100.0 %
Test CRC E3BEE7F7
Copy CRC E3BEE7F7
Accurately ripped (confidence 2) [7F5E481A] (AR v2)
Copy OK

Track 20

Filename C:RipsChet Atkins - Mr. Guitar- The Complete Recordings1955-1960Chet Atkins - Mr. Guitar- The

Complete Recordings1955-1960 - Disc 3 of 720 - Delightful Interlude (Recorded 1957 - Released 2004).wav

Pre-gap length 0:00:01.50

Peak level 97.9 %
Extraction speed 2.1 X
Track quality 100.0 %
Test CRC 57C0FF8C
Copy CRC 57C0FF8C
Accurately ripped (confidence 2) [72B93B52] (AR v2)
Copy OK

Track 21

Filename C:RipsChet Atkins - Mr. Guitar- The Complete Recordings1955-1960Chet Atkins - Mr. Guitar- The

Complete Recordings1955-1960 - Disc 3 of 721 - Head Over Heels (Recorded 1957 - Released 2004).wav

Pre-gap length 0:00:01.10

Peak level 97.9 %
Extraction speed 2.2 X
Track quality 100.0 %
Test CRC 59CFBB93
Copy CRC 59CFBB93
Accurately ripped (confidence 2) [F03D5255] (AR v2)
Copy OK

Track 22

Filename C:RipsChet Atkins - Mr. Guitar- The Complete Recordings1955-1960Chet Atkins - Mr. Guitar- The

Complete Recordings1955-1960 - Disc 3 of 722 - I Must Be Losing My Heart (Recorded 1957 - Released 2004).wav

Pre-gap length 0:00:01.50

Peak level 97.9 %
Extraction speed 1.8 X
Track quality 99.9 %
Test CRC DF7E26BB
Copy CRC DF7E26BB
Accurately ripped (confidence 2) [CE62C238] (AR v2)
Copy OK

Track 23

Filename C:RipsChet Atkins - Mr. Guitar- The Complete Recordings1955-1960Chet Atkins - Mr. Guitar- The

Complete Recordings1955-1960 - Disc 3 of 723 - I Won't Cry Anymore (Recorded 1957 - Released 2004).wav

Pre-gap length 0:00:01.25

Peak level 97.9 %
Extraction speed 1.7 X
Track quality 99.9 %
Test CRC 7040455B
Copy CRC 7040455B
Accurately ripped (confidence 2) [50F44618] (AR v2)
Copy OK

Track 24

Filename C:RipsChet Atkins - Mr. Guitar- The Complete Recordings1955-1960Chet Atkins - Mr. Guitar- The

Complete Recordings1955-1960 - Disc 3 of 724 - When It's Cherry Blossom Time (Recorded 1957 - Released 2004).wav

Pre-gap length 0:00:02.15

Peak level 97.9 %
Extraction speed 2.2 X
Track quality 100.0 %
Test CRC 31CB3ED1
Copy CRC 31CB3ED1
Accurately ripped (confidence 2) [2D421A6F] (AR v2)
Copy OK

Track 25

Filename C:RipsChet Atkins - Mr. Guitar- The Complete Recordings1955-1960Chet Atkins - Mr. Guitar- The

Complete Recordings1955-1960 - Disc 3 of 725 - Portugese Washerwoman (1957).wav

Pre-gap length 0:00:01.73

Peak level 97.9 %
Extraction speed 2.2 X
Track quality 100.0 %
Test CRC 6519DCB3
Copy CRC 6519DCB3
Accurately ripped (confidence 2) [BF719082] (AR v2)
Copy OK

Track 26

Filename C:RipsChet Atkins - Mr. Guitar- The Complete Recordings1955-1960Chet Atkins - Mr. Guitar- The

Complete Recordings1955-1960 - Disc 3 of 726 - You Do Something To Me (Recorded 1957 - Released 2004).wav

Pre-gap length 0:00:01.40

Peak level 97.9 %
Extraction speed 2.3 X
Track quality 100.0 %
Test CRC 34BC2244
Copy CRC 34BC2244
Accurately ripped (confidence 2) [751341E3] (AR v2)
Copy OK

Track 27

Filename C:RipsChet Atkins - Mr. Guitar- The Complete Recordings1955-1960Chet Atkins - Mr. Guitar- The

Complete Recordings1955-1960 - Disc 3 of 727 - Shadow Waltz (1957).wav

Pre-gap length 0:00:01.43

Peak level 97.9 %
Extraction speed 2.4 X
Track quality 100.0 %
Test CRC 77F6B486
Copy CRC 77F6B486
Accurately ripped (confidence 2) [B153DBD3] (AR v2)
Copy OK

Track 28

Filename C:RipsChet Atkins - Mr. Guitar- The Complete Recordings1955-1960Chet Atkins - Mr. Guitar- The

Complete Recordings1955-1960 - Disc 3 of 728 - Walk Don't Run (1957).wav

Pre-gap length 0:00:01.07

Peak level 97.9 %
Extraction speed 2.4 X
Track quality 100.0 %
Test CRC 8F39C7EE
Copy CRC 8F39C7EE
Accurately ripped (confidence 2) [21FFF90D] (AR v2)
Copy OK

Track 29

Filename C:RipsChet Atkins - Mr. Guitar- The Complete Recordings1955-1960Chet Atkins - Mr. Guitar- The

Complete Recordings1955-1960 - Disc 3 of 729 - Tara's Theme (1957).wav

Pre-gap length 0:00:01.52

Peak level 97.9 %
Extraction speed 2.4 X
Track quality 100.0 %
Test CRC 9B1DBE2A
Copy CRC 9B1DBE2A
Accurately ripped (confidence 2) [FAE3129C] (AR v2)
Copy OK

Track 30

Filename C:RipsChet Atkins - Mr. Guitar- The Complete Recordings1955-1960Chet Atkins - Mr. Guitar- The

Complete Recordings1955-1960 - Disc 3 of 730 - Lullaby Of The Leaves (1957).wav

Pre-gap length 0:00:01.60

Peak level 97.9 %
Extraction speed 2.5 X
Track quality 100.0 %
Test CRC 811E4947
Copy CRC 811E4947
Accurately ripped (confidence 2) [C04F7BF1] (AR v2)
Copy OK All tracks accurately ripped

No errors occurred

End of status report

==== Log checksum 20323D55F81F8FD813E3DBC1FFF1924CC0690B09C3AA1AE943E031FE73B873EE ====

EAC LOG CD4
Exact Audio Copy V1.0 beta 3 from 29. August 2011

EAC extraction logfile from 28. October 2013, 0:09

Chet Atkins / Mr. Guitar: The Complete Recordings1955-1960 - Disc 4 of 7

Used drive : HL-DT-STDVDRAM GT33N Adapter: 0 ID: 1

Read mode : Secure
Utilize accurate stream : Yes
Defeat audio cache : Yes
Make use of C2 pointers : No

Read offset correction : 103
Overread into Lead-In and Lead-Out : No
Fill up missing offset samples with silence : Yes
Delete leading and trailing silent blocks : No
Null samples used in CRC calculations : Yes
Used interface : Native Win32 interface for Win NT & 2000
Gap handling : Appended to previous track

Used output format : User Defined Encoder
Selected bitrate : 1024 kBit/s
Quality : High
Add ID3 tag : No
Command line compressor : C:Program Files (x86)Exact Audio CopyFlacflac.exe
Additional command line options : -8 -V -T "ARTIST=%artist%" -T "TITLE=%title%" -T "ALBUM=%albumtitle%" -T "DATE=

%year%" -T "TRACKNUMBER=%tracknr%" -T "GENRE=%genre%" -T "PERFORMER=%albuminterpret%" -T "COMPOSER=%composer%"

%haslyrics%--tag-from-file=LYRICS="%lyricsfile%"%haslyrics% -T "ALBUMARTIST=%albumartist%" -T "DISCNUMBER=

%cdnumber%" -T "TOTALDISCS=%totalcds%" -T "TOTALTRACKS=%numtracks%" -T "COMMENT=%comment%" %source% -o %dest% TOC of the extracted CD

Track | Start | Length | Start sector | End sector
---------------------------------------------------------
1 | 0:00.00 | 2:19.57 | 0 | 10481
2 | 2:19.57 | 1:31.55 | 10482 | 17361
3 | 3:51.37 | 1:29.68 | 17362 | 24104
4 | 5:21.30 | 2:12.25 | 24105 | 34029
5 | 7:33.55 | 2:20.27 | 34030 | 44556
6 | 9:54.07 | 2:30.65 | 44557 | 55871
7 | 12:24.72 | 2:36.25 | 55872 | 67596
8 | 15:01.22 | 3:17.05 | 67597 | 82376
9 | 18:18.27 | 2:26.68 | 82377 | 93394
10 | 20:45.20 | 2:03.50 | 93395 | 102669
11 | 22:48.70 | 2:08.65 | 102670 | 112334
12 | 24:57.60 | 2:48.47 | 112335 | 124981
13 | 27:46.32 | 2:26.60 | 124982 | 135991
14 | 30:13.17 | 2:23.68 | 135992 | 146784
15 | 32:37.10 | 2:14.50 | 146785 | 156884
16 | 34:51.60 | 2:14.30 | 156885 | 166964
17 | 37:06.15 | 2:36.35 | 166965 | 178699
18 | 39:42.50 | 2:05.65 | 178700 | 188139
19 | 41:48.40 | 2:53.10 | 188140 | 201124
20 | 44:41.50 | 2:10.15 | 201125 | 210889
21 | 46:51.65 | 2:05.22 | 210890 | 220286
22 | 48:57.12 | 2:30.05 | 220287 | 231541
23 | 51:27.17 | 2:09.20 | 231542 | 241236
24 | 53:36.37 | 2:04.00 | 241237 | 250536
25 | 55:40.37 | 3:02.50 | 250537 | 264236
26 | 58:43.12 | 2:57.73 | 264237 | 277584
27 | 61:41.10 | 3:14.27 | 277585 | 292161
28 | 64:55.37 | 2:28.68 | 292162 | 303329
29 | 67:24.30 | 2:08.50 | 303330 | 312979
30 | 69:33.05 | 1:38.52 | 312980 | 320381 Track 1

Filename C:RipsChet Atkins - Mr. Guitar- The Complete Recordings1955-1960Chet Atkins - Mr. Guitar- The

Complete Recordings1955-1960 - Disc 4 of 71 - Chet Atkins - Ain't Misbehavin' (1957).wav

Pre-gap length 0:00:02.00

Peak level 87.3 %
Extraction speed 0.9 X
Track quality 99.9 %
Test CRC A6799023
Copy CRC A6799023
Accurately ripped (confidence 2) [2B53948C] (AR v2)
Copy OK

Track 2

Filename C:RipsChet Atkins - Mr. Guitar- The Complete Recordings1955-1960Chet Atkins - Mr. Guitar- The

Complete Recordings1955-1960 - Disc 4 of 72 - Chet Atkins - Avorada (1957).wav

Pre-gap length 0:00:01.30

Peak level 89.0 %
Extraction speed 1.1 X
Track quality 100.0 %
Test CRC 01FB69F6
Copy CRC 01FB69F6
Accurately ripped (confidence 2) [08331F25] (AR v2)
Copy OK

Track 3

Filename C:RipsChet Atkins - Mr. Guitar- The Complete Recordings1955-1960Chet Atkins - Mr. Guitar- The

Complete Recordings1955-1960 - Disc 4 of 73 - Chet Atkins - Bourrée (1957).wav

Pre-gap length 0:00:01.45

Peak level 78.9 %
Extraction speed 1.1 X
Track quality 100.0 %
Test CRC E1319A9B
Copy CRC E1319A9B
Accurately ripped (confidence 2) [F3EDBE74] (AR v2)
Copy OK

Track 4

Filename C:RipsChet Atkins - Mr. Guitar- The Complete Recordings1955-1960Chet Atkins - Mr. Guitar- The

Complete Recordings1955-1960 - Disc 4 of 74 - Chet Atkins - Johnson Rag (1957).wav

Pre-gap length 0:00:01.55

Peak level 97.9 %
Extraction speed 1.3 X
Track quality 100.0 %
Test CRC 88EAC312
Copy CRC 88EAC312
Accurately ripped (confidence 2) [6EDF2A71] (AR v2)
Copy OK

Track 5

Filename C:RipsChet Atkins - Mr. Guitar- The Complete Recordings1955-1960Chet Atkins - Mr. Guitar- The

Complete Recordings1955-1960 - Disc 4 of 75 - Chet Atkins - Yesterdays (1957).wav

Pre-gap length 0:00:01.33

Peak level 97.9 %
Extraction speed 1.3 X
Track quality 100.0 %
Test CRC C4401F55
Copy CRC C4401F55
Accurately ripped (confidence 2) [91137747] (AR v2)
Copy OK

Track 6

Filename C:RipsChet Atkins - Mr. Guitar- The Complete Recordings1955-1960Chet Atkins - Mr. Guitar- The

Complete Recordings1955-1960 - Disc 4 of 76 - Chet Atkins - Hidden Charm (1957).wav

Pre-gap length 0:00:01.42

Peak level 97.9 %
Extraction speed 1.4 X
Track quality 100.0 %
Tes



Thelonious Monk The Complete Riverside Recordings | The Complete Riverside Recordings Of Cannonball Adderley | Lord Of The Rings The Complete Recordings | Abba The Complete Studio Recordings | Complete Columbia Studio Recordings | John Coltrane The Complete Atlantic Recordings | Karajan The Complete Emi Recordings | Return Of The King Complete Recordings | Towers Complete Recordings | Maria Callas The Complete Studio Recordings
Free Full Download Chet Atkins - Mr. Guitar - The Complete form MediaFire link RapidShare, ifile.it, Uploaded.to, Zippyshare, FileSonic, turbobit, ul.to, ORON, DepositFiles,rapidgator.net, extabit.com, filefactory.com. Chet Atkins - Mr. Guitar - The Complete Torrent Download with keygen, crack, serial, cdkey,password,1080P,hd, 2015, 2016
Dear visitor, you went to the site as unregistered user.
We encourage you to register .

Add comment

Name:*
E-Mail:*
Comment:
  • bowtiesmilelaughingblushsmileyrelaxedsmirk
    heart_eyeskissing_heartkissing_closed_eyesflushedrelievedsatisfiedgrin
    winkstuck_out_tongue_winking_eyestuck_out_tongue_closed_eyesgrinningkissingstuck_out_tonguesleeping
    worriedfrowninganguishedopen_mouthgrimacingconfusedhushed
    expressionlessunamusedsweat_smilesweatdisappointed_relievedwearypensive
    disappointedconfoundedfearfulcold_sweatperseverecrysob
    joyastonishedscreamtired_faceangryragetriumph
    sleepyyummasksunglassesdizzy_faceimpsmiling_imp
    neutral_faceno_mouthinnocent
Enter the two words shown in the image:

Sitemap We don't Store Any File In Server. The Search and free download links all published by our users.if You Have Any Doubts About Legality Of Content, plz contact us.
  • count 88x31px