Percy Faith & His Orchestra : I Think I Love You - Plus Bonus tracks (2004) Re-Up

peter Category: music

Percy Faith
I Think I Love You - Plus Bonus Tracks ( CD 2004 )

EAC Rip | FLAC-TRACKS+CUE+LOG | ADD Stereo | 1CD | Scans | 56 Min. | 381 MB
Label: Sony Music Collectables / Catalogue: COL-CD-7653
Easy Listening Pop / LP麓s Originally Released in 1971

Collected all the LP's and 45's originally released during those golden years...remember when Maestro Percy Faith was cranking out beautiful arrangements in the early to mid '50s for singers of the Columbia Record stables (Tony Bennett, Rosie Clooney, Doris Day, Johnny Mathis and Guy Mitchell) to name just a few...but his true and real ambition was arranging tunes of the yesterday and composing songs of his own...now enters the album of "I THINK I LOVE YOU", plus bonus tracks featuring countless melodies of the singles from the '60s and '70s...all arranged in perfect order by Mr. Faith...all under the watchful eye of Mitch Miller (head of artist and repertoire department) of Columbia Records.

This was Percy's album from 1971 and listening to this cd I find it to be lovely.Percy Faith used his mixed chrous in all but 3 songs on this cd and those were bonuses.Most of these songs on this cd are lightley stringed not a lot of lush tunes on this one but even so I love hearing Faith's chrous on these songs backed with his light strings.Here is the album info


Tracks:

1)Everythings Alright (Mixed Chrous)
2)Where Do I Begin(Love Story)(Mixed Chrous) This is one of my favorite songs and Faith does a great job on it.
3)Love The One Your With (Mixed Chrous)
4)He Ain't Heavy He's My Brother (Mixed Chrous)
5)Easy Days Easy Nights (Mixed Chrous)
6)The Green Grass Starts To Grow (Mixed Chrous)
7)I Don't Know How To Love Him (Mixed Chrous)Percy's Instrumental version of this song is on The Beatles Album/Jesus Christ Superstar.Both versions sound the same except for the one here has vocals and the one on the other cd is instrumental.
8)I Think I Love You (Mixed Chrous)
9)My Sweet Lord(Mixed Chrous)
10)Rose Garden(Mixed Chrous)
11)Don't Say Goodbye(Mixed Chrous)

Bonus Tracks These Were Singles That Were Never Previously Released Until Now
12)The Time For Love Is Anytime(Mixed Chrous)1969
13)Peppermint Hill And Strawberry Lane(Mixed Chrous)1969
14)Theme From Young Lovers(Mixed Chrous)This was Faith's 2nd version his instumental version is on the Theme For Young Lover's cd.1970
15)Although attribitued to Anytime Of The Year this is actually I Can Hear The Music Play(Female Chrous)
16)The Godfather Waltz(Instrumental Lush)1972
17)Life Is What You Make Of It(Theme From Kotch)(Instrumental Lush)1972
18)Emmanuelle The Joys Of A Woman (Instrumental Lush)1976 Even thou Summerplace 76 was Faith's last album he went on to record a few more songs but they never got put on an album.This is one of them.

EAC LOG
Exact Audio Copy V1.0 beta 3 from 29. August 2011

EAC extraction logfile from 20. May 2015, 8:58

Percy Faith / I think I love you

Used drive : SONY DVD RW DRU-840A Adapter: 0 ID: 1

Read mode : Secure
Utilize accurate stream : Yes
Defeat audio cache : Yes
Make use of C2 pointers : No

Read offset correction : 6
Overread into Lead-In and Lead-Out : No
Fill up missing offset samples with silence : Yes
Delete leading and trailing silent blocks : No
Null samples used in CRC calculations : Yes
Used interface : Native Win32 interface for Win NT & 2000
Gap handling : Not detected, thus appended to previous track

Used output format : User Defined Encoder
Selected bitrate : 320 kBit/s
Quality : High
Add ID3 tag : No
Command line compressor : C:Archivos de programaExact Audio CopyFLACFLAC.EXE
Additional command line options : -6 -V -T "ARTIST=%artist%" -T "TITLE=%title%" -T "ALBUM=%albumtitle%" -T "DATE=%year%" -T "TRACKNUMBER=%tracknr%" -T "GENRE=%genre%" -T "COMMENT=%comment%" -T "BAND=%albuminterpret%" -T "ALBUMARTIST=%albuminterpret%" -T "COMPOSER=%composer%" %haslyrics%--tag-from-file=LYRICS="%lyricsfile%"%haslyrics% -T "DISCNUMBER=%cdnumber%" -T "TOTALDISCS=%totalcds%" -T "TOTALTRACKS=%numtracks%" %hascover%--picture="%coverfile%"%hascover% %source% -o %dest% TOC of the extracted CD

Track | Start | Length | Start sector | End sector
---------------------------------------------------------
1 | 0:00.00 | 3:26.07 | 0 | 15456
2 | 3:26.07 | 3:13.03 | 15457 | 29934
3 | 6:39.10 | 2:55.50 | 29935 | 43109
4 | 9:34.60 | 3:39.37 | 43110 | 59571
5 | 13:14.22 | 3:05.10 | 59572 | 73456
6 | 16:19.32 | 3:09.33 | 73457 | 87664
7 | 19:28.65 | 3:13.30 | 87665 | 102169
8 | 22:42.20 | 2:43.22 | 102170 | 114416
9 | 25:25.42 | 3:27.28 | 114417 | 129969
10 | 28:52.70 | 3:02.00 | 129970 | 143619
11 | 31:54.70 | 3:05.02 | 143620 | 157496
12 | 34:59.72 | 2:54.45 | 157497 | 170591
13 | 37:54.42 | 3:27.03 | 170592 | 186119
14 | 41:21.45 | 3:27.65 | 186120 | 201709
15 | 44:49.35 | 2:39.16 | 201710 | 213650
16 | 47:28.51 | 2:48.37 | 213651 | 226287
17 | 50:17.13 | 2:52.35 | 226288 | 239222
18 | 53:09.48 | 3:13.16 | 239223 | 253713 Track 1

Filename E:MUSICMy MusicPercy Faith & His Orchestra I Think I Love You - Plus Bonus tracksCD1 Everythings alright.wav

Peak level 100.0 %
Extraction speed 1.9 X
Track quality 100.0 %
Test CRC DF85CFF1
Copy CRC DF85CFF1
Accurately ripped (confidence 1) [28156BA0] (AR v2)
Copy OK

Track 2

Filename E:MUSICMy MusicPercy Faith & His Orchestra I Think I Love You - Plus Bonus tracksCD2 (Where do I begin) Love story.wav

Peak level 90.1 %
Extraction speed 2.0 X
Track quality 100.0 %
Test CRC B70644C0
Copy CRC B70644C0
Accurately ripped (confidence 1) [E0732E60] (AR v2)
Copy OK

Track 3

Filename E:MUSICMy MusicPercy Faith & His Orchestra I Think I Love You - Plus Bonus tracksCD3 Love the one you're with.wav

Peak level 94.6 %
Extraction speed 2.1 X
Track quality 100.0 %
Test CRC 2B292D38
Copy CRC 2B292D38
Accurately ripped (confidence 1) [3EF819E1] (AR v2)
Copy OK

Track 4

Filename E:MUSICMy MusicPercy Faith & His Orchestra I Think I Love You - Plus Bonus tracksCD4 He ain't heavy, he's my brother.wav

Peak level 95.8 %
Extraction speed 2.3 X
Track quality 100.0 %
Test CRC 8478B767
Copy CRC 8478B767
Accurately ripped (confidence 1) [B139E64D] (AR v2)
Copy OK

Track 5

Filename E:MUSICMy MusicPercy Faith & His Orchestra I Think I Love You - Plus Bonus tracksCD5 Easy days - Easy nights.wav

Peak level 100.0 %
Extraction speed 2.4 X
Track quality 100.0 %
Test CRC 18E012E4
Copy CRC 18E012E4
Accurately ripped (confidence 1) [944E7929] (AR v2)
Copy OK

Track 6

Filename E:MUSICMy MusicPercy Faith & His Orchestra I Think I Love You - Plus Bonus tracksCD6 The green grass starts to grow.wav

Peak level 100.0 %
Extraction speed 2.3 X
Track quality 100.0 %
Test CRC 3C67E48A
Copy CRC 3C67E48A
Accurately ripped (confidence 1) [CBE5A519] (AR v2)
Copy OK

Track 7

Filename E:MUSICMy MusicPercy Faith & His Orchestra I Think I Love You - Plus Bonus tracksCD7 I don't know how to love him.wav

Peak level 100.0 %
Extraction speed 2.5 X
Track quality 100.0 %
Test CRC 60DC871D
Copy CRC 60DC871D
Accurately ripped (confidence 1) [23AC55DE] (AR v2)
Copy OK

Track 8

Filename E:MUSICMy MusicPercy Faith & His Orchestra I Think I Love You - Plus Bonus tracksCD8 I think I love you.wav

Peak level 96.1 %
Extraction speed 2.4 X
Track quality 100.0 %
Test CRC 1FD24396
Copy CRC 1FD24396
Accurately ripped (confidence 1) [29120118] (AR v2)
Copy OK

Track 9

Filename E:MUSICMy MusicPercy Faith & His Orchestra I Think I Love You - Plus Bonus tracksCD9 My sweet lord.wav

Peak level 99.4 %
Extraction speed 2.8 X
Track quality 100.0 %
Test CRC 6171C447
Copy CRC 6171C447
Accurately ripped (confidence 1) [1EC609A0] (AR v2)
Copy OK

Track 10

Filename E:MUSICMy MusicPercy Faith & His Orchestra I Think I Love You - Plus Bonus tracksCD10 Rose garden.wav

Peak level 100.0 %
Extraction speed 2.8 X
Track quality 100.0 %
Test CRC E9064119
Copy CRC E9064119
Accurately ripped (confidence 1) [D76EFA01] (AR v2)
Copy OK

Track 11

Filename E:MUSICMy MusicPercy Faith & His Orchestra I Think I Love You - Plus Bonus tracksCD11 Don't say goodbye.wav

Peak level 96.0 %
Extraction speed 2.9 X
Track quality 100.0 %
Test CRC 2B3FF36E
Copy CRC 2B3FF36E
Accurately ripped (confidence 1) [A0C7CAA2] (AR v2)
Copy OK

Track 12

Filename E:MUSICMy MusicPercy Faith & His Orchestra I Think I Love You - Plus Bonus tracksCD12 The time for love is anytime.wav

Peak level 93.6 %
Extraction speed 2.0 X
Track quality 99.9 %
Test CRC DA1F9394
Copy CRC DA1F9394
Accurately ripped (confidence 1) [14F58894] (AR v2)
Copy OK

Track 13

Filename E:MUSICMy MusicPercy Faith & His Orchestra I Think I Love You - Plus Bonus tracksCD13 Peppermint Hill and Strawberry Lane.wav

Peak level 96.3 %
Extraction speed 3.1 X
Track quality 100.0 %
Test CRC 3E91E404
Copy CRC 3E91E404
Accurately ripped (confidence 1) [2286BBFA] (AR v2)
Copy OK

Track 14

Filename E:MUSICMy MusicPercy Faith & His Orchestra I Think I Love You - Plus Bonus tracksCD14 Theme for young lovers.wav

Peak level 96.9 %
Extraction speed 3.3 X
Track quality 100.0 %
Test CRC B717B90F
Copy CRC B717B90F
Accurately ripped (confidence 1) [550B90D2] (AR v2)
Copy OK

Track 15

Filename E:MUSICMy MusicPercy Faith & His Orchestra I Think I Love You - Plus Bonus tracksCD15 Anytime of the year.wav

Peak level 89.2 %
Extraction speed 3.2 X
Track quality 100.0 %
Test CRC AF9F9E80
Copy CRC AF9F9E80
Accurately ripped (confidence 1) [E95A327D] (AR v2)
Copy OK

Track 16

Filename E:MUSICMy MusicPercy Faith & His Orchestra I Think I Love You - Plus Bonus tracksCD16 The Godfather Waltz.wav

Peak level 87.3 %
Extraction speed 3.3 X
Track quality 100.0 %
Test CRC 2478C981
Copy CRC 2478C981
Accurately ripped (confidence 1) [6AC4C5E7] (AR v2)
Copy OK

Track 17

Filename E:MUSICMy MusicPercy Faith & His Orchestra I Think I Love You - Plus Bonus tracksCD17 Life is what you make it.wav

Peak level 100.0 %
Extraction speed 3.4 X
Track quality 100.0 %
Test CRC 35EA132B
Copy CRC 35EA132B
Accurately ripped (confidence 1) [B729B711] (AR v2)
Copy OK

Track 18

Filename E:MUSICMy MusicPercy Faith & His Orchestra I Think I Love You - Plus Bonus tracksCD18 Emmanuelle - The joys of a woman.wav

Peak level 91.7 %
Extraction speed 2.4 X
Track quality 99.9 %
Test CRC 364F943B
Copy CRC 364F943B
Accurately ripped (confidence 1) [B8BEE807] (AR v2)
Copy OK All tracks accurately ripped

No errors occurred

End of status report

==== Log checksum D1005EDED76E70D4FA13627EABE6EBDF091BEBCB90C4C8AC80DE810C1688FB8D ====

------------------------------------------------------------

Exact Audio Copy V1.0 beta 3 from 29. August 2011

EAC extraction logfile from 20. May 2015, 8:58

Percy Faith / I think I love you

Used drive : SONY DVD RW DRU-840A Adapter: 0 ID: 1

Read mode : Secure
Utilize accurate stream : Yes
Defeat audio cache : Yes
Make use of C2 pointers : No

Read offset correction : 6
Overread into Lead-In and Lead-Out : No
Fill up missing offset samples with silence : Yes
Delete leading and trailing silent blocks : No
Null samples used in CRC calculations : Yes
Used interface : Native Win32 interface for Win NT & 2000
Gap handling : Not detected, thus appended to previous track

Used output format : User Defined Encoder
Selected bitrate : 320 kBit/s
Quality : High
Add ID3 tag : No
Command line compressor : C:Archivos de programaExact Audio CopyFLACFLAC.EXE
Additional command line options : -6 -V -T "ARTIST=%artist%" -T "TITLE=%title%" -T "ALBUM=%albumtitle%" -T "DATE=%year%" -T "TRACKNUMBER=%tracknr%" -T "GENRE=%genre%" -T "COMMENT=%comment%" -T "BAND=%albuminterpret%" -T "ALBUMARTIST=%albuminterpret%" -T "COMPOSER=%composer%" %haslyrics%--tag-from-file=LYRICS="%lyricsfile%"%haslyrics% -T "DISCNUMBER=%cdnumber%" -T "TOTALDISCS=%totalcds%" -T "TOTALTRACKS=%numtracks%" %hascover%--picture="%coverfile%"%hascover% %source% -o %dest% TOC of the extracted CD

Track | Start | Length | Start sector | End sector
---------------------------------------------------------
1 | 0:00.00 | 3:26.07 | 0 | 15456
2 | 3:26.07 | 3:13.03 | 15457 | 29934
3 | 6:39.10 | 2:55.50 | 29935 | 43109
4 | 9:34.60 | 3:39.37 | 43110 | 59571
5 | 13:14.22 | 3:05.10 | 59572 | 73456
6 | 16:19.32 | 3:09.33 | 73457 | 87664
7 | 19:28.65 | 3:13.30 | 87665 | 102169
8 | 22:42.20 | 2:43.22 | 102170 | 114416
9 | 25:25.42 | 3:27.28 | 114417 | 129969
10 | 28:52.70 | 3:02.00 | 129970 | 143619
11 | 31:54.70 | 3:05.02 | 143620 | 157496
12 | 34:59.72 | 2:54.45 | 157497 | 170591
13 | 37:54.42 | 3:27.03 | 170592 | 186119
14 | 41:21.45 | 3:27.65 | 186120 | 201709
15 | 44:49.35 | 2:39.16 | 201710 | 213650
16 | 47:28.51 | 2:48.37 | 213651 | 226287
17 | 50:17.13 | 2:52.35 | 226288 | 239222
18 | 53:09.48 | 3:13.16 | 239223 | 253713 Track 1

Filename E:MUSICMy MusicPercy Faith & His Orchestra I Think I Love You - Plus Bonus tracksCD1 Everythings alright.wav

Peak level 100.0 %
Extraction speed 1.9 X
Track quality 100.0 %
Test CRC DF85CFF1
Copy CRC DF85CFF1
Accurately ripped (confidence 1) [28156BA0] (AR v2)
Copy OK

Track 2

Filename E:MUSICMy MusicPercy Faith & His Orchestra I Think I Love You - Plus Bonus tracksCD2 (Where do I begin) Love story.wav

Peak level 90.1 %
Extraction speed 2.0 X
Track quality 100.0 %
Test CRC B70644C0
Copy CRC B70644C0
Accurately ripped (confidence 1) [E0732E60] (AR v2)
Copy OK

Track 3

Filename E:MUSICMy MusicPercy Faith & His Orchestra I Think I Love You - Plus Bonus tracksCD3 Love the one you're with.wav

Peak level 94.6 %
Extraction speed 2.1 X
Track quality 100.0 %
Test CRC 2B292D38
Copy CRC 2B292D38
Accurately ripped (confidence 1) [3EF819E1] (AR v2)
Copy OK

Track 4

Filename E:MUSICMy MusicPercy Faith & His Orchestra I Think I Love You - Plus Bonus tracksCD4 He ain't heavy, he's my brother.wav

Peak level 95.8 %
Extraction speed 2.3 X
Track quality 100.0 %
Test CRC 8478B767
Copy CRC 8478B767
Accurately ripped (confidence 1) [B139E64D] (AR v2)
Copy OK

Track 5

Filename E:MUSICMy MusicPercy Faith & His Orchestra I Think I Love You - Plus Bonus tracksCD5 Easy days - Easy nights.wav

Peak level 100.0 %
Extraction speed 2.4 X
Track quality 100.0 %
Test CRC 18E012E4
Copy CRC 18E012E4
Accurately ripped (confidence 1) [944E7929] (AR v2)
Copy OK

Track 6

Filename E:MUSICMy MusicPercy Faith & His Orchestra I Think I Love You - Plus Bonus tracksCD6 The green grass starts to grow.wav

Peak level 100.0 %
Extraction speed 2.3 X
Track quality 100.0 %
Test CRC 3C67E48A
Copy CRC 3C67E48A
Accurately ripped (confidence 1) [CBE5A519] (AR v2)
Copy OK

Track 7

Filename E:MUSICMy MusicPercy Faith & His Orchestra I Think I Love You - Plus Bonus tracksCD7 I don't know how to love him.wav

Peak level 100.0 %
Extraction speed 2.5 X
Track quality 100.0 %
Test CRC 60DC871D
Copy CRC 60DC871D
Accurately ripped (confidence 1) [23AC55DE] (AR v2)
Copy OK

Track 8

Filename E:MUSICMy MusicPercy Faith & His Orchestra I Think I Love You - Plus Bonus tracksCD8 I think I love you.wav

Peak level 96.1 %
Extraction speed 2.4 X
Track quality 100.0 %
Test CRC 1FD24396
Copy CRC 1FD24396
Accurately ripped (confidence 1) [29120118] (AR v2)
Copy OK

Track 9

Filename E:MUSICMy MusicPercy Faith & His Orchestra I Think I Love You - Plus Bonus tracksCD9 My sweet lord.wav

Peak level 99.4 %
Extraction speed 2.8 X
Track quality 100.0 %
Test CRC 6171C447
Copy CRC 6171C447
Accurately ripped (confidence 1) [1EC609A0] (AR v2)
Copy OK

Track 10

Filename E:MUSICMy MusicPercy Faith & His Orchestra I Think I Love You - Plus Bonus tracksCD10 Rose garden.wav

Peak level 100.0 %
Extraction speed 2.8 X
Track quality 100.0 %
Test CRC E9064119
Copy CRC E9064119
Accurately ripped (confidence 1) [D76EFA01] (AR v2)
Copy OK

Track 11

Filename E:MUSICMy MusicPercy Faith & His Orchestra I Think I Love You - Plus Bonus tracksCD11 Don't say goodbye.wav

Peak level 96.0 %
Extraction speed 2.9 X
Track quality 100.0 %
Test CRC 2B3FF36E
Copy CRC 2B3FF36E
Accurately ripped (confidence 1) [A0C7CAA2] (AR v2)
Copy OK

Track 12

Filename E:MUSICMy MusicPercy Faith & His Orchestra I Think I Love You - Plus Bonus tracksCD12 The time for love is anytime.wav

Peak level 93.6 %
Extraction speed 2.0 X
Track quality 99.9 %
Test CRC DA1F9394
Copy CRC DA1F9394
Accurately ripped (confidence 1) [14F58894] (AR v2)
Copy OK

Track 13

Filename E:MUSICMy MusicPercy Faith & His Orchestra I Think I Love You - Plus Bonus tracksCD13 Peppermint Hill and Strawberry Lane.wav

Peak level 96.3 %
Extraction speed 3.1 X
Track quality 100.0 %
Test CRC 3E91E404
Copy CRC 3E91E404
Accurately ripped (confidence 1) [2286BBFA] (AR v2)
Copy OK

Track 14

Filename E:MUSICMy MusicPercy Faith & His Orchestra I Think I Love You - Plus Bonus tracksCD14 Theme for young lovers.wav

Peak level 96.9 %
Extraction speed 3.3 X
Track quality 100.0 %
Test CRC B717B90F
Copy CRC B717B90F
Accurately ripped (confidence 1) [550B90D2] (AR v2)
Copy OK

Track 15

Filename E:MUSICMy MusicPercy Faith & His Orchestra I Think I Love You - Plus Bonus tracksCD15 Anytime of the year.wav

Peak level 89.2 %
Extraction speed 3.2 X
Track quality 100.0 %
Test CRC AF9F9E80
Copy CRC AF9F9E80
Accurately ripped (confidence 1) [E95A327D] (AR v2)
Copy OK

Track 16

Filename E:MUSICMy MusicPercy Faith & His Orchestra I Think I Love You - Plus Bonus tracksCD16 The Godfather Waltz.wav

Peak level 87.3 %
Extraction speed 3.3 X
Track quality 100.0 %
Test CRC 2478C981
Copy CRC 2478C981
Accurately ripped (confidence 1) [6AC4C5E7] (AR v2)
Copy OK

Track 17

Filename E:MUSICMy MusicPercy Faith & His Orchestra I Think I Love You - Plus Bonus tracksCD17 Life is what you make it.wav

Peak level 100.0 %
Extraction speed 3.4 X
Track quality 100.0 %
Test CRC 35EA132B
Copy CRC 35EA132B
Accurately ripped (confidence 1) [B729B711] (AR v2)
Copy OK

Track 18

Filename E:MUSICMy MusicPercy Faith & His Orchestra I Think I Love You - Plus Bonus tracksCD18 Emmanuelle - The joys of a woman.wav

Peak level 91.7 %
Extraction speed 2.4 X
Track quality 99.9 %
Test CRC 364F943B
Copy CRC 364F943B
Accurately ripped (confidence 1) [B8BEE807] (AR v2)
Copy OK All tracks accurately ripped

No errors occurred

End of status report

==== Log checksum D1005EDED76E70D4FA13627EABE6EBDF091BEBCB90C4C8AC80DE810C1688FB8D ====






Losing Faith In Faith | Paloma Faith Only Love | Love Lust Faith Dreams M4A | Consequences Of Love 2004 | A Love Song For Bobby Long 2004 | Love Love Love Faith | Demi Bonus Tracks | Thirty Seconds To Mars Love Lust Faith And Dreams | Hot On The Tracks | Love So Divine 2004
Free Full Download Percy Faith & His Orchestra : I Think I form MediaFire link RapidShare, ifile.it, Uploaded.to, Zippyshare, FileSonic, turbobit, ul.to, ORON, DepositFiles,rapidgator.net, extabit.com, filefactory.com. Percy Faith & His Orchestra : I Think I Torrent Download with keygen, crack, serial, cdkey,password,1080P,hd, 2015, 2016
Dear visitor, you went to the site as unregistered user.
We encourage you to register .

Add comment

Name:*
E-Mail:*
Comment:
  • bowtiesmilelaughingblushsmileyrelaxedsmirk
    heart_eyeskissing_heartkissing_closed_eyesflushedrelievedsatisfiedgrin
    winkstuck_out_tongue_winking_eyestuck_out_tongue_closed_eyesgrinningkissingstuck_out_tonguesleeping
    worriedfrowninganguishedopen_mouthgrimacingconfusedhushed
    expressionlessunamusedsweat_smilesweatdisappointed_relievedwearypensive
    disappointedconfoundedfearfulcold_sweatperseverecrysob
    joyastonishedscreamtired_faceangryragetriumph
    sleepyyummasksunglassesdizzy_faceimpsmiling_imp
    neutral_faceno_mouthinnocent
Enter the two words shown in the image:

Sitemap We don't Store Any File In Server. The Search and free download links all published by our users.if You Have Any Doubts About Legality Of Content, plz contact us.
  • count 88x31px