Chic - Nile Rodgers Presents: The Chic Organization Boxset Vol. 1 / Savoir Faire 4CD (2010) Atlantic

alice Category: music

Chic - Nile Rodgers Presents: The Chic Organization Boxset Vol. 1 / "Savoir Faire" [4CD] (2010) {Atlantic}
EAC rip (secure mode) | FLAC (tracks)+CUE+LOG -> 1.86 Gb | MP3 @320 -> 661 Mb
Full Artwork @ 600 dpi (jpg) -> 244 Mb | 5% repair rar
© 2010 Atlantic / Wea / Rhino | 5249827895
Funk / Dance Pop / Post Disco

In 1976, Nile Rodgers & Bernard Edwards founded the legendary CHIC Organization Ltd. Together they wrote and produced many number one hits and very quickly became the biggest hit music factory since Motown. A few years after the dawn of Disco, Nile Rodgers & Bernard Edwards disbanded The Chic Organization Ltd., but they kept on playing & producing, with Nile Rodgers quickly becoming the biggest pop producer of the 80’s. In 1983, he produced David Bowie’s “Let’s Dance” and in 1984, Madonna’s “Like a Virgin”. Many more artists also benefited from his incredible production skills and unique guitar style, including Mick Jagger, INXS, Duran Duran, Eric Clapton, Hall & Oates, Stevie Ray Vaughan, Mariah Carey, Maroon 5, Michael Jackson, Grace Jones…to name but a few.


On June 10th Warner Catalogue is proud to present the first box set to give access to the CHIC Organization Ltd. archives. The boxset includes Chic’s biggest and best tracks, rare versions, outtakes, remixes (by French DJ Dimitri from Paris) and amazing unreleased songs, all overseen by Nile Rodgers himself.

• 4CD Boxset with remastered audio
• Long box digipack including a 20 page booklet with photos
• Liner notes by Nile Rodgers
• Rare & unreleased tracks, outtakes and new mixes
• 5 songs remixed by French DJ, Dimitri from Paris


Even if you are intimately familiar with all the previously released material on The Chic Organization Boxset, Vol. 1 -- and don’t have to think hard about cuts that are missed -- it’s hard not to be floored by the box set’s existence. Appropriately enough, the French wing of Warner beat the American mothership to the punch, and involved the band’s Nile Rodgers, who also pens some illuminating liner notes, in compiling this four-disc anthology. It doesn’t just cover Chic's releases, but Rodgers and Bernard Edwards' dynamite production work for Sister Sledge, Norma Jean, Sheila & B. Devotion, Diana Ross, and several others as well. Just about all the big guns are here, from the Hot 100 and club chart toppers, to the stellar ballads, to the deep classics that deserved better, like the ace eight-minute 12” mixes of the A-sides off the Soup for One soundtrack. Most of the previously unreleased material, highlighted by three songs from a shelved Johnny Mathis album and Chic’s own gorgeous “Just Call Me,” is at least fascinating when it’s not up to the band's hitmaking standard. For whatever reason, Dimitri from Paris was called upon to update five tracks; he uses nothing but original elements in his imaginative mixes, but plenty of casual fans would prefer to have the original 12” mixes of “I Want Your Love,” Sister Sledge's “Lost in Music,” and Norma Jean's “Saturday” in a box like this. That minor gripe notwithstanding, this is an absolute treasure.




In 1976, Nile Rodgers & Bernard Edwards founded the legendary CHIC Organization Ltd. Together they wrote and produced many number one hits and very quickly became the biggest hit music factory since Motown.

As well as the success of their original material, 8 studio albums in total, CHIC also became one of the most sampled bands in the world. The bass line from the classic hip hop anthem Sugarhill Gang’s ‘Rapper’s Delight’ comes from CHIC’s ‘Good Times’, ‘Lady’ by Modjo comes from ‘Soup for One’, Notorious BIG sampled ‘I’m Coming Out’ and Will Smith rearranged ‘He’s The Greatest Dancer’ by Sister Sledge. In addition, many artists have been heavily influenced by Bernard Edwards’ bass line in ‘Good Times’, most famously Queen with ‘Another One Bites The Dust’.

A few years after the dawn of Disco, Nile Rodgers & Bernard Edwards disbanded The Chic Organization Ltd., but they kept on playing & producing, with Nile Rodgers quickly becoming the biggest pop producer of the 80’s. In 1983, he produced David Bowie’s ‘Let’s Dance’ and in 1984, Madonna’s ‘Like a Virgin’. Many more artists also benefited from his incredible production skills and unique guitar style, including Mick Jagger, INXS, Duran Duran, Eric Clapton, Hall & Oates, Stevie Ray Vaughan, Mariah Carey, Maroon 5, Michael Jackson, Grace Jones…to name but a few.

A few years after the death of Bernard Edwards, Nile Rodgers put together a new line-up and is actively touring around the world as well as collaborating with different artists including most recently Daft Punk. Their disco-drenched single ‘Get Lucky’, featuring Nile Rodgers and Pharrell Williams, has just become the fastest selling single of 2013 as well as the biggest hit of the French duo’s career!

On June 10th Warner Catalogue is proud to present the first box set to give access to the CHIC Organization Ltd. archives. The boxset includes Chic’s biggest and best tracks, rare versions, outtakes, remixes (by French DJ Dimitri from Paris) and amazing unreleased songs, all overseen by Nile Rodgers himself.


Personnel:
Carly Simon
Debbie Harry
Diana Ross
Fonzi Thornton
Johnny Mathis
Norma Jean
Sheila & B. Devotion
Sister Sledge
Teddy Pendergrass

...

tracklist:
CD1

01. Everybody Dance (12" Mix)
02. Saturday (Dimitri From Paris Remix) - Norma Jean Wright
03. Dance, Dance, Dance [Yowsah, Yowsah, Yowsah]
04. Est-Ce Que C'Est Chic (LP Version)
05. Sorcerer (12" Inch Version) - Norma Jean Wright
06. Chic Cheer (2006 Remastered LP Version)
07. Le Freak (2006 Remastered Lp Version)
08. Savoir Faire (2006 Remastered LP Version)
09. Happy Man (LP Version)
10. At Last I Am Free (2006 Remastered LP Version)
11. Funny Bone Outtake

CD2
01. I Want Your Love (Dimitri From Paris Remix)
02. He's The Greatest Dancer (2006 Remastered LP Version) - Sister Sledge
03. We Are Family - Sister Sledge
04. Lost In Music (Dimitri From Paris Remix) - Sister Sledge
05. Thinking Of You (Dimitri From Paris Remix) - Sister Sledge
06. Good Times (2006 Remastered Original 12" Mix)
07. My Feet Keep Dancing (2006 Remastered LP Version)
08. My Forbidden Lover (LP Version)
09. Spacer (2008 Remastered Version) - Sheila & B Devotion
10. Hold Me Lonely Boy (Unreleased Long Version) - Norma Jean Wright
11. Your Love Is Good Outtake - Sheila & B. Devotion

CD3
01. High Society (12" Inch Version) - Norma Jean Wright
02. Got To Love Somebody - Sister Sledge
03. Reach Your Peak (12" Mix) - Sister Sledge
04. Rebels Are We (Album Version)
05. Chip Off The Old Block (2006 Remastered Lp Version)
06. Upside Down (Original Chic Mix) - Diana Ross
07. I'm Coming Out (Original Chic Mix) - Diana Ross
08. Stage Fright (LP Version)
09. Burn Hard (LP Version)
10. Backfired (Dance Version) - Debbie Harry
11. I Work For A Living (Nile Rodgers Long Version) - Fonzi Thornton
12. What About Me Outtake

CD4
01. Why (12" Mix) - Carly Simon
02. Dream Girl (Previously Unreleased Nile Rodgers Remix) - Teddy Pendergrass
03. Soup For One (12" Mix)
04. I'll Change My Game (Previously Unreleased) - Fonzi Thornton
05. Hangin' (12" Version)
06. I Feel Your Love Comin' On (Dimitri From Paris Remix)
07. You Are Beautiful (2006 Remastered LP Version)
08. I Want To Fall In Love (Previously Unreleased) - Johnny Mathis
09. It's Alright To Love Me (Previously Unreleased) - Johnny Mathis
10. Something To Sing About (Previously Unreleased) - Johnny Mathis
11. Just Call Me (Previously Unreleased)
12. Will You Cry Outtake

EAC log CD1
Exact Audio Copy V1.0 beta 1 from 15. November 2010

EAC extraction logfile from 25. July 2011, 18:26

The Chic Organization / Box Set Vol. 1 / "Savoir Faire" CD1

Used drive : hp DVD RW AD-7701H Adapter: 0 ID: 0

Read mode : Secure
Utilize accurate stream : Yes
Defeat audio cache : Yes
Make use of C2 pointers : No

Read offset correction : 48
Overread into Lead-In and Lead-Out : No
Fill up missing offset samples with silence : Yes
Delete leading and trailing silent blocks : No
Null samples used in CRC calculations : Yes
Used interface : Native Win32 interface for Win NT & 2000
Gap handling : Appended to previous track

Used output format : User Defined Encoder
Selected bitrate : 1024 kBit/s
Quality : High
Add ID3 tag : No
Command line compressor : C:Program Files (x86)Exact Audio CopyFlacflac.exe
Additional command line options : -8 -V -T "ARTIST=%a" -T "TITLE=%t" -T "ALBUM=%g" -T "DATE=%y" -T "TRACKNUMBER=%n" -T "GENRE=%m" -T "COMMENT= EAC - FLAC - 8 - bsw" %s TOC of the extracted CD

Track | Start | Length | Start sector | End sector
---------------------------------------------------------
1 | 0:00.00 | 8:26.00 | 0 | 37949
2 | 8:26.00 | 9:47.33 | 37950 | 82007
3 | 18:13.33 | 8:20.57 | 82008 | 119564
4 | 26:34.15 | 3:53.54 | 119565 | 137093
5 | 30:27.69 | 7:11.53 | 137094 | 169471
6 | 37:39.47 | 4:43.18 | 169472 | 190714
7 | 42:22.65 | 5:28.63 | 190715 | 215377
8 | 47:51.53 | 5:01.31 | 215378 | 237983
9 | 52:53.09 | 4:25.70 | 237984 | 257928
10 | 57:19.04 | 7:08.65 | 257929 | 290093
11 | 64:27.69 | 3:29.63 | 290094 | 305831
12 | 70:29.57 | 6:38.29 | 317232 | 347110 Track 1

Filename C:EAC1 - Chic - Everybody Dance (12'' Mix).wav

Pre-gap length 0:00:02.00

Peak level 84.3 %
Extraction speed 3.4 X
Track quality 100.0 %
Test CRC F7C2CE60
Copy CRC F7C2CE60
Accurately ripped (confidence 5) [024DD8E9]
Copy OK

Track 2

Filename C:EAC2 - Norma Jean - Saturday (Dimitri From Paris Remix).wav

Pre-gap length 0:00:01.00

Peak level 100.0 %
Extraction speed 4.1 X
Track quality 100.0 %
Test CRC 810997C4
Copy CRC 810997C4
Accurately ripped (confidence 5) [E1E543B0]
Copy OK

Track 3

Filename C:EAC3 - Chic - Dance, Dance, Dance (Yowsah, Yowsah, Yowsah) (12'' Mix).wav

Pre-gap length 0:00:01.00

Peak level 98.4 %
Extraction speed 4.2 X
Track quality 99.9 %
Test CRC D0B59C20
Copy CRC D0B59C20
Accurately ripped (confidence 5) [8C2D5A94]
Copy OK

Track 4

Filename C:EAC4 - Chic - Est-Ce Que C'Est Chic.wav

Pre-gap length 0:00:01.00

Peak level 100.0 %
Extraction speed 4.6 X
Track quality 100.0 %
Test CRC FBE4B7F1
Copy CRC FBE4B7F1
Accurately ripped (confidence 5) [3534293E]
Copy OK

Track 5

Filename C:EAC5 - Norma Jean - Sorcerer (12'' Mix).wav

Pre-gap length 0:00:01.00

Peak level 100.0 %
Extraction speed 4.8 X
Track quality 99.9 %
Test CRC A7066B08
Copy CRC A7066B08
Accurately ripped (confidence 5) [8AA2F51A]
Copy OK

Track 6

Filename C:EAC6 - Chic - Chic Cheer.wav

Pre-gap length 0:00:01.00

Peak level 94.9 %
Extraction speed 4.6 X
Track quality 99.9 %
Test CRC C693C1A4
Copy CRC C693C1A4
Accurately ripped (confidence 5) [231DD9D3]
Copy OK

Track 7

Filename C:EAC7 - Chic - Le Freak.wav

Pre-gap length 0:00:01.00

Peak level 94.6 %
Extraction speed 5.7 X
Track quality 100.0 %
Test CRC 0DCF7489
Copy CRC 0DCF7489
Accurately ripped (confidence 5) [FEA05D8B]
Copy OK

Track 8

Filename C:EAC8 - Chic - Savoir Faire.wav

Pre-gap length 0:00:01.00

Peak level 100.0 %
Extraction speed 5.8 X
Track quality 100.0 %
Test CRC 1CAA679B
Copy CRC 1CAA679B
Accurately ripped (confidence 5) [B69BAF99]
Copy OK

Track 9

Filename C:EAC9 - Chic - Happy Man.wav

Pre-gap length 0:00:01.00

Peak level 100.0 %
Extraction speed 5.8 X
Track quality 100.0 %
Test CRC 09CA885F
Copy CRC 09CA885F
Accurately ripped (confidence 5) [E73EB145]
Copy OK

Track 10

Filename C:EAC10 - Chic - At Last I Am Free.wav

Pre-gap length 0:00:01.00

Peak level 100.0 %
Extraction speed 6.5 X
Track quality 100.0 %
Test CRC 9A8DDC09
Copy CRC 9A8DDC09
Accurately ripped (confidence 5) [027665C6]
Copy OK

Track 11

Filename C:EAC11 - Chic - Funny Bone - (Previously Unreleased Outtake).wav

Pre-gap length 0:00:01.00

Peak level 100.0 %
Extraction speed 4.9 X
Track quality 99.9 %
Test CRC 306C8296
Copy CRC 306C8296
Accurately ripped (confidence 5) [88F2A157]
Copy OK All tracks accurately ripped

No errors occurred

End of status report

==== Log checksum 04145E5C3BB0A802647DE5B23C658858E114411880965B46FA8DF94D2C61EC77 ====

EAC log CD2
Exact Audio Copy V1.0 beta 1 from 15. November 2010

EAC extraction logfile from 25. July 2011, 19:07

The Chic Organization / Box Set Vol. 1 / "Savoir Faire" CD2

Used drive : hp DVD RW AD-7701H Adapter: 0 ID: 0

Read mode : Secure
Utilize accurate stream : Yes
Defeat audio cache : Yes
Make use of C2 pointers : No

Read offset correction : 48
Overread into Lead-In and Lead-Out : No
Fill up missing offset samples with silence : Yes
Delete leading and trailing silent blocks : No
Null samples used in CRC calculations : Yes
Used interface : Native Win32 interface for Win NT & 2000
Gap handling : Appended to previous track

Used output format : User Defined Encoder
Selected bitrate : 1024 kBit/s
Quality : High
Add ID3 tag : No
Command line compressor : C:Program Files (x86)Exact Audio CopyFlacflac.exe
Additional command line options : -8 -V -T "ARTIST=%a" -T "TITLE=%t" -T "ALBUM=%g" -T "DATE=%y" -T "TRACKNUMBER=%n" -T "GENRE=%m" -T "COMMENT= EAC - FLAC - 8 - bsw" %s TOC of the extracted CD

Track | Start | Length | Start sector | End sector
---------------------------------------------------------
1 | 0:00.00 | 8:33.53 | 0 | 38527
2 | 8:33.53 | 6:14.40 | 38528 | 66617
3 | 14:48.18 | 8:20.65 | 66618 | 104182
4 | 23:09.08 | 7:51.08 | 104183 | 139515
5 | 31:00.16 | 6:29.18 | 139516 | 168708
6 | 37:29.34 | 8:10.03 | 168709 | 205461
7 | 45:39.37 | 6:38.14 | 205462 | 235325
8 | 52:17.51 | 6:24.56 | 235326 | 264181
9 | 58:42.32 | 5:55.55 | 264182 | 290861
10 | 64:38.12 | 5:16.44 | 290862 | 314605
11 | 69:54.56 | 2:43.25 | 314606 | 326855 Track 1

Filename C:EAC1 - Chic - I Want Your Love (Dimitri From Paris Remix).wav

Pre-gap length 0:00:02.00

Peak level 99.9 %
Extraction speed 3.1 X
Track quality 99.9 %
Test CRC 78087C6F
Copy CRC 78087C6F
Accurately ripped (confidence 5) [00E865CF]
Copy OK

Track 2

Filename C:EAC2 - Sister Sledge - He's The Greatest Dancer.wav

Pre-gap length 0:00:01.00

Peak level 100.0 %
Extraction speed 3.9 X
Track quality 100.0 %
Test CRC ADD0BC65
Copy CRC ADD0BC65
Accurately ripped (confidence 5) [E6925EEE]
Copy OK

Track 3

Filename C:EAC3 - Sister Sledge - We Are Family.wav

Pre-gap length 0:00:01.00

Peak level 100.0 %
Extraction speed 4.5 X
Track quality 100.0 %
Test CRC AB8A9DA7
Copy CRC AB8A9DA7
Accurately ripped (confidence 5) [60676B18]
Copy OK

Track 4

Filename C:EAC4 - Sister Sledge - Lost In Music (Dimitri From Paris Remix).wav

Pre-gap length 0:00:01.00

Peak level 100.0 %
Extraction speed 4.9 X
Track quality 100.0 %
Test CRC F2D0AAEE
Copy CRC F2D0AAEE
Accurately ripped (confidence 5) [CB07F8FE]
Copy OK

Track 5

Filename C:EAC5 - Sister Sledge - Thinking Of You (Dimitri From Paris Remix).wav

Pre-gap length 0:00:01.00

Peak level 96.7 %
Extraction speed 5.3 X
Track quality 100.0 %
Test CRC F4CB880D
Copy CRC F4CB880D
Accurately ripped (confidence 5) [0F2A73B8]
Copy OK

Track 6

Filename C:EAC6 - Chic - Good Times.wav

Pre-gap length 0:00:01.00

Peak level 95.8 %
Extraction speed 5.7 X
Track quality 100.0 %
Test CRC 1425A3FE
Copy CRC 1425A3FE
Accurately ripped (confidence 5) [4A1AF628]
Copy OK

Track 7

Filename C:EAC7 - Chic - My Feet Keep Dancing.wav

Pre-gap length 0:00:01.00

Peak level 97.9 %
Extraction speed 6.0 X
Track quality 100.0 %
Test CRC 7D1415DF
Copy CRC 7D1415DF
Accurately ripped (confidence 5) [98135552]
Copy OK

Track 8

Filename C:EAC8 - Chic - My Forbidden Lover (12'' Mix).wav

Pre-gap length 0:00:01.00

Peak level 98.4 %
Extraction speed 6.2 X
Track quality 100.0 %
Test CRC 4F4631CC
Copy CRC 4F4631CC
Accurately ripped (confidence 5) [3041F7B8]
Copy OK

Track 9

Filename C:EAC9 - Sheila & B. Devotion - Spacer.wav

Pre-gap length 0:00:01.00

Peak level 99.7 %
Extraction speed 6.5 X
Track quality 100.0 %
Test CRC 57475211
Copy CRC 57475211
Accurately ripped (confidence 5) [F9B97D0E]
Copy OK

Track 10

Filename C:EAC10 - Norma Jean - Hold Me Lonely Boy (Previously Unreleased Long Version).wav

Pre-gap length 0:00:01.14

Peak level 100.0 %
Extraction speed 6.6 X
Track quality 100.0 %
Test CRC 5AB94318
Copy CRC 5AB94318
Accurately ripped (confidence 5) [B6ACFFF7]
Copy OK

Track 11

Filename C:EAC11 - Sheila & B. Devotion - Your Love Is Good (Previously Unreleased Outtake).wav

Pre-gap length 0:00:03.48

Peak level 100.0 %
Extraction speed 6.0 X
Track quality 100.0 %
Test CRC 2006F6E9
Copy CRC 2006F6E9
Accurately ripped (confidence 5) [C8C5E373]
Copy OK All tracks accurately ripped

No errors occurred

End of status report

==== Log checksum B106C1279682DB97B009D6F933830F8E4825CA4DDF72CBB6D132AB2211AD31C2 ====

EAC log CD3
Exact Audio Copy V1.0 beta 1 from 15. November 2010

EAC extraction logfile from 25. July 2011, 19:50

The Chic Organization / Box Set Vol. 1 / "Savoir Faire" CD3

Used drive : hp DVD RW AD-7701H Adapter: 0 ID: 0

Read mode : Secure
Utilize accurate stream : Yes
Defeat audio cache : Yes
Make use of C2 pointers : No

Read offset correction : 48
Overread into Lead-In and Lead-Out : No
Fill up missing offset samples with silence : Yes
Delete leading and trailing silent blocks : No
Null samples used in CRC calculations : Yes
Used interface : Native Win32 interface for Win NT & 2000
Gap handling : Appended to previous track

Used output format : User Defined Encoder
Selected bitrate : 1024 kBit/s
Quality : High
Add ID3 tag : No
Command line compressor : C:Program Files (x86)Exact Audio CopyFlacflac.exe
Additional command line options : -8 -V -T "ARTIST=%a" -T "TITLE=%t" -T "ALBUM=%g" -T "DATE=%y" -T "TRACKNUMBER=%n" -T "GENRE=%m" -T "COMMENT= EAC - FLAC - 8 - bsw" %s TOC of the extracted CD

Track | Start | Length | Start sector | End sector
---------------------------------------------------------
1 | 0:00.00 | 6:06.54 | 0 | 27503
2 | 6:06.54 | 6:52.14 | 27504 | 58417
3 | 12:58.68 | 5:25.37 | 58418 | 82829
4 | 18:24.30 | 4:55.11 | 82830 | 104965
5 | 23:19.41 | 5:00.29 | 104966 | 127494
6 | 28:19.70 | 4:14.58 | 127495 | 146602
7 | 32:34.53 | 5:59.65 | 146603 | 173592
8 | 38:34.43 | 3:56.69 | 173593 | 191361
9 | 42:31.37 | 5:00.27 | 191362 | 213888
10 | 47:31.64 | 6:20.13 | 213889 | 242401
11 | 53:52.02 | 7:03.38 | 242402 | 274164
12 | 60:55.40 | 2:47.11 | 274165 | 286700 Track 1

Filename C:EAC1 - Norma Jean - High Society (12'' Version).wav

Pre-gap length 0:00:02.00

Peak level 100.0 %
Extraction speed 3.3 X
Track quality 100.0 %
Test CRC 838C982F
Copy CRC 838C982F
Track not present in AccurateRip database
Copy OK

Track 2

Filename C:EAC2 - Sister Sledge - Got To Love Somebody.wav

Pre-gap length 0:00:00.98

Peak level 99.8 %
Extraction speed 3.8 X
Track quality 100.0 %
Test CRC 28519911
Copy CRC 28519911
Track not present in AccurateRip database
Copy OK

Track 3

Filename C:EAC3 - Sister Sledge - Reach Your Peak (12'' Mix).wav

Pre-gap length 0:00:01.00

Peak level 100.0 %
Extraction speed 4.1 X
Track quality 100.0 %
Test CRC 239A0BA8
Copy CRC 239A0BA8
Track not present in AccurateRip database
Copy OK

Track 4

Filename C:EAC4 - Chic - Rebels We Are.wav

Pre-gap length 0:00:01.00

Peak level 100.0 %
Extraction speed 4.4 X
Track quality 100.0 %
Test CRC 403BAF7F
Copy CRC 403BAF7F
Track not present in AccurateRip database
Copy OK

Track 5

Filename C:EAC5 - Chic - Chip Off The Old Block.wav

Pre-gap length 0:00:01.00

Peak level 100.0 %
Extraction speed 4.7 X
Track quality 100.0 %
Test CRC 8329D4A2
Copy CRC 8329D4A2
Track not present in AccurateRip database
Copy OK

Track 6

Filename C:EAC6 - Diana Ross - Upside Down (Original Chic Mix).wav

Pre-gap length 0:00:01.00

Peak level 80.2 %
Extraction speed 4.9 X
Track quality 100.0 %
Test CRC 3097D6B1
Copy CRC 3097D6B1
Track not present in AccurateRip database
Copy OK

Track 7

Filename C:EAC7 - Diana Ross - I'm Coming Out (Original Chic Mix).wav

Pre-gap length 0:00:01.00

Peak level 84.6 %
Extraction speed 5.3 X
Track quality 100.0 %
Test CRC 2ECF67E6
Copy CRC 2ECF67E6
Track not present in AccurateRip database
Copy OK

Track 8

Filename C:EAC8 - Chic - Stage Fright.wav

Pre-gap length 0:00:01.00

Peak level 88.7 %
Extraction speed 5.3 X
Track quality 100.0 %
Test CRC 7F79CAB1
Copy CRC 7F79CAB1
Track not present in AccurateRip database
Copy OK

Track 9

Filename C:EAC9 - Chic - Burn Hard.wav

Pre-gap length 0:00:01.00

Peak level 84.1 %
Extraction speed 5.6 X
Track quality 100.0 %
Test CRC 7459E061
Copy CRC 7459E061
Track not present in AccurateRip database
Copy OK

Track 10

Filename C:EAC10 - Debbie Harry - Backfired (12'' Version).wav

Pre-gap length 0:00:01.00

Peak level 89.4 %
Extraction speed 6.0 X
Track quality 100.0 %
Test CRC 7950B3EE
Copy CRC 7950B3EE
Track not present in AccurateRip database
Copy OK

Track 11

Filename C:EAC11 - Fonzi Thornton - I Work For A Living (Nile Rodgers Long Version).wav

Pre-gap length 0:00:01.00

Peak level 100.0 %
Extraction speed 6.4 X
Track quality 100.0 %
Test CRC 6A21CBD9
Copy CRC 6A21CBD9
Track not present in AccurateRip database
Copy OK

Track 12

Filename C:EAC12 - Chic - What About Me (Previously Unreleased Outtake).wav

Pre-gap length 0:00:01.00

Peak level 100.0 %
Extraction speed 5.9 X
Track quality 100.0 %
Test CRC 01EB5660
Copy CRC 01EB5660
Track not present in AccurateRip database
Copy OK None of the tracks are present in the AccurateRip database

No errors occurred

End of status report

==== Log checksum FCF845F6F7ED9E7A637FF29A741238A3F717DFFC3EAF7426DFBC77382023092C ====

EAC log CD4
Exact Audio Copy V1.0 beta 1 from 15. November 2010

EAC extraction logfile from 25. July 2011, 20:27

The Chic Organization / Box Set Vol. 1 / "Savoir Faire" CD4

Used drive : hp DVD RW AD-7701H Adapter: 0 ID: 0

Read mode : Secure
Utilize accurate stream : Yes
Defeat audio cache : Yes
Make use of C2 pointers : No

Read offset correction : 48
Overread into Lead-In and Lead-Out : No
Fill up missing offset samples with silence : Yes
Delete leading and trailing silent blocks : No
Null samples used in CRC calculations : Yes
Used interface : Native Win32 interface for Win NT & 2000
Gap handling : Appended to previous track

Used output format : User Defined Encoder
Selected bitrate : 1024 kBit/s
Quality : High
Add ID3 tag : No
Command line compressor : C:Program Files (x86)Exact Audio CopyFlacflac.exe
Additional command line options : -8 -V -T "ARTIST=%a" -T "TITLE=%t" -T "ALBUM=%g" -T "DATE=%y" -T "TRACKNUMBER=%n" -T "GENRE=%m" -T "COMMENT= EAC - FLAC - 8 - bsw" %s TOC of the extracted CD

Track | Start | Length | Start sector | End sector
---------------------------------------------------------
1 | 0:00.00 | 8:10.27 | 0 | 36776
2 | 8:10.27 | 4:20.62 | 36777 | 56338
3 | 12:31.14 | 7:56.71 | 56339 | 92109
4 | 20:28.10 | 6:17.56 | 92110 | 120440
5 | 26:45.66 | 5:13.35 | 120441 | 143950
6 | 31:59.26 | 8:16.09 | 143951 | 181159
7 | 40:15.35 | 4:34.07 | 181160 | 201716
8 | 44:49.42 | 5:55.21 | 201717 | 228362
9 | 50:44.63 | 4:14.66 | 228363 | 247478
10 | 54:59.54 | 4:09.36 | 247479 | 266189
11 | 59:09.15 | 4:52.30 | 266190 | 288119
12 | 64:01.45 | 7:50.37 | 288120 | 323406 Track 1

Filename C:EAC1 - Carly Simon - Why (12'' Mix).wav

Pre-gap length 0:00:02.00

Peak level 79.4 %
Extraction speed 3.4 X
Track quality 100.0 %
Test CRC ECD70CC2
Copy CRC ECD70CC2
Accurately ripped (confidence 5) [25727ED6]
Copy OK

Track 2

Filename C:EAC2 - Teddy Pendergrass - Dream Girl (Previously Unreleased Nile Rodgers Remix).wav

Pre-gap length 0:00:01.00

Peak level 100.0 %
Extraction speed 3.7 X
Track quality 100.0 %
Test CRC 84BCD2D8
Copy CRC 84BCD2D8
Accurately ripped (confidence 5) [4098B3E4]
Copy OK

Track 3

Filename C:EAC3 - Chic - Soup For One (12'' Mix).wav

Pre-gap length 0:00:01.00

Peak level 100.0 %
Extraction speed 4.3 X
Track quality 100.0 %
Test CRC 05BEAA49
Copy CRC 05BEAA49
Accurately ripped (confidence 5) [29D17ADC]
Copy OK

Track 4

Filename C:EAC4 - Fonzi Thornton - I'll Change My Game feat. Chic (Previously Unreleased).wav

Pre-gap length 0:00:01.00

Peak level 100.0 %
Extraction speed 4.6 X
Track quality 100.0 %
Test CRC D85A0FB0
Copy CRC D85A0FB0
Accurately ripped (confidence 5) [9E98DA63]
Copy OK

Track 5

Filename C:EAC5 - Chic - Hangin'.wav

Pre-gap length 0:00:01.00

Peak level 100.0 %
Extraction speed 4.2 X
Track quality 99.9 %
Test CRC EF112A62
Copy CRC EF112A62
Accurately ripped (confidence 5) [6DC8768F]
Copy OK

Track 6

Filename C:EAC6 - Chic - I Feel Your Love Comin' On (Dimitri From Paris Remix).wav

Pre-gap length 0:00:01.00

Peak level 99.9 %
Extraction speed 5.5 X
Track quality 100.0 %
Test CRC D2367F1C
Copy CRC D2367F1C
Accurately ripped (confidence 5) [B3A868F6]
Copy OK

Track 7

Filename C:EAC7 - Chic - You Are Beautiful.wav

Pre-gap length 0:00:01.00

Peak level 100.0 %
Extraction speed 5.5 X
Track quality 100.0 %
Test CRC AE74719C
Copy CRC AE74719C
Accurately ripped (confidence 5) [A3EE1EA6]
Copy OK

Track 8

Filename C:EAC8 - Johnny Mathis - I Want To Fall In Love (Previously Unreleased).wav

Pre-gap length 0:00:01.00

Peak level 100.0 %
Extraction speed 5.8 X
Track quality 100.0 %
Test CRC F56C4BEE
Copy CRC F56C4BEE
Accurately ripped (confidence 5) [EB09FF31]
Copy OK

Track 9

Filename C:EAC9 - Johnny Mathis - It's Alright To Love Me (Previously Unreleased).wav

Pre-gap length 0:00:01.00

Peak level 100.0 %
Extraction speed 5.8 X
Track quality 100.0 %
Test CRC 9334EC47
Copy CRC 9334EC47
Accurately ripped (confidence 5) [BDC55A92]
Copy OK

Track 10

Filename C:EAC10 - Johnny Mathis - Something To Sing About (Previously Unreleased).wav

Pre-gap length 0:00:01.00

Peak level 100.0 %
Extraction speed 6.0 X
Track quality 100.0 %
Test CRC CB51B2BC
Copy CRC CB51B2BC
Accurately ripped (confidence 5) [84CC64D9]
Copy OK

Track 11

Filename C:EAC11 - Chic - Just Call Me (Previously Unreleased).wav

Pre-gap length 0:00:01.00

Peak level 100.0 %
Extraction speed 6.3 X
Track quality 100.0 %
Test CRC 1BACB47E
Copy CRC 1BACB47E
Accurately ripped (confidence 5) [7A56FBBC]
Copy OK

Track 12

Filename C:EAC12 - Chic - Will You Cry ( (Previously Unreleased Outtake).wav

Pre-gap length 0:00:01.00

Peak level 99.4 %
Extraction speed 6.9 X
Track quality 100.0 %
Test CRC 4A199FA7
Copy CRC 4A199FA7
Accurately ripped (confidence 5) [63BFC03D]
Copy OK All tracks accurately ripped

No errors occurred

End of status report

==== Log checksum 9CF5A4541C881DFD888FDCC8B59AF28DC077D93D1CDEF77573D16BB450EC5BAC ====





All thanks goes to the original releaser!




Chic Risqu | The Chic Dj | Chic Risqu | Book Of Chic | Aubrey In Hippie Chic | Chic Le Freak | Chic Discography 320 | Chic The Studio | Oni Chic Chi | Best Of Chic
Free Full Download Chic - Nile Rodgers Presents: The Chic form MediaFire link RapidShare, ifile.it, Uploaded.to, Zippyshare, FileSonic, turbobit, ul.to, ORON, DepositFiles,rapidgator.net, extabit.com, filefactory.com. Chic - Nile Rodgers Presents: The Chic Torrent Download with keygen, crack, serial, cdkey,password,1080P,hd, 2015, 2016
Dear visitor, you went to the site as unregistered user.
We encourage you to register .

Add comment

Name:*
E-Mail:*
Comment:
  • bowtiesmilelaughingblushsmileyrelaxedsmirk
    heart_eyeskissing_heartkissing_closed_eyesflushedrelievedsatisfiedgrin
    winkstuck_out_tongue_winking_eyestuck_out_tongue_closed_eyesgrinningkissingstuck_out_tonguesleeping
    worriedfrowninganguishedopen_mouthgrimacingconfusedhushed
    expressionlessunamusedsweat_smilesweatdisappointed_relievedwearypensive
    disappointedconfoundedfearfulcold_sweatperseverecrysob
    joyastonishedscreamtired_faceangryragetriumph
    sleepyyummasksunglassesdizzy_faceimpsmiling_imp
    neutral_faceno_mouthinnocent
Enter the two words shown in the image:

Sitemap We don't Store Any File In Server. The Search and free download links all published by our users.if You Have Any Doubts About Legality Of Content, plz contact us.
  • count 88x31px