VA - The Tarantino Experience: The Ultimate Tribute To Quentin Tarantino (2013) 6CD Box Set - Deluxe Limited Edition

peter Category: music

VA - The Tarantino Experience: The Ultimate Tribute To Quentin Tarantino (2013)
6CD | EAC Rip | FLAC (Img) + Cue + Log ~ 1,35 Gb | MP3 CBR320 ~ 546 Mb
Covers Included (JPG, 300 dpi) | RAR 5% Recovery
Rock, R&B, Pop, Blues, Folk, World, Country, Surf, Rock&Roll, Mambo, Latin | Music Brokers #MBB7153

Misic from and inspired by his films - 3 double-CDs in a deluxe limited edition boxset. Each of the double CDs was released earlier and has own catalog number.


***************


VA - The Tarantino Experience (2008)
2CD | EAC Rip | FLAC (Img) + Cue + Log ~ 507 Mb | MP3 CBR320 ~ 187 Mb
Music Brokers #MBB7035

The Tarantino Experience is a double album comprised of 24 tracks, a vibrant and magical collection from start to finish. Full of the unique sounds that are so much a part of the films of this celebrated director. The Tarantino Experience includes gems such as Bang Bang by Nancy Sinatra (Kill Bill) to Girl, You'll Be A Woman Soon by Urge Overkill and Misirlou by Dick Dale and the Del-Tones (both from Pulp Fiction). Midnight Confessions by The Grass Roots also appears, which was used in the film Jackie Brown. The Tarantino Experience is an album full of the sounds of cine noir, an album that will conjure visual images with each listening!
~ Amazon


Track List CD1:

01. Nancy Sinatra - Bang Bang (My Baby Shot Me Down) [02:42]
02. Urge Overkill - Girl You'll Be a Woman Soon [03:12]
03. Ladybug Transistor - Always on the Telephone [03:55]
04. The Hurricanes - Out of Limits [02:06]
05. Geater Davies - Sad Shades of Blue [04:14]
06. Joe Cocker - Woman to Woman [04:26]
07. Scremin' Jay Wawkins - I Put a Spell on You [02:26]
08. The Surf Coronados - Pipeline [02:13]
09. Billie Jo Spears - Fever [02:55]
10. Chris Farlowe - Paint it Black [03:29]
11. Sreamin' Lord Such - Murder in the Graveyard [02:57]
12. Duane Eddy - Rebel Rouser [02:17]

EAC Log
Exact Audio Copy V1.0 beta 3 from 29. August 2011

EAC extraction logfile from 20. May 2015, 6:07

Various Artists / Tarantino Experience CD1

Used drive : PLEXTOR BD-R PX-B940SA Adapter: 5 ID: 0

Read mode : Secure
Utilize accurate stream : Yes
Defeat audio cache : Yes
Make use of C2 pointers : No

Read offset correction : 667
Overread into Lead-In and Lead-Out : No
Fill up missing offset samples with silence : Yes
Delete leading and trailing silent blocks : No
Null samples used in CRC calculations : Yes
Used interface : Installed external ASPI interface

Used output format : User Defined Encoder
Selected bitrate : 128 kBit/s
Quality : High
Add ID3 tag : Yes
Command line compressor : G:Program Files (x86)Exact Audio CopyFlacflac.exe
Additional command line options : -V -8 -T "Date=%year%" -T "Genre=%genre%" %source% TOC of the extracted CD

Track | Start | Length | Start sector | End sector
---------------------------------------------------------
1 | 0:00.00 | 2:41.02 | 0 | 12076
2 | 2:41.02 | 3:11.06 | 12077 | 26407
3 | 5:52.08 | 3:54.51 | 26408 | 44008
4 | 9:46.59 | 2:05.55 | 44009 | 53438
5 | 11:52.39 | 4:13.06 | 53439 | 72419
6 | 16:05.45 | 4:25.42 | 72420 | 92336
7 | 20:31.12 | 2:25.27 | 92337 | 103238
8 | 22:56.39 | 2:12.11 | 103239 | 113149
9 | 25:08.50 | 2:54.67 | 113150 | 126266
10 | 28:03.42 | 3:28.56 | 126267 | 141922
11 | 31:32.23 | 2:56.35 | 141923 | 155157
12 | 34:28.58 | 2:16.08 | 155158 | 165365 Range status and errors

Selected range

Filename D:MUSICVarious Artists - Tarantino Experience CD1.wav

Peak level 100.0 %
Extraction speed 4.1 X
Range quality 100.0 %
Test CRC BA0F2DB6
Copy CRC BA0F2DB6
Copy OK

No errors occurred


AccurateRip summary

Track 1 accurately ripped (confidence 15) [DADEDB58] (AR v2)
Track 2 accurately ripped (confidence 14) [DFC8D247] (AR v2)
Track 3 accurately ripped (confidence 14) [DB56D76A] (AR v2)
Track 4 accurately ripped (confidence 14) [5F4487A9] (AR v2)
Track 5 accurately ripped (confidence 14) [6C7CBE41] (AR v2)
Track 6 accurately ripped (confidence 14) [48858232] (AR v2)
Track 7 accurately ripped (confidence 14) [2DDFB40C] (AR v2)
Track 8 accurately ripped (confidence 14) [6AE2D63F] (AR v2)
Track 9 accurately ripped (confidence 14) [0854C8E8] (AR v2)
Track 10 accurately ripped (confidence 14) [4791A628] (AR v2)
Track 11 accurately ripped (confidence 14) [19EE856A] (AR v2)
Track 12 accurately ripped (confidence 14) [9044071C] (AR v2)

All tracks accurately ripped

End of status report

==== Log checksum 5D891B5E53187D7E2594EF3A2A61B0E11CD6AE5E025C4A11EFD1BF60144C3E90 ====

DR Log
foobar2000 1.2.6 / Dynamic Range Meter 1.1.1
log date: 2015-05-23 11:59:22

--------------------------------------------------------------------------------
Analyzed: Billie Jo Spears / Tarantino Experience CD1 (1)
Chris Farlowe / Tarantino Experience CD1 (2)
Duane Eddy / Tarantino Experience CD1 (3)
--------------------------------------------------------------------------------

DR Peak RMS Duration Track
--------------------------------------------------------------------------------
DR8 -0.28 dB -9.02 dB 2:55 09-Fever
DR7 -0.21 dB -8.02 dB 3:29 10-Paint it Black
DR8 -0.28 dB -8.61 dB 2:16 12-Rebel Rouser
--------------------------------------------------------------------------------

Number of tracks: 3
Official DR value: DR7

Samplerate: 44100 Hz
Channels: 2
Bits per sample: 16
Bitrate: 904 kbps
Codec: FLAC
================================================================================

--------------------------------------------------------------------------------
Analyzed: Geater Davies / Tarantino Experience CD1 (1)
Joe Cocker / Tarantino Experience CD1 (2)
--------------------------------------------------------------------------------

DR Peak RMS Duration Track
--------------------------------------------------------------------------------
DR8 -0.19 dB -9.04 dB 4:13 05-Sad Shades of Blue
DR7 0.00 dB -8.15 dB 4:26 06-Woman to Woman
--------------------------------------------------------------------------------

Number of tracks: 2
Official DR value: DR8

Samplerate: 44100 Hz
Channels: 2
Bits per sample: 16
Bitrate: 904 kbps
Codec: FLAC
================================================================================

--------------------------------------------------------------------------------
Statistics for: 03-Always on the Telephone
Number of samples: 10349388
Duration: 3:55
--------------------------------------------------------------------------------

Left Right

Peak Value: 0.00 dB --- -0.12 dB
Avg RMS: -8.45 dB --- -7.45 dB
DR channel: 7.58 dB --- 6.47 dB
--------------------------------------------------------------------------------

Official DR Value: DR7

Samplerate: 44100 Hz
Channels: 2
Bits per sample: 16
Bitrate: 904 kbps
Codec: FLAC
================================================================================
--------------------------------------------------------------------------------
Analyzed: Nancy Sinatra / Tarantino Experience CD1 (1)
Scremin' Jay Wawkins / Tarantino Experience CD1 (2)
Sreamin' Lord Such / Tarantino Experience CD1 (3)
--------------------------------------------------------------------------------

DR Peak RMS Duration Track
--------------------------------------------------------------------------------
DR7 -0.36 dB -10.43 dB 2:41 01-Bang Bang (My Baby Shot Me Down)
DR7 0.00 dB -9.31 dB 2:25 07-I Put a Spell on You
DR8 -0.15 dB -8.98 dB 2:56 11-Murder in the Graveyard
--------------------------------------------------------------------------------

Number of tracks: 3
Official DR value: DR7

Samplerate: 44100 Hz
Channels: 2
Bits per sample: 16
Bitrate: 904 kbps
Codec: FLAC
================================================================================

--------------------------------------------------------------------------------
Analyzed: The Hurricanes / Tarantino Experience CD1 (1)
The Surf Coronados / Tarantino Experience CD1 (2)
--------------------------------------------------------------------------------

DR Peak RMS Duration Track
--------------------------------------------------------------------------------
DR7 0.00 dB -8.44 dB 2:06 04-Out of Limits
DR8 0.00 dB -8.36 dB 2:12 08-Pipeline
--------------------------------------------------------------------------------

Number of tracks: 2
Official DR value: DR7

Samplerate: 44100 Hz
Channels: 2
Bits per sample: 16
Bitrate: 904 kbps
Codec: FLAC
================================================================================

--------------------------------------------------------------------------------
Statistics for: 02-Girl You'll Be a Woman Soon
Number of samples: 8426628
Duration: 3:11
--------------------------------------------------------------------------------

Left Right

Peak Value: -0.23 dB --- -0.20 dB
Avg RMS: -10.29 dB --- -9.50 dB
DR channel: 8.78 dB --- 7.78 dB
--------------------------------------------------------------------------------

Official DR Value: DR8

Samplerate: 44100 Hz
Channels: 2
Bits per sample: 16
Bitrate: 904 kbps
Codec: FLAC
================================================================================

CUETools Log
[CUETools log; Date: 23.05.2015 11:58:24; Version: 2.1.5]
[CTDB TOCID: bQj19oIcWR.t9S3Xs.AZN.8g844-] found.
Track | CTDB Status
1 | (56/59) Accurately ripped
2 | (57/59) Accurately ripped
3 | (58/59) Accurately ripped
4 | (58/59) Accurately ripped
5 | (58/59) Accurately ripped
6 | (58/59) Accurately ripped
7 | (58/59) Accurately ripped
8 | (58/59) Accurately ripped
9 | (58/59) Accurately ripped
10 | (58/59) Accurately ripped
11 | (58/59) Accurately ripped
12 | (58/59) Accurately ripped
[AccurateRip ID: 0010df81-009d469c-a5089c0c] found.
Track [ CRC | V2 ] Status
01 [1e74a59b|dadedb58] (00+15/47) Accurately ripped
02 [bf5ac128|dfc8d247] (00+14/46) Accurately ripped
03 [e974b334|db56d76a] (00+14/54) Accurately ripped
04 [b02a219e|5f4487a9] (00+14/56) Accurately ripped
05 [4e8b84f5|6c7cbe41] (00+14/58) Accurately ripped
06 [be2d0bfc|48858232] (00+14/58) Accurately ripped
07 [abc66026|2ddfb40c] (00+14/58) Accurately ripped
08 [1549ecd9|6ae2d63f] (00+14/58) Accurately ripped
09 [625c66af|0854c8e8] (00+14/59) Accurately ripped
10 [9f3c57bf|4791a628] (00+14/59) Accurately ripped
11 [cb865a1b|19ee856a] (00+14/59) Accurately ripped
12 [7d30cb93|9044071c] (00+14/59) Accurately ripped
Offsetted by 757:
01 [3d762892] (04/47) Accurately ripped
02 [4a6fb65d] (04/46) Accurately ripped
03 [c31574f7] (10/54) Accurately ripped
04 [4ae6c351] (11/56) Accurately ripped
05 [c0efed71] (13/58) Accurately ripped
06 [059496b8] (12/58) Accurately ripped
07 [e0685d95] (12/58) Accurately ripped
08 [836c8556] (12/58) Accurately ripped
09 [873268b8] (13/59) Accurately ripped
10 [c6e5a08c] (13/59) Accurately ripped
11 [b28509c7] (13/59) Accurately ripped
12 [4287c9d4] (13/59) Accurately ripped
Offsetted by 1331:
01 [632ce7dc] (10/47) Accurately ripped
02 [8afa061b] (10/46) Accurately ripped
03 [30a3fb09] (10/54) Accurately ripped
04 [49dea103] (10/56) Accurately ripped
05 [e3422659] (10/58) Accurately ripped
06 [c8be3d20] (10/58) Accurately ripped
07 [c1a347af] (10/58) Accurately ripped
08 [47e2bcc4] (10/58) Accurately ripped
09 [97a1476e] (10/59) Accurately ripped
10 [41a181da] (10/59) Accurately ripped
11 [af7425cf] (10/59) Accurately ripped
12 [9f033dda] (10/59) Accurately ripped

Track Peak [ CRC32 ] [W/O NULL] [ LOG ]
-- 100,0 [BA0F2DB6] [915B0D3F] CRC32
01 95,9 [CB3F1B86] [F0206E65]
02 97,7 [9AA2E07E] [F008507B]
03 100,0 [CDA91B11] [BE401C08]
04 100,0 [294BE55F] [E10D54FB]
05 97,8 [54170997] [08428FA1]
06 100,0 [F4023C44] [54168C12]
07 100,0 [82DC5190] [D5DF8BFD]
08 100,0 [5925362E] [B6F129FB]
09 96,8 [6B85EA44] [EFD6EC52]
10 97,6 [447D752A] [677817B5]
11 98,3 [1037DDA2] [4C60FBCE]
12 96,8 [2A8848E2] [92B2E064]

Track List CD2:

01. Dick Dale & The Del-Tones - Misirlou [02:16]
02. Fendermen - Ghost Riders In The Sky [04:40]
03. Dennis Yost & Classic IV - Spooky [02:49]
04. The Meters - Look-Ka-Py-Py [03:13]
05. Wilson Pickett - Something You Got [02:55]
06. 1910 Fruitgum Co. - Indian Giver [02:36]
07. Lobo - Me And You And A Dog Named Boo [03:07]
08. The Grass Roots - Midnight Confessions [02:48]
09. John Fred & His Playboy Band - Judy In Disguise [02:54]
10. Nino Tempo & April Stevens - Deep Purple [02:44]
11. Richard Twang & His Cadillacs - Apache [02:49]
12. Johnny Cash - I Walk The Line [02:42]

EAC Log
Exact Audio Copy V1.0 beta 3 from 29. August 2011

EAC extraction logfile from 19. May 2015, 21:13

Various Artists / Tarantino Experience CD2

Used drive : PLEXTOR BD-R PX-B940SA Adapter: 5 ID: 0

Read mode : Secure
Utilize accurate stream : Yes
Defeat audio cache : Yes
Make use of C2 pointers : No

Read offset correction : 667
Overread into Lead-In and Lead-Out : No
Fill up missing offset samples with silence : Yes
Delete leading and trailing silent blocks : No
Null samples used in CRC calculations : Yes
Used interface : Installed external ASPI interface

Used output format : User Defined Encoder
Selected bitrate : 128 kBit/s
Quality : High
Add ID3 tag : Yes
Command line compressor : G:Program Files (x86)Exact Audio CopyFlacflac.exe
Additional command line options : -V -8 -T "Date=%year%" -T "Genre=%genre%" %source% TOC of the extracted CD

Track | Start | Length | Start sector | End sector
---------------------------------------------------------
1 | 0:00.00 | 2:15.39 | 0 | 10163
2 | 2:15.39 | 4:39.45 | 10164 | 31133
3 | 6:55.09 | 2:48.06 | 31134 | 43739
4 | 9:43.15 | 3:12.66 | 43740 | 58205
5 | 12:56.06 | 2:54.06 | 58206 | 71261
6 | 15:50.12 | 2:35.27 | 71262 | 82913
7 | 18:25.39 | 3:06.38 | 82914 | 96901
8 | 21:32.02 | 2:47.32 | 96902 | 109458
9 | 24:19.34 | 2:53.52 | 109459 | 122485
10 | 27:13.11 | 2:43.30 | 122486 | 134740
11 | 29:56.41 | 2:48.09 | 134741 | 147349
12 | 32:44.50 | 2:41.24 | 147350 | 159448 Range status and errors

Selected range

Filename D:MUSICVarious Artists - Tarantino Experience CD2.wav

Peak level 100.0 %
Extraction speed 1.6 X
Range quality 100.0 %
Test CRC BEC740D6
Copy CRC BEC740D6
Copy OK

No errors occurred


AccurateRip summary

Track 1 accurately ripped (confidence 14) [F7426D4F] (AR v2)
Track 2 accurately ripped (confidence 14) [32981615] (AR v2)
Track 3 accurately ripped (confidence 14) [0B8B879E] (AR v2)
Track 4 accurately ripped (confidence 14) [C1B0B05A] (AR v2)
Track 5 accurately ripped (confidence 14) [16065EAB] (AR v2)
Track 6 accurately ripped (confidence 14) [11E28959] (AR v2)
Track 7 accurately ripped (confidence 14) [E9718F6C] (AR v2)
Track 8 accurately ripped (confidence 14) [861F363C] (AR v2)
Track 9 accurately ripped (confidence 14) [CD9338D7] (AR v2)
Track 10 accurately ripped (confidence 14) [080CF02E] (AR v2)
Track 11 accurately ripped (confidence 14) [8952E4D8] (AR v2)
Track 12 accurately ripped (confidence 14) [BF4A35E5] (AR v2)

All tracks accurately ripped

End of status report

==== Log checksum A98065BFA56A701C39721171D31BD567DAB539898118477ADC74B6C0D1C68330 ====

DR Log
foobar2000 1.2.6 / Dynamic Range Meter 1.1.1
log date: 2015-05-23 11:58:52

--------------------------------------------------------------------------------
Statistics for: 03-Spooky
Number of samples: 7412328
Duration: 2:48
--------------------------------------------------------------------------------

Left Right

Peak Value: -0.35 dB --- -0.30 dB
Avg RMS: -9.35 dB --- -6.91 dB
DR channel: 8.00 dB --- 5.73 dB
--------------------------------------------------------------------------------

Official DR Value: DR7

Samplerate: 44100 Hz
Channels: 2
Bits per sample: 16
Bitrate: 917 kbps
Codec: FLAC
================================================================================
--------------------------------------------------------------------------------
Analyzed: Dick Dale & The Del-Tones / Tarantino Experience CD2 (1)
Fendermen / Tarantino Experience CD2 (2)
John Fred & His Playboy Band / Tarantino Experience CD2 (3)
Johnny Cash / Tarantino Experience CD2 (4)
--------------------------------------------------------------------------------

DR Peak RMS Duration Track
--------------------------------------------------------------------------------
DR7 -0.30 dB -8.04 dB 2:16 01-Misirlou
DR8 0.00 dB -9.08 dB 4:40 02-Ghost Riders In The Sky
DR8 -0.26 dB -8.88 dB 2:54 09-Judy In Disguise
DR8 -0.26 dB -9.96 dB 2:41 12-I Walk The Line
--------------------------------------------------------------------------------

Number of tracks: 4
Official DR value: DR8

Samplerate: 44100 Hz
Channels: 2
Bits per sample: 16
Bitrate: 917 kbps
Codec: FLAC
================================================================================

--------------------------------------------------------------------------------
Analyzed: Lobo / Tarantino Experience CD2 (1)
Nino Tempo & April Stevens / Tarantino Experience CD2 (2)
Richard Twang & His Cadillacs / Tarantino Experience CD2 (3)
--------------------------------------------------------------------------------

DR Peak RMS Duration Track
--------------------------------------------------------------------------------
DR8 -0.02 dB -9.26 dB 3:07 07-Me And You And A Dog Named Boo
DR8 -0.32 dB -9.37 dB 2:43 10-Deep Purple
DR8 0.00 dB -8.43 dB 2:48 11-Apache
--------------------------------------------------------------------------------

Number of tracks: 3
Official DR value: DR8

Samplerate: 44100 Hz
Channels: 2
Bits per sample: 16
Bitrate: 917 kbps
Codec: FLAC
================================================================================

--------------------------------------------------------------------------------
Statistics for: 08-Midnight Confessions
Number of samples: 7383516
Duration: 2:47
--------------------------------------------------------------------------------

Left Right

Peak Value: -0.30 dB --- -0.32 dB
Avg RMS: -9.09 dB --- -8.87 dB
DR channel: 7.60 dB --- 7.41 dB
--------------------------------------------------------------------------------

Official DR Value: DR8

Samplerate: 44100 Hz
Channels: 2
Bits per sample: 16
Bitrate: 917 kbps
Codec: FLAC
================================================================================
--------------------------------------------------------------------------------
Analyzed: The Meters / Tarantino Experience CD2 (1)
Wilson Pickett / Tarantino Experience CD2 (2)
--------------------------------------------------------------------------------

DR Peak RMS Duration Track
--------------------------------------------------------------------------------
DR8 0.00 dB -10.33 dB 3:13 04-Look-Ka-Py-Py
DR7 -0.23 dB -8.93 dB 2:54 05-Something You Got
--------------------------------------------------------------------------------

Number of tracks: 2
Official DR value: DR8

Samplerate: 44100 Hz
Channels: 2
Bits per sample: 16
Bitrate: 917 kbps
Codec: FLAC
================================================================================
foobar2000 1.2.6 / Dynamic Range Meter 1.1.1
log date: 2015-05-23 11:58:51

--------------------------------------------------------------------------------
Statistics for: 06-Indian Giver
Number of samples: 6851376
Duration: 2:35
--------------------------------------------------------------------------------

Left Right

Peak Value: -0.36 dB --- -0.36 dB
Avg RMS: -9.13 dB --- -8.62 dB
DR channel: 7.86 dB --- 6.55 dB
--------------------------------------------------------------------------------

Official DR Value: DR7

Samplerate: 44100 Hz
Channels: 2
Bits per sample: 16
Bitrate: 917 kbps
Codec: FLAC
================================================================================

CUETools Log
[CUETools log; Date: 23.05.2015 11:58:53; Version: 2.1.5]
[CTDB TOCID: 4Yd3KiTcckMZ6yYaJqWkxahc44Y-] found.
Track | CTDB Status
1 | (50/55) Accurately ripped
2 | (52/55) Accurately ripped
3 | (55/55) Accurately ripped
4 | (55/55) Accurately ripped
5 | (55/55) Accurately ripped
6 | (55/55) Accurately ripped
7 | (54/55) Accurately ripped
8 | (54/55) Accurately ripped
9 | (54/55) Accurately ripped
10 | (54/55) Accurately ripped
11 | (55/55) Accurately ripped
12 | (55/55) Accurately ripped
[AccurateRip ID: 00104b1f-00970096-b4084d0c] found.
Track [ CRC | V2 ] Status
01 [e4d3f834|f7426d4f] (00+14/50) Accurately ripped
02 [8a9cdb60|32981615] (00+14/51) Accurately ripped
03 [16f6a79a|0b8b879e] (00+14/56) Accurately ripped
04 [9d197c67|c1b0b05a] (00+14/56) Accurately ripped
05 [2197be86|16065eab] (00+14/55) Accurately ripped
06 [523fda63|11e28959] (00+14/55) Accurately ripped
07 [c07956cf|e9718f6c] (00+14/54) Accurately ripped
08 [2c36d923|861f363c] (00+14/55) Accurately ripped
09 [00856739|cd9338d7] (00+14/55) Accurately ripped
10 [b5431644|080cf02e] (00+14/56) Accurately ripped
11 [f8c15db5|8952e4d8] (00+14/57) Accurately ripped
12 [635b80de|bf4a35e5] (00+14/56) Accurately ripped
Offsetted by 757:
01 [8a77a269] (13/50) Accurately ripped
02 [4b033768] (16/51) Accurately ripped
03 [88c1cb74] (20/56) Accurately ripped
04 [f3685ad5] (20/56) Accurately ripped
05 [0dca3773] (19/55) Accurately ripped
06 [b9594d04] (19/55) Accurately ripped
07 [e1bd18fb] (18/54) Accurately ripped
08 [126b818b] (19/55) Accurately ripped
09 [be5e1ec9] (19/55) Accurately ripped
10 [2261e107] (19/56) Accurately ripped
11 [03c76679] (20/57) Accurately ripped
12 [950a53ff] (19/56) Accurately ripped
Offsetted by 1331:
01 [60aab027] (02/50) Accurately ripped
02 [a4165398] (02/51) Accurately ripped
03 [21a99b90] (02/56) Accurately ripped
04 [c7482c69] (02/56) Accurately ripped
05 [5ed10981] (02/55) Accurately ripped
06 [76c8eb4a] (02/55) Accurately ripped
07 [0bdee403] (02/54) Accurately ripped
08 [bff5d7fb] (02/55) Accurately ripped
09 [515d1429] (02/55) Accurately ripped
10 [b5b71d19] (03/56) Accurately ripped
11 [28e1f511] (03/57) Accurately ripped
12 [a1597545] (03/56) Accurately ripped

Track Peak [ CRC32 ] [W/O NULL] [ LOG ]
-- 100,0 [BEC740D6] [4714FD38] CRC32
01 96,6 [BD1D87D6] [2D563DA4]
02 100,0 [A1FBB8BC] [732AB1FA]
03 96,6 [96028D41] [1233AD2E]
04 100,0 [5DF3AEC5] [BDC46210]
05 97,3 [F5577FD3] [14111E86]
06 95,9 [2100CBC8] [4DE14C99]
07 99,7 [4A9C864B] [F135CB30]
08 96,6 [17516365] [5C3BB399]
09 97,0 [E85E2E4C] [DC4FC6BB]
10 96,3 [6E46E155] [27379A58]
11 100,0 [84A690DD] [D0DC325F]
12 97,0 [8AD4CBC7] [634BD49F]

***************


VA - The Tarantino Experience Take II (2009)
2CD | EAC Rip | FLAC (Img) + Cue + Log ~ 409 Mb | MP3 CBR320 ~ 170 Mb
Music Brokers #MBB7056

After the spectacular success of the first volume, Tarantino Experience Take II is the follow-up double album of 24 tracks that represents the unique sound of this talented director's best work. Tarantino Experience Take II includes gems such as Jeepster by T Rex (from the movie Death Proof),That Certain Female by Charlie Feathers, Don't Let Me Be Misunderstood by Santa Esmeralda and Twisted Nerve (from Kill Bill 1), Let's Stay Together by Al Green (from Pulp Fiction) and Sweet Jane by Cowboy Junkies (from Natural Born Killers). Tarantino Experience Take II is a fascinating album, as was the first volume, and contains the very best of the music so often associated with cine noir.
~ Amazon


Track List CD1:

01. Bernard Herrmann - Intro (Twisted Nerve) [00:17]
02. Al Green - Let's Stay Together [03:13]
03. Clarence Carter - Backstabbers [02:41]
04. Charlie Feathers - That Certain Female [03:01]
05. Johnny Cash - Born To Lose [02:12]
06. Connie Francis - Stupid Cupid [02:12]
07. The Surfaris - Wipe Out [02:13]
08. She & Him - I Should Have Known Better [03:38]
09. The Kingsmen - Louie Louie [02:41]
10. Dave Berry - Little Things [02:25]
11. Billie Davis - I Want You To Be My Baby [02:42]
12. John Lee Hooker - Boom Boom [02:40]

EAC Log
Exact Audio Copy V1.0 beta 3 from 29. August 2011

EAC extraction logfile from 20. May 2015, 6:29

Various Artists / Tarantino Experience Take II CD1

Used drive : PLEXTOR BD-R PX-B940SA Adapter: 5 ID: 0

Read mode : Secure
Utilize accurate stream : Yes
Defeat audio cache : Yes
Make use of C2 pointers : No

Read offset correction : 667
Overread into Lead-In and Lead-Out : No
Fill up missing offset samples with silence : Yes
Delete leading and trailing silent blocks : No
Null samples used in CRC calculations : Yes
Used interface : Installed external ASPI interface

Used output format : User Defined Encoder
Selected bitrate : 128 kBit/s
Quality : High
Add ID3 tag : Yes
Command line compressor : G:Program Files (x86)Exact Audio CopyFlacflac.exe
Additional command line options : -V -8 -T "Date=%year%" -T "Genre=%genre%" %source% TOC of the extracted CD

Track | Start | Length | Start sector | End sector
---------------------------------------------------------
1 | 0:00.00 | 0:16.23 | 0 | 1222
2 | 0:16.23 | 3:12.66 | 1223 | 15688
3 | 3:29.14 | 2:40.39 | 15689 | 27727
4 | 6:09.53 | 3:00.61 | 27728 | 41288
5 | 9:10.39 | 2:11.03 | 41289 | 51116
6 | 11:21.42 | 2:11.20 | 51117 | 60961
7 | 13:32.62 | 2:13.00 | 60962 | 70936
8 | 15:45.62 | 3:37.19 | 70937 | 87230
9 | 19:23.06 | 2:40.64 | 87231 | 99294
10 | 22:03.70 | 2:24.10 | 99295 | 110104
11 | 24:28.05 | 2:41.05 | 110105 | 122184
12 | 27:09.10 | 2:39.47 | 122185 | 134156 Range status and errors

Selected range

Filename D:MUSICVarious Artists - Tarantino Experience Take II CD1.wav

Peak level 94.4 %
Extraction speed 3.9 X
Range quality 100.0 %
Test CRC D8E38521
Copy CRC D8E38521
Copy OK

No errors occurred


AccurateRip summary

Track 1 accurately ripped (confidence 6) [0FF5E608] (AR v2)
Track 2 accurately ripped (confidence 6) [94CA6918] (AR v2)
Track 3 accurately ripped (confidence 6) [D5A511FC] (AR v2)
Track 4 accurately ripped (confidence 6) [DE092015] (AR v2)
Track 5 accurately ripped (confidence 6) [38C5E8E0] (AR v2)
Track 6 accurately ripped (confidence 7) [AC4AAD49] (AR v2)
Track 7 accurately ripped (confidence 6) [57A6039F] (AR v2)
Track 8 accurately ripped (confidence 6) [705881D1] (AR v2)
Track 9 accurately ripped (confidence 6) [3DC0DE5B] (AR v2)
Track 10 accurately ripped (confidence 6) [633B4F75] (AR v2)
Track 11 accurately ripped (confidence 6) [F6853298] (AR v2)
Track 12 accurately ripped (confidence 6) [153DAB15] (AR v2)

All tracks accurately ripped

End of status report

==== Log checksum 3AB5279A292FB7C518E07FB7CA5C066B76C11CA257944CC85948EE0610F074D4 ====

DR Log
foobar2000 1.2.6 / Dynamic Range Meter 1.1.1
log date: 2015-05-23 11:59:51

--------------------------------------------------------------------------------
Analyzed: Bernard Herrmann / Tarantino Experience Take II CD1 (1)
Billie Davis / Tarantino Experience Take II CD1 (2)
--------------------------------------------------------------------------------

DR Peak RMS Duration Track
--------------------------------------------------------------------------------
DR9 -3.69 dB -15.98 dB 0:16 01-Intro (Twisted Nerve)
DR9 -0.50 dB -12.21 dB 2:41 11-I Want You To Be My Baby
--------------------------------------------------------------------------------

Number of tracks: 2
Official DR value: DR9

Samplerate: 44100 Hz
Channels: 2
Bits per sample: 16
Bitrate: 769 kbps
Codec: FLAC
================================================================================

--------------------------------------------------------------------------------
Statistics for: 04-That Certain Female
Number of samples: 7973868
Duration: 3:01
--------------------------------------------------------------------------------

Left Right

Peak Value: -3.09 dB --- -3.09 dB
Avg RMS: -11.57 dB --- -11.57 dB
DR channel: 6.03 dB --- 6.03 dB
--------------------------------------------------------------------------------

Official DR Value: DR6

Samplerate: 44100 Hz
Channels: 2
Bits per sample: 16
Bitrate: 769 kbps
Codec: FLAC
================================================================================
--------------------------------------------------------------------------------
Analyzed: Clarence Carter / Tarantino Experience Take II CD1 (1)
Connie Francis / Tarantino Experience Take II CD1 (2)
Dave Berry / Tarantino Experience Take II CD1 (3)
John Lee Hooker / Tarantino Experience Take II CD1 (4)
--------------------------------------------------------------------------------

DR Peak RMS Duration Track
--------------------------------------------------------------------------------
DR7 -1.60 dB -8.92 dB 2:41 03-Backstabbers
DR9 -0.82 dB -11.11 dB 2:11 06-Stupid Cupid
DR8 -0.71 dB -10.40 dB 2:24 10-Little Things
DR9 -2.50 dB -13.63 dB 2:40 12-Boom Boom
--------------------------------------------------------------------------------

Number of tracks: 4
Official DR value: DR8

Samplerate: 44100 Hz
Channels: 2
Bits per sample: 16
Bitrate: 769 kbps
Codec: FLAC
================================================================================

--------------------------------------------------------------------------------
Analyzed: Johnny Cash / Tarantino Experience Take II CD1 (1)
She & Him / Tarantino Experience Take II CD1 (2)
The Kingsmen / Tarantino Experience Take II CD1 (3)
--------------------------------------------------------------------------------

DR Peak RMS Duration Track
--------------------------------------------------------------------------------
DR8 -0.52 dB -9.97 dB 2:11 05-Born To Lose
DR10 -1.10 dB -13.14 dB 3:37 08-I Should Have Known Better
DR8 -1.00 dB -11.05 dB 2:41 09-Louie Louie
--------------------------------------------------------------------------------

Number of tracks: 3
Official DR value: DR9

Samplerate: 44100 Hz
Channels: 2
Bits per sample: 16
Bitrate: 769 kbps
Codec: FLAC
================================================================================

--------------------------------------------------------------------------------
Statistics for: 07-Wipe Out
Number of samples: 5865300
Duration: 2:13
--------------------------------------------------------------------------------

Left Right

Peak Value: -0.50 dB --- -0.55 dB
Avg RMS: -11.59 dB --- -11.70 dB
DR channel: 9.78 dB --- 9.96 dB
--------------------------------------------------------------------------------

Official DR Value: DR10

Samplerate: 44100 Hz
Channels: 2
Bits per sample: 16
Bitrate: 769 kbps
Codec: FLAC
================================================================================
foobar2000 1.2.6 / Dynamic Range Meter 1.1.1
log date: 2015-05-23 11:59:50

--------------------------------------------------------------------------------
Statistics for: 02-Let's Stay Together
Number of samples: 8506008
Duration: 3:13
--------------------------------------------------------------------------------

Left Right

Peak Value: -1.25 dB --- -1.23 dB
Avg RMS: -9.66 dB --- -11.09 dB
DR channel: 6.83 dB --- 8.20 dB
--------------------------------------------------------------------------------

Official DR Value: DR8

Samplerate: 44100 Hz
Channels: 2
Bits per sample: 16
Bitrate: 769 kbps
Codec: FLAC
================================================================================

CUETools Log
[CUETools log; Date: 23.05.2015 11:59:53; Version: 2.1.5]
[CTDB TOCID: Lh.tspc3traPFG3owRz89wN5orw-] found.
Track | CTDB Status
1 | (40/43) Accurately ripped
2 | (14/43) Accurately ripped, or (28/43) differs in 25 samples @00:00:01
3 | (42/43) Accurately ripped
4 | (41/43) Accurately ripped
5 | (40/43) Accurately ripped
6 | (42/43) Accurately ripped
7 | (40/43) Accurately ripped
8 | (12/43) Accurately ripped, or (28/43) differs in 19 samples @00:00:01
9 | (14/43) Accurately ripped, or (28/43) differs in 20 samples @00:00:01
10 | (40/43) Accurately ripped
11 | (12/43) Accurately ripped, or (28/43) differs in 10 samples @00:00:01
12 | (14/43) Accurately ripped, or (28/43) differs in 27 samples @00:00:01
[AccurateRip ID: 000c8a9e-00780b70-8706fc0c] found.
Track [ CRC | V2 ] Status
01 [f24e7519|0ff5e608] (00+06/28) Accurately ripped
02 [fd5a651b|94ca6918] (00+06/27) Accurately ripped
03 [6f88462b|d5a511fc] (00+06/28) Accurately ripped
04 [8e797eac|de092015] (00+06/28) Accurately ripped
05 [39c365da|38c5e8e0] (00+06/28) Accurately ripped
06 [e2fc19fb|ac4aad49] (00+07/28) Accurately ripped
07 [96b9c3d7|57a6039f] (00+06/28) Accurately ripped
08 [3b1bc35a|705881d1] (00+06/27) Accurately ripped
09 [998c19ca|3dc0de5b] (00+06/27) Accurately ripped
10 [cf510bf1|633b4f75] (00+06/28) Accurately ripped
11 [f7dec7da|f6853298] (00+06/28) Accurately ripped
12 [e6ab025f|153dab15] (00+06/28) Accurately ripped
Offsetted by 667:
01 [551d7215] (00/28) No match (V2 was not tested)
02 [cf2ea6c7] (00/27) No match (V2 was not tested)
03 [32e8f57d] (00/28) No match (V2 was not tested)
04 [44d87985] (00/28) No match (V2 was not tested)
05 [c0ec5106] (00/28) No match (V2 was not tested)
06 [a8f91d68] (00/28) No match (V2 was not tested)
07 [25e6577f] (00/28) No match (V2 was not tested)
08 [a74bae91] (00/27) No match (V2 was not tested)
09 [89807bb9] (00/27) No match (V2 was not tested)
10 [4f74ef1a] (00/28) No match (V2 was not tested)
11 [b09cda0d] (00/28) No match (V2 was not tested)
12 [cc167b64] (00/28) No match (V2 was not tested)
Offsetted by 757:
01 [82943154] (00/28) No match (V2 was not tested)
02 [8aff7520] (08/27) Accurately ripped
03 [2e2f3139] (08/28) Accurately ripped
04 [53dbb203] (08/28) Accurately ripped
05 [d13dd4ee] (08/28) Accurately ripped
06 [18203e7e] (08/28) Accurately ripped
07 [430e81f2] (00/28) No match (V2 was not tested)
08 [c6b8e914] (00/27) No match (V2 was not tested)
09 [c15619ef] (07/27) Accurately ripped
10 [8196effd] (00/28) No match (V2 was not tested)
11 [1e69a4ee] (00/28) No match (V2 was not tested)
12 [49d6d5b6] (08/28) Accurately ripped
Offsetted by 1331:
01 [dbe645fa] (00/28) No match (V2 was not tested)
02 [00aea4ec] (02/27) Accurately ripped
03 [dcd85e8d] (02/28) Accurately ripped
04 [2562038d] (02/28) Accurately ripped
05 [1cdf5166] (02/28) Accurately ripped
06 [c096f510] (02/28) Accurately ripped
07 [eb45c957] (00/28) No match (V2 was not tested)
08 [6fd763f5] (00/27) No match (V2 was not tested)
09 [4dbe96cd] (02/27) Accurately ripped
10 [8b5f3a77] (00/28) No match (V2 was not tested)
11 [d6ee25bb] (00/28) No match (V2 was not tested)
12 [8fb41bd1] (02/28) Accurately ripped

Track Peak [ CRC32 ] [W/O NULL] [ LOG ]
-- 94,4 [D8E38521] [7604EA0B] CRC32
01 65,3 [A2F9141C] [71EE4E3D]
02 86,7 [DECA7FA0] [D6BECA75]
03 83,1 [3EC793BB] [07ACB847]
04 70,1 [D6FFD6BB] [05FADAE7]
05 94,1 [5A4B9466] [05542EB5]
06 90,9 [056A1160] [D3F8B1ED]
07 94,3 [A44E2E4B] [8176F1F5]
08 88,1 [CDCE6CA0] [332CAD83]
09 89,1 [DA472226] [126D80DF]
10 92,1 [D4D3FB83] [A18DBB79]
11 94,4 [D726E1DF] [82AA3380]
12 74,9 [180D1710] [AC3F3ED9]

Track List CD2:

01. Golden Gate Quartet - I`m Troubled [02:56]
02. Cowboy Junkies - Sweet Jane [06:36]
03. Duane Eddy - Cannonball [02:14]
04. T. Rex - Jeepster [04:04]
05. The Clovers - Love Potion N. 9 [01:49]
06. Johnny & The Hurricanes - Beatnik Fly [01:42]
07. Dobie Grey - The 'In' Crowd [02:47]
08. Leroy Gomez & Santa Esmeralda - Don.t Let Me Be Misunderstood [03:42]
09. Dolly Parton - Letter To Heaven [02:35]
10. Eddie Hodges - I.m Gonna Knock On Your Door [02:05]
11. Lynn Anderson - Stand By Your Man [02:42]
12. Howlin. Wolf - Somebody In My Home [02:20]

EAC Log
Exact Audio Copy V1.0 beta 3 from 29. August 2011

EAC extraction logfile from 20. May 2015, 6:29

Various Artists / Tarantino Experience Take II CD2

Used drive : PLEXTOR DVDR PX-860A Adapter: 4 ID: 0

Read mode : Secure
Utilize accurate stream : Yes
Defeat audio cache : Yes
Make use of C2 pointers : No

Read offset correction : 96
Overread into Lead-In and Lead-Out : No
Fill up missing offset samples with silence : Yes
Delete leading and trailing silent blocks : No
Null samples used in CRC calculations : Yes
Used interface : Installed external ASPI interface

Used output format : User Defined Encoder
Selected bitrate : 128 kBit/s
Quality : High
Add ID3 tag : Yes
Command line compressor : G:Program Files (x86)Exact Audio CopyFlacflac.exe
Additional command line options : -V -8 -T "Date=%year%" -T "Genre=%genre%" %source% TOC of the extracted CD

Track | Start | Length | Start sector | End sector
---------------------------------------------------------
1 | 0:00.00 | 2:55.49 | 0 | 13173
2 | 2:55.49 | 6:35.34 | 13174 | 42832
3 | 9:31.08 | 2:13.63 | 42833 | 52870
4 | 11:44.71 | 4:03.41 | 52871 | 71136
5 | 15:48.37 | 1:48.18 | 71137 | 79254
6 | 17:36.55 | 1:41.59 | 79255 | 86888
7 | 19:18.39 | 2:46.36 | 86889 | 99374
8 | 22:05.00 | 3:41.39 | 99375 | 115988
9 | 25:46.39 | 2:34.57 | 115989 | 127595
10 | 28:21.21 | 2:04.29 | 127596 | 136924
11 | 30:25.50 | 2:41.46 | 136925 | 149045
12 | 33:07.21 | 2:19.23 | 149046 | 159493 Range status and errors

Selected range

Filename D:MUSICVarious Artists - Tarantino Experience Take II CD2.wav

Peak level 100.0 %
Extraction speed 6.6 X
Range quality 100.0 %
Test CRC C540D715
Copy CRC C540D715
Copy OK

No errors occurred


AccurateRip summary

Track 1 accurately ripped (confidence 6) [6C303897] (AR v2)
Track 2 accurately ripped (confidence 6) [FDDA3E28] (AR v2)
Track 3 accurately ripped (confidence 6) [A657C687] (AR v2)
Track 4 accurately ripped (confidence 7) [67F03CED] (AR v2)
Track 5 accurately ripped (confidence 7) [E664D1F5] (AR v2)
Track 6 accurately ripped (confidence 6) [0535A2B3] (AR v2)
Track 7 accurately ripped (confidence 6) [2D497946] (AR v2)
Track 8 accurately ripped (confidence 7) [00A7D771] (AR v2)
Track 9 accurately ripped (confidence 6) [E02F390C] (AR v2)
Track 10 accurately ripped (confidence 6) [BE9CB343] (AR v2)
Track 11 accurately ripped (confidence 7) [76EFE7E5] (AR v2)
Track 12 accurately ripped (confidence 6) [97192E14] (AR v2)

All tracks accurately ripped

End of status report

==== Log checksum 934E7951FA227D5824045716798B3073857754633F8994F2EBA48CCDF1513C1F ====

DR Log
foobar2000 1.2.6 / Dynamic Range Meter 1.1.1
log date: 2015-05-23 12:00:22

--------------------------------------------------------------------------------
Analyzed: Cowboy Junkies / Tarantino Experience Take II CD2 (1)
Dobie Grey / Tarantino Experience Take II CD2 (2)
Dolly Parton / Tarantino Experience Take II CD2 (3)
--------------------------------------------------------------------------------

DR Peak RMS Duration Track
--------------------------------------------------------------------------------
DR10 -0.09 dB -11.91 dB 6:35 02-Sweet Jane
DR9 0.00 dB -11.23 dB 2:46 07-The 'In' Crowd
DR10 -1.52 dB -13.05 dB 2:35 09-Letter To Heaven
--------------------------------------------------------------------------------

Number of tracks: 3
Official DR value: DR9

Samplerate: 44100 Hz
Channels: 2
Bits per sample: 16
Bitrate: 841 kbps
Codec: FLAC
================================================================================

--------------------------------------------------------------------------------
Analyzed: Duane Eddy / Tarantino Experience Take II CD2 (1)
Eddie Hodges / Tarantino Experience Take II CD2 (2)
--------------------------------------------------------------------------------

DR Peak RMS Duration Track
--------------------------------------------------------------------------------
DR8 -1.40 dB -11.80 dB 2:14 03-Cannonball
DR10 -1.47 dB -13.00 dB 2:04 10-I.m Gonna Knock On Your Door
--------------------------------------------------------------------------------

Number of tracks: 2
Official DR value: DR9

Samplerate: 44100 Hz
Channels: 2
Bits per sample: 16
Bitrate: 841 kbps
Codec: FLAC
================================================================================

--------------------------------------------------------------------------------
Analyzed: Golden Gate Quartet / Tarantino Experience Take II CD2 (1)
Howlin. Wolf / Tarantino Experience Take II CD2 (2)
--------------------------------------------------------------------------------

DR Peak RMS Duration Track
--------------------------------------------------------------------------------
DR9 -0.30 dB -12.00 dB 2:56 01-I`m Troubled
DR7 -0.70 dB -9.56 dB 2:19 12-Somebody In My Home
--------------------------------------------------------------------------------

Number of tracks: 2
Official DR value: DR8

Samplerate: 44100 Hz
Channels: 2
Bits per sample: 16
Bitrate: 841 kbps
Codec: FLAC
================================================================================

--------------------------------------------------------------------------------
Analyzed: Johnny & The Hurricanes / Tarantino Experience Take II CD2 (1)
Leroy Gomez & Santa Esmeralda / Tarantino Experience Take II CD2 (2)
Lynn Anderson / Tarantino Experience Take II CD2 (3)
--------------------------------------------------------------------------------

DR Peak RMS Duration Track
--------------------------------------------------------------------------------
DR9 -0.84 dB -11.73 dB 1:42 06-Beatnik Fly
DR8 -3.77 dB -12.24 dB 3:42 08-Don.t Let Me Be Misunderstood
DR8 -0.72 dB -13.46 dB 2:42 11-Stand By Your Man
--------------------------------------------------------------------------------

Number of tracks: 3
Official DR value: DR8

Samplerate: 44100 Hz
Channels: 2
Bits per sample: 16
Bitrate: 841 kbps
Codec: FLAC
================================================================================

--------------------------------------------------------------------------------
Analyzed: T. Rex / Tarantino Experience Take II CD2 (1)
The Clovers / Tarantino Experience Take II CD2 (2)
--------------------------------------------------------------------------------

DR Peak RMS Duration Track
--------------------------------------------------------------------------------
DR7 -3.07 dB -10.60 dB 4:04 04-Jeepster
DR7 -0.73 dB -9.55 dB 1:48 05-Love Potion N. 9
--------------------------------------------------------------------------------

Number of tracks: 2
Official DR value: DR7

Samplerate: 44100 Hz
Channels: 2
Bits per sample: 16
Bitrate: 841 kbps
Codec: FLAC
================================================================================

CUETools Log
[CUETools log; Date: 23.05.2015 12:00:22; Version: 2.1.5]
[CTDB TOCID: lORJx8TgXxjlxqA9g1fEEyinmmc-] found.
Track | CTDB Status
1 | (12/37) Accurately ripped
2 | (12/37) Accurately ripped
3 | (12/37) Accurately ripped
4 | (12/37) Accurately ripped
5 | (12/37) Accurately ripped
6 | (12/37) Accurately ripped
7 | (12/37) Accurately ripped
8 | (12/37) Accurately ripped
9 | (12/37) Accurately ripped
10 | (12/37) Accurately ripped
11 | (12/37) Accurately ripped
12 | (36/37) Accurately ripped
[AccurateRip ID: 00114ff8-009cfe8c-a8084e0c] found.
Track [ CRC | V2 ] Status
01 [2de28c8f|6c303897] (00+06/25) Accurately ripped
02 [0801b2eb|fdda3e28] (00+06/26) Accurately ripped
03 [3dd8dce1|a657c687] (00+06/25) Accurately ripped
04 [902412a4|67f03ced] (00+07/26) Accurately ripped
05 [b4a472d5|e664d1f5] (00+07/26) Accurately ripped
06 [b2f9a926|0535a2b3] (00+06/25) Accurately ripped
07 [99ea6f6f|2d497946] (00+06/25) Accurately ripped
08 [907f8e92|00a7d771] (00+07/26) Accurately ripped
09 [f23ea5a3|e02f390c] (00+06/25) Accurately ripped
10 [51b0f9c1|be9cb343] (00+06/25) Accurately ripped
11 [316fed3f|76efe7e5] (00+07/28) Accurately ripped
12 [614c5ce3|97192e14] (00+06/27) Accurately ripped
Offsetted by 667:
01 [5a69ad8f] (00/25) No match (V2 was not tested)
02 [95b859b9] (00/26) No match (V2 was not tested)
03 [b144fdc4] (00/25) No match (V2 was not tested)
04 [ad9a108a] (00/26) No match (V2 was not tested)
05 [43aadc3a] (00/26) No match (V2 was not tested)
06 [9aa61acc] (00/25) No match (V2 was not tested)
07 [892510df] (00/25) No match (V2 was not tested)
08 [a1252eb7] (00/26) No match (V2 was not tested)
09 [973d9b32] (00/25) No match (V2 was not tested)
10 [1b2d9854] (00/25) No match (V2 was not tested)
11 [76ec3fd6] (00/28) No match (V2 was not tested)
12 [7d97c0fe] (00/27) No match (V2 was not tested)
Offsetted by 757:
01 [3e431b8f] (00/25) No match (V2 was not tested)
02 [50240ddb] (00/26) No match (V2 was not tested)
03 [f5cebd04] (00/25) No match (V2 was not tested)
04 [a29bc8de] (00/26) No match (V2 was not tested)
05 [844f3da7] (00/26) No match (V2 was not tested)
06 [9ca0b8e9] (00/25) No match (V2 was not tested)
07 [12e7f5e9] (00/25) No match (V2 was not tested)
08 [c6764153] (00/26) No match (V2 was not tested)
09 [a9549a5d] (00/25) No match (V2 was not tested)
10 [054998bd] (00/25) No match (V2 was not tested)
11 [8a471978] (00/28) No match (V2 was not tested)
12 [10e5f8d2] (06/27) Accurately ripped
Offsetted by 1331:
01 [9d13ce34] (00/25) No match (V2 was not tested)
02 [ffa52d16] (00/26) No match (V2 was not tested)
03 [25554933] (00/25) No match (V2 was not tested)
04 [e507773a] (00/26) No match (V2 was not tested)
05 [0e94ca67] (00/26) No match (V2 was not tested)
06 [ef3659bf] (00/25) No match (V2 was not tested)
07 [d49c048c] (00/25) No match (V2 was not tested)
08 [9aec00e2] (00/26) No match (V2 was not tested)
09 [f290447e] (00/25) No match (V2 was not tested)
10 [88703eb0] (00/25) No match (V2 was not tested)
11 [0007ad4e] (00/28) No match (V2 was not tested)
12 [29b809e2] (02/27) Accurately ripped

Track Peak [ CRC32 ] [W/O NULL] [ LOG ]
-- 100,0 [C540D715] [3682EDDA] CRC32
01 96,6 [3EFEDD79] [BA537830]
02 98,9 [E3717C06] [F95B41F2]
03 85,1 [283F4BA5] [2748D0FF]
04 70,2 [9298EE08] [67E8141A]
05 91,9 [935B84E1] [7F56F950]
06 90,8 [5B35FAC4] [2EE81571]
07 100,0 [02EA10DB] [A219E252]
08 64,7 [BC6F2652] [BA1CD4D0]
09 83,9 [98790021] [59B28442]
10 84,4 [0535DE01] [C5CAB887]
11 92,0 [FB545C67] [22A03B9E]
12 92,2 [F11B7617] [354BE869]

***************


VA - The Tarantino Experience Take III (2011)
2CD | EAC Rip | FLAC (Img) + Cue + Log ~ 470 Mb | MP3 CBR320 ~ 188 Mb
Music Brokers #MBB7088

With the remarkable success of the first two volumes, the demand for The Tarantino Experience Vol III is astonishing: a double album of 24 songs, charismatic from beginning to end, and full of the sound made popular by the famous film director.
Includes gems like I Gotcha by Joe Tex (Reservoir Dogs), Down In Mexico by The Coasters (Death Proof) and I Can Not Hardly Stand It by Charlie Feathers (Kill Bill II), among many others. The Tarantino Experience Vol III is a vibrant album that will capture your attention from start to finish. A drive down the California coast with the type of tunes Tarantino has made immortal.
~ Amazon


Track List CD1:

01. Al Green - L-O-V-E (Love) [03:08]
02. Joe Tex - I Gotcha [02:27]
03. Charlie Feathers - I Can't Hardly Stand It [02:49]
04. Billy Preston - Billy's Bag [03:46]
05. Johnny Otis - Willie And The Hand Jive [02:43]
06. Aaron Neville - Hercules [04:14]
07. Richard Berry - Doin' It [03:15]
08. Serge Gainsbourg - Mambo Miam Miam [02:35]
09. The Ventures - Walk Don't Run [02:58]
10. Johnny Cash - So Doggone Lonesome [02:37]
11. Big Joe Turner - Shake, Rattle & Roll [03:00]
12. Ohio Express - Chewy, Chewy [02:34]

EAC Log
Exact Audio Copy V1.0 beta 3 from 29. August 2011

EAC extraction logfile from 20. May 2015, 6:42

Various Artists / Tarantino Experience Take III CD1

Used drive : PLEXTOR DVDR PX-860A Adapter: 4 ID: 0

Read mode : Secure
Utilize accurate stream : Yes
Defeat audio cache : Yes
Make use of C2 pointers : No

Read offset correction : 96
Overread into Lead-In and Lead-Out : No
Fill up missing offset samples with silence : Yes
Delete leading and trailing silent blocks : No
Null samples used in CRC calculations : Yes
Used interface : Installed external ASPI interface

Used output format : User Defined Encoder
Selected bitrate : 128 kBit/s
Quality : High
Add ID3 tag : Yes
Command line compressor : G:Program Files (x86)Exact Audio CopyFlacflac.exe
Additional command line options : -V -8 -T "Date=%year%" -T "Genre=%genre%" %source% TOC of the extracted CD

Track | Start | Length | Start sector | End sector
---------------------------------------------------------
1 | 0:00.00 | 3:07.38 | 0 | 14062
2 | 3:07.38 | 2:26.10 | 14063 | 25022
3 | 5:33.48 | 2:49.00 | 25023 | 37697
4 | 8:22.48 | 3:45.50 | 37698 | 54622
5 | 12:08.23 | 2:42.07 | 54623 | 66779
6 | 14:50.30 | 4:13.35 | 66780 | 85789
7 | 19:03.65 | 3:14.56 | 85790 | 100395
8 | 22:18.46 | 2:34.29 | 100396 | 111974
9 | 24:53.00 | 2:57.30 | 111975 | 125279
10 | 27:50.30 | 2:36.40 | 125280 | 137019
11 | 30:26.70 | 2:59.67 | 137020 | 150511
12 | 33:26.62 | 2:33.74 | 150512 | 162060 Range status and errors

Selected range

Filename D:MUSICVarious Artists - Tarantino Experience Take III CD1.wav

Peak level 99.8 %
Extraction speed 6.6 X
Range quality 100.0 %
Test CRC 6DF2F973
Copy CRC 6DF2F973
Copy OK

No errors occurred


AccurateRip summary

Track 1 accurately ripped (confidence 7) [46A2EEE8] (AR v2)
Track 2 accurately ripped (confidence 7) [6774888C] (AR v2)
Track 3 accurately ripped (confidence 7) [5850742B] (AR v2)
Track 4 accurately ripped (confidence 7) [3BF6E2F3] (AR v2)
Track 5 accurately ripped (confidence 7) [FC03A30F] (AR v2)
Track 6 accurately ripped (confidence 7) [9D9F3CF2] (AR v2)
Track 7 accurately ripped (confidence 7) [A5279B57] (AR v2)
Track 8 accurately ripped (confidence 7) [004157A4] (AR v2)
Track 9 accurately ripped (confidence 7) [DB4B63D8] (AR v2)
Track 10 accurately ripped (confidence 7) [2B3363E4] (AR v2)
Track 11 accurately ripped (confidence 7) [C5CA75BD] (AR v2)
Track 12 accurately ripped (confidence 7) [D851F040] (AR v2)

All tracks accurately ripped

End of status report

==== Log checksum 69EFC79788BA5C6F787C9C66DEA84FAA9A0301BDED2ACC24F1961EAB2E59E88B ====

DR Log
foobar2000 1.2.6 / Dynamic Range Meter 1.1.1
log date: 2015-05-23 12:00:57

--------------------------------------------------------------------------------
Analyzed: Al Green / Tarantino Experience Take III CD1 (1)
Big Joe Turner / Tarantino Experience Take III CD1 (2)
--------------------------------------------------------------------------------

DR Peak RMS Duration Track
--------------------------------------------------------------------------------
DR7 -0.40 dB -9.43 dB 3:08 01-L-O-V-E (Love)
DR8 -0.10 dB -9.39 dB 3:00 11-Shake, Rattle & Roll
--------------------------------------------------------------------------------

Number of tracks: 2
Official DR value: DR8

Samplerate: 44100 Hz
Channels: 2
Bits per sample: 16
Bitrate: 854 kbps
Codec: FLAC
================================================================================

--------------------------------------------------------------------------------
Statistics for: 04-Billy's Bag
Number of samples: 9951900
Duration: 3:46
--------------------------------------------------------------------------------

Left Right

Peak Value: -0.56 dB --- -0.53 dB
Avg RMS: -10.21 dB --- -7.84 dB
DR channel: 8.08 dB --- 5.97 dB
--------------------------------------------------------------------------------

Official DR Value: DR7

Samplerate: 44100 Hz
Channels: 2
Bits per sample: 16
Bitrate: 854 kbps
Codec: FLAC
================================================================================
--------------------------------------------------------------------------------
Statistics for: 03-I Can't Hardly Stand It
Number of samples: 7452900
Duration: 2:49
--------------------------------------------------------------------------------

Left Right

Peak Value: -0.35 dB --- -0.44 dB
Avg RMS: -8.10 dB --- -8.44 dB
DR channel: 6.65 dB --- 6.83 dB
--------------------------------------------------------------------------------

Official DR Value: DR7

Samplerate: 44100 Hz
Channels: 2
Bits per sample: 16
Bitrate: 854 kbps
Codec: FLAC
================================================================================
--------------------------------------------------------------------------------
Analyzed: Joe Tex / Tarantino Experience Take III CD1 (1)
Johnny Cash / Tarantino Experience Take III CD1 (2)
--------------------------------------------------------------------------------

DR Peak RMS Duration Track
--------------------------------------------------------------------------------
DR7 -0.60 dB -10.22 dB 2:26 02-I Gotcha
DR7 -0.01 dB -8.80 dB 2:37 10-So Doggone Lonesome
--------------------------------------------------------------------------------

Number of tracks: 2
Official DR value: DR7

Samplerate: 44100 Hz
Channels: 2
Bits per sample: 16
Bitrate: 854 kbps
Codec: FLAC
================================================================================

--------------------------------------------------------------------------------
Analyzed: Johnny Otis / Tarantino Experience Take III CD1 (1)
Ohio Express / Tarantino Experience Take III CD1 (2)
--------------------------------------------------------------------------------

DR Peak RMS Duration Track
--------------------------------------------------------------------------------
DR8 -0.30 dB -9.13 dB 2:42 05-Willie And The Hand Jive
DR8 -0.02 dB -9.28 dB 2:34 12-Chewy, Chewy
--------------------------------------------------------------------------------

Number of tracks: 2
Official DR value: DR8

Samplerate: 44100 Hz
Channels: 2
Bits per sample: 16
Bitrate: 854 kbps
Codec: FLAC
================================================================================

--------------------------------------------------------------------------------
Analyzed: Richard Berry / Tarantino Experience Take III CD1 (1)
Serge Gainsbourg / Tarantino Experience Take III CD1 (2)
The Ventures / Tarantino Experience Take III CD1 (3)
--------------------------------------------------------------------------------

DR Peak RMS Duration Track
--------------------------------------------------------------------------------
DR7 -1.30 dB -9.18 dB 3:15 07-Doin' It
DR10 -1.40 dB -13.16 dB 2:34 08-Mambo Miam Miam
DR8 -2.30 dB -11.23 dB 2:57 09-Walk Don't Run
--------------------------------------------------------------------------------

Number of tracks: 3
Official DR value: DR8

Samplerate: 44100 Hz
Channels: 2
Bits per sample: 16
Bitrate: 854 kbps
Codec: FLAC
================================================================================
foobar2000 1.2.6 / Dynamic Range Meter 1.1.1
log date: 2015-05-23 12:00:55

--------------------------------------------------------------------------------
Statistics for: 06-Hercules
Number of samples: 11177880
Duration: 4:13
--------------------------------------------------------------------------------

Left Right

Peak Value: -0.29 dB --- -0.24 dB
Avg RMS: -9.31 dB --- -9.31 dB
DR channel: 7.85 dB --- 7.66 dB
--------------------------------------------------------------------------------

Official DR Value: DR8

Samplerate: 44100 Hz
Channels: 2
Bits per sample: 16
Bitrate: 854 kbps
Codec: FLAC
================================================================================




Quentin Tarantino Presents Hero | Edition 65 Cd Limited Edition Box Set 2014 Part 3 | Limited Edition Lee Ritenour Vinyl Box Set | Four Limited Edition | Quentin Tarantino Filmography | Quentin Tarantino Avi | The Ultimate Tribute | Quentin Tarantino Birthday | The Wall Experience Edition
Free Full Download VA - The Tarantino Experience: The form MediaFire link RapidShare, ifile.it, Uploaded.to, Zippyshare, FileSonic, turbobit, ul.to, ORON, DepositFiles,rapidgator.net, extabit.com, filefactory.com. VA - The Tarantino Experience: The Torrent Download with keygen, crack, serial, cdkey,password,1080P,hd, 2015, 2016
Dear visitor, you went to the site as unregistered user.
We encourage you to register .

Add comment

Name:*
E-Mail:*
Comment:
  • bowtiesmilelaughingblushsmileyrelaxedsmirk
    heart_eyeskissing_heartkissing_closed_eyesflushedrelievedsatisfiedgrin
    winkstuck_out_tongue_winking_eyestuck_out_tongue_closed_eyesgrinningkissingstuck_out_tonguesleeping
    worriedfrowninganguishedopen_mouthgrimacingconfusedhushed
    expressionlessunamusedsweat_smilesweatdisappointed_relievedwearypensive
    disappointedconfoundedfearfulcold_sweatperseverecrysob
    joyastonishedscreamtired_faceangryragetriumph
    sleepyyummasksunglassesdizzy_faceimpsmiling_imp
    neutral_faceno_mouthinnocent
Enter the two words shown in the image:

Sitemap We don't Store Any File In Server. The Search and free download links all published by our users.if You Have Any Doubts About Legality Of Content, plz contact us.
  • count 88x31px