Axel Zwingenberger - Axel Zwingenberger and the Friends of Boogie Woogie Vol.1 (1992)

peter Category: music

Axel Zwingenberger - Axel Zwingenberger and the Friends of Boogie Woogie Vol.1 (1992)
EAC Rip | FLAC (Image) + CUE + LOG | 383 MB | Covers Included
Genre: Jazz/Blues/Boogie-Woogie | Label: Vagabond | Catalog Number: VRCD 8.84002 | Release Date: Jun 22, 1992 | RAR 5% Rec. | RS.com + HF.com

Axel Zwingenberger´s recordings with the last grand lady of the Vaudeville-Blues of the twenties, singer Sippie Wallace.
Includes many of Sippie Wallace's own groundbreaking compositions as well as other classic Blues songs, accompanied by Axel Zwingenberger at the piano.


-----------------
Tracklist
-----------------

1. Shake It To A Jelly 3:24
2. T.B. Blues 3:04
3. How Long Blues 2:40
4. Bedroom Blues 2:46
5. Underworld Blues 3:36
6. Arkansas Blues, piano solo 4:16
7. Dago Hill 3:22
8. Nobody Knows 3:52
9. Ann Arbor Boogie, piano solo 3:35
10. Suitcase Blues 4:55
11. Fan It & Cool It 2:47
12. My Man's In Trouble 3:25
13. Black Gal 3:33
14. Nervous Blues 4:02
15. Shorty George 3:23
16. You Really Don't Know 3:34
17. Black Snake Blues 2:40
18. Rocks & Mountains 4:33
19. You Really Don't Know 3:15
20. Electric Light 2:50

Recorded at Solid Sound Studios,Ann Arbor,Michigan,USA,August 1983

Digital Re-Mix: Klaus Bohlmann at Chamelon Studios,Hamburg,Germany,1991


Flac Download RS.com

Part 1 Part 2 Part 3 Part 4

Flac Download HF.com

Part 1 Part 2 Part 3 Part 4

***** Pass: avaxhome *****

EAC LOG
Exact Audio Copy V0.99 prebeta 5 from 4. May 2009

EAC extraction logfile from 4. August 2010, 9:10

Axel Zwingenberger / Axel Zwingenberger and the Friends of Boogie Woogie Vol.1

Used drive : HL-DT-STDVDRAM GSA-H60N Adapter: 3 ID: 0

Read mode : Secure
Utilize accurate stream : Yes
Defeat audio cache : Yes
Make use of C2 pointers : No

Read offset correction : 667
Overread into Lead-In and Lead-Out : No
Fill up missing offset samples with silence : Yes
Delete leading and trailing silent blocks : No
Null samples used in CRC calculations : Yes
Used interface : Native Win32 interface for Win NT & 2000

Used output format : User Defined Encoder
Selected bitrate : 1024 kBit/s
Quality : High
Add ID3 tag : No
Command line compressor : C:Program FilesExact Audio CopyFLACFLAC.EXE
Additional command line options : -6 -V -T "ARTIST=%a" -T "TITLE=%t" -T "ALBUM=%g" -T "DATE=%y" -T "TRACKNUMBER=%n" -T "GENRE=%m" -T "COMMENT=%e" %s -o %d TOC of the extracted CD

Track | Start | Length | Start sector | End sector
---------------------------------------------------------
1 | 0:00.00 | 3:24.00 | 0 | 15299
2 | 3:24.00 | 3:04.25 | 15300 | 29124
3 | 6:28.25 | 2:40.12 | 29125 | 41136
4 | 9:08.37 | 2:46.00 | 41137 | 53586
5 | 11:54.37 | 3:36.25 | 53587 | 69811
6 | 15:30.62 | 4:16.63 | 69812 | 89074
7 | 19:47.50 | 3:22.25 | 89075 | 104249
8 | 23:10.00 | 3:52.12 | 104250 | 121661
9 | 27:02.12 | 3:35.00 | 121662 | 137786
10 | 30:37.12 | 4:55.00 | 137787 | 159911
11 | 35:32.12 | 2:47.63 | 159912 | 172499
12 | 38:20.00 | 3:25.37 | 172500 | 187911
13 | 41:45.37 | 3:33.50 | 187912 | 203936
14 | 45:19.12 | 4:02.63 | 203937 | 222149
15 | 49:22.00 | 3:23.00 | 222150 | 237374
16 | 52:45.00 | 3:34.00 | 237375 | 253424
17 | 56:19.00 | 2:40.12 | 253425 | 265436
18 | 58:59.12 | 4:33.00 | 265437 | 285911
19 | 63:32.12 | 3:15.50 | 285912 | 300586
20 | 66:47.62 | 2:49.13 | 300587 | 313274 Range status and errors

Selected range

Filename D:MUSIKAxel Zwingenberger - The Friends of Boogie Woogie Vol.1Axel Zwingenberger - Axel Zwingenberger and the Friends of Boogie Woogie Vol.1.wav

Peak level 98.4 %
Range quality 100.0 %
Copy CRC D30FEBE8
Copy OK

No errors occurred


AccurateRip summary

Track 1 accurately ripped (confidence 2) [C346098E]
Track 2 accurately ripped (confidence 2) [01215B19]
Track 3 accurately ripped (confidence 2) [554D0087]
Track 4 accurately ripped (confidence 2) [694CF492]
Track 5 accurately ripped (confidence 2) [3BEA2A53]
Track 6 accurately ripped (confidence 2) [53D08FE4]
Track 7 accurately ripped (confidence 2) [8DF3D774]
Track 8 accurately ripped (confidence 2) [97918609]
Track 9 accurately ripped (confidence 2) [62148710]
Track 10 accurately ripped (confidence 2) [8F72D98B]
Track 11 accurately ripped (confidence 2) [E6CE61E0]
Track 12 accurately ripped (confidence 2) [D0B55A78]
Track 13 accurately ripped (confidence 2) [BFD5813A]
Track 14 accurately ripped (confidence 2) [A5AFCEE2]
Track 15 accurately ripped (confidence 2) [DB26EC53]
Track 16 accurately ripped (confidence 2) [3B0A4608]
Track 17 accurately ripped (confidence 2) [C2EC83C2]
Track 18 accurately ripped (confidence 2) [8BA1FB3B]
Track 19 accurately ripped (confidence 2) [786B08EB]
Track 20 accurately ripped (confidence 2) [7B4103CA]

All tracks accurately ripped

End of status report


CUE TOOLS LOG
[CUETools log; Date: 04.08.2010 09:16:32; Version: 2.0.9]
[AccurateRip ID: 0031ce9d-02e07a92-0b105114] found.
Track [ CRC ] Status
01 [c346098e] (2/2) Accurately ripped
02 [01215b19] (2/2) Accurately ripped
03 [554d0087] (2/2) Accurately ripped
04 [694cf492] (2/2) Accurately ripped
05 [3bea2a53] (2/2) Accurately ripped
06 [53d08fe4] (2/2) Accurately ripped
07 [8df3d774] (2/2) Accurately ripped
08 [97918609] (2/2) Accurately ripped
09 [62148710] (2/2) Accurately ripped
10 [8f72d98b] (2/2) Accurately ripped
11 [e6ce61e0] (2/2) Accurately ripped
12 [d0b55a78] (2/2) Accurately ripped
13 [bfd5813a] (2/2) Accurately ripped
14 [a5afcee2] (2/2) Accurately ripped
15 [db26ec53] (2/2) Accurately ripped
16 [3b0a4608] (2/2) Accurately ripped
17 [c2ec83c2] (2/2) Accurately ripped
18 [8ba1fb3b] (2/2) Accurately ripped
19 [786b08eb] (2/2) Accurately ripped
20 [7b4103ca] (2/2) Accurately ripped

Track Peak [ CRC32 ] [W/O NULL] [ LOG ]
-- 98,4 [D30FEBE8] [0F27CEB9] CRC32
01 84,3 [5DD2E628] [E37F4839]
02 88,9 [F54EA90C] [F25E829B]
03 82,8 [A5D5DD2C] [EB073CED]
04 82,9 [664C7B52] [26328D37]
05 79,0 [11C98A60] [D62488C1]
06 90,2 [D047FF36] [E8402752]
07 65,1 [F5C338E5] [95A0B07C]
08 83,0 [AD654187] [6C1B570F]
09 89,5 [40FD0597] [A6CFC80D]
10 87,1 [78351268] [B570913A]
11 98,4 [E239E588] [E9A25A08]
12 87,6 [7814CE29] [D93F500D]
13 78,0 [DC636E09] [8BFD436A]
14 87,8 [E09D7145] [E269DA67]
15 78,0 [57592CAB] [9B51C0E3]
16 77,0 [362E4BB2] [3177F4DE]
17 84,7 [AAC21F92] [F646225B]
18 81,3 [D66B54CC] [45D20C94]
19 78,8 [A2BC7583] [A4AF1E69]
20 86,9 [E8E8F3DA] [A7A51EB6]


Biography
Born in Hamburg, Germany, in 1955, pianist Axel Zwingenberger is travelling the world as the »ambassador of Boogie Woogie« since the age of 19. Together with his friends Vince Weber, Martin Pyrker and George Moeller, he started out in the German speaking countries. Meanwhile, the keyboard virtuoso has given concerts in about 50 countries on four continents, in the Middle and Far East of Asia, in Africa as well as in the Americas. Besides that, he has performed in almost every European country.
Boogie Woogie is a very profound, expressive and powerful style of piano playing, firmly rooted in the Blues. It emerged in the South of the United States of America, around the turn from the 19th to the 20th century, created by African-American pianists in a most unusual manner, ignoring most of the rules of conventional piano playing. Nevertheless, its greatest exponents achieved an impressive level of pianistic virtuosity. Its rolling eight-to-the-bar rhythms, created by the player’s left hand, are the trademark of the genre, and these rhythms consequently had a lasting effect on the popular music until today. Following a brief period of huge popularity during the 1940s, Boogie Woogie dropped into obscurity for a while, but its rhythm has been perpetuated by Rock’n’Roll and other musical forms. During the 1970s, it started to regain popularity, especially in Europe, not the least through Axel Zwingenberger’s efforts.
Zwingenberger has effectively attached his personal mark to the music, that is performed as »classical Boogie Woogie« today, and even defined it to a high degree. As German Boogie Woogie piano veteran Leopold von Knobelsdorff has written in his original liner notes for Axel’s first solo album in 1976, Axel has combined the quite diverse musical stylings of his heroes, Boogie pioneers Pete Johnson, Meade »Lux« Lewis and Albert Ammons of the 1930s and 1940s, with his own ideas in an inimitable way. Thus, he has created a distinctive style which has been widely copied and meanwhile is presented by his successors as the »natural« Boogie Woogie style which pays respect to the roots of this music.
Axel Zwingenberger performs as a piano soloist most of the time. He likes to play un-amplified at a big concert grand piano, which enables him to demonstrate his outstanding pianistic and musical prowess from massive ostinato-bass clusters to lyrical pianissimo passages.
He has risen a lot of interest by his co-operations with famous Jazz and Blues musicians. During the early 1980s, the great Lionel Hampton invited him to participate in an European concert tour and to record in the U.S. Axel’s creativity is documented on meanwhile 30 Audio CDs, among them recordings with U.S legends like Big Joe Turner, Jay McShann, Champion Jack Dupree, Sippie Wallace and many others, together with 8 solo albums.
There are even sheet music transcriptions of his own compositions available. Moreover, Axel Zwingenberger has issued a fulminant table top photo book, entitled »Vom Zauber der Zuege« (The Magic of Trains). Here, Axel Zwingenberger introduces himself as a prolific photographer with his night shots of steam trains in action. The book combines Axel’s photographs with his music and his written stories about steam railroading in a most captivating manner.
Music critics from the United Kingdom have labeled Axel as »The Boogiemeister of the world« which makes him particularly proud, since he is not only a creative and innovative composer, but has explored the facets of authentic Boogie Woogie and Blues piano like nobody else and put fresh life into this music by his irresistible interpretations.


Homepage Axel Zwingenberger




Axel Corti | Axel Flovent | Axel Braun Asa Akira | X Men Xxx An Axel Braun Parod | Boogie Woogie Pdf | Rave It Axel Raven | X Men An An Axel Braun Parody | Snow White An Axel | Axel Braun Class | X Men An Axel Braun Parody
Free Full Download Axel Zwingenberger - Axel Zwingenberger form MediaFire link RapidShare, ifile.it, Uploaded.to, Zippyshare, FileSonic, turbobit, ul.to, ORON, DepositFiles,rapidgator.net, extabit.com, filefactory.com. Axel Zwingenberger - Axel Zwingenberger Torrent Download with keygen, crack, serial, cdkey,password,1080P,hd, 2015, 2016
Dear visitor, you went to the site as unregistered user.
We encourage you to register .

Add comment

Name:*
E-Mail:*
Comment:
  • bowtiesmilelaughingblushsmileyrelaxedsmirk
    heart_eyeskissing_heartkissing_closed_eyesflushedrelievedsatisfiedgrin
    winkstuck_out_tongue_winking_eyestuck_out_tongue_closed_eyesgrinningkissingstuck_out_tonguesleeping
    worriedfrowninganguishedopen_mouthgrimacingconfusedhushed
    expressionlessunamusedsweat_smilesweatdisappointed_relievedwearypensive
    disappointedconfoundedfearfulcold_sweatperseverecrysob
    joyastonishedscreamtired_faceangryragetriumph
    sleepyyummasksunglassesdizzy_faceimpsmiling_imp
    neutral_faceno_mouthinnocent
Enter the two words shown in the image:

Sitemap We don't Store Any File In Server. The Search and free download links all published by our users.if You Have Any Doubts About Legality Of Content, plz contact us.
  • count 88x31px