Kick Bong - Kind Of Imagination (2010)

alice Category: music

Kick Bong - Kind Of Imagination (2010)
EAC Rip | FLAC (image+.cue+log) - 344 MB | MP3 CBR 320 kbps (LAME 3.93) - 124 MB | Covers - 46 MB
Genre: Chillout, Downtempo, Ambient | RAR 3% Rec. | Label: Cosmicleaf Records

Franck Jousselin aka Kick Bong is back with his full third studio album. Kick Bong knows how to update his style and keep our interest high,pleasing us with a new emotional downtempo chill pleasure. Music for dreaming and relaxing, music for trying to create a better world for us,for everyone. Life is good, keep dreaming! One more music gem with attitude from Cosmicleaf Records.

Tracklist:
01. Strange Feeling
02. Kind of Imagination
03. Just You and Me
04. My Little Girl
05. This Way
06. Let Me Dream
07. Je Suis La
08. No More Love
09. Le Bonheur
10. Sensation
11. Something Better (Cydelix rmx)

Total time: 52:47

EAC log
Exact Audio Copy V0.99 prebeta 5 from 4. May 2009

EAC extraction logfile from 29. October 2010, 21:38

Kick Bong / Kind Of Imagination

Used drive : Optiarc DVD RW AD-7200S Adapter: 1 ID: 0

Read mode : Secure
Utilize accurate stream : Yes
Defeat audio cache : Yes
Make use of C2 pointers : No

Read offset correction : 48
Overread into Lead-In and Lead-Out : No
Fill up missing offset samples with silence : Yes
Delete leading and trailing silent blocks : No
Null samples used in CRC calculations : Yes
Used interface : Native Win32 interface for Win NT & 2000

Used output format : User Defined Encoder
Selected bitrate : 1024 kBit/s
Quality : High
Add ID3 tag : No
Command line compressor : C:Program FilesExact Audio CopyFLACFLAC.EXE
Additional command line options : -8 -V %s TOC of the extracted CD

Track | Start | Length | Start sector | End sector
---------------------------------------------------------
1 | 0:00.00 | 5:35.49 | 0 | 25173
2 | 5:35.49 | 4:00.22 | 25174 | 43195
3 | 9:35.71 | 3:42.72 | 43196 | 59917
4 | 13:18.68 | 4:32.16 | 59918 | 80333
5 | 17:51.09 | 4:39.10 | 80334 | 101268
6 | 22:30.19 | 3:50.48 | 101269 | 118566
7 | 26:20.67 | 5:10.68 | 118567 | 141884
8 | 31:31.60 | 4:40.71 | 141885 | 162955
9 | 36:12.56 | 5:11.29 | 162956 | 186309
10 | 41:24.10 | 5:23.12 | 186310 | 210546
11 | 46:47.22 | 5:59.44 | 210547 | 237515 Range status and errors

Selected range

Filename D:Kick Bong - Kind Of Imagination.wav

Peak level 96.6 %
Range quality 99.9 %
Test CRC 3B4156D4
Copy CRC 3B4156D4
Copy OK

No errors occurred


AccurateRip summary

Track 1 not present in database
Track 2 not present in database
Track 3 not present in database
Track 4 not present in database
Track 5 not present in database
Track 6 not present in database
Track 7 not present in database
Track 8 not present in database
Track 9 not present in database
Track 10 not present in database
Track 11 not present in database

None of the tracks are present in the AccurateRip database

End of status report

CUETools log
[CUETools log; Date: 16.05.2015 16:11:19; Version: 2.1.4]
[CTDB TOCID: ezc5KZj1sBrUdTm0bcjdEmAjCKs-] disk not present in database.
[AccurateRip ID: 0014de78-00b56cbf-9a0c5e0b] found.
Track [ CRC | V2 ] Status
01 [48026ee2|819787e3] (1+0/1) Accurately ripped
02 [ba393cbd|e71154f3] (1+0/1) Accurately ripped
03 [7e6b75d2|88a80bf7] (1+0/1) Accurately ripped
04 [bfa8885c|ffd93462] (1+0/1) Accurately ripped
05 [1e1217a8|31ec26e2] (1+0/1) Accurately ripped
06 [7007af05|55600943] (1+0/1) Accurately ripped
07 [56ef5ad8|01bccc6e] (1+0/1) Accurately ripped
08 [0bc80139|6ee8629e] (1+0/1) Accurately ripped
09 [a569abf0|7d324047] (1+0/1) Accurately ripped
10 [ee45c4b5|1cf69bca] (1+0/1) Accurately ripped
11 [830c96d6|3a273b39] (1+0/1) Accurately ripped

Track Peak [ CRC32 ] [W/O NULL] [ LOG ]
-- 96,6 [3B4156D4] [40A376DD] CRC32
01 96,6 [E93C7731] [C9C676CA]
02 96,6 [FD11F477] [8A3E815F]
03 96,6 [692BD64F] [C7A0701E]
04 96,6 [315C6592] [5760FF4F]
05 96,6 [92F376AF] [32171A8E]
06 96,6 [539AC5DC] [A1202B17]
07 96,6 [B0E5A7AE] [48A5B75B]
08 96,6 [4131B841] [324D5295]
09 96,6 [612A01E3] [306137EC]
10 96,6 [0D29C714] [CBA18FE6]
11 96,6 [62607D66] [42E9B688]

Thanks to vostrik

Nitroflare.com

LOSSLESS:
Nitroflare.com
_______________

MP3 320 kbps:
Nitroflare.com
_______________

Covers:
Nitroflare.com

Uploadable.ch

LOSSLESS:
Uploadable.ch
_______________

MP3 320 kbps:
Uploadable.ch
_______________

Covers:
Uploadable.ch



Him Ssen Yeo Ja Do Bong Soon | Strong Woman Do Bong Soon | Imagination Movers | Time Traveling Bong | Doi Bong Thieu Lam | Evil Bong 2011 | Bing And Bong | Tales Mystery And Imagination | Tales Of Mystery And Imagination | Wrath Of Bong
Free Full Download Kick Bong - Kind Of Imagination (2010) form MediaFire link RapidShare, ifile.it, Uploaded.to, Zippyshare, FileSonic, turbobit, ul.to, ORON, DepositFiles,rapidgator.net, extabit.com, filefactory.com. Kick Bong - Kind Of Imagination (2010) Torrent Download with keygen, crack, serial, cdkey,password,1080P,hd, 2015, 2016
Dear visitor, you went to the site as unregistered user.
We encourage you to register .

Add comment

Name:*
E-Mail:*
Comment:
  • bowtiesmilelaughingblushsmileyrelaxedsmirk
    heart_eyeskissing_heartkissing_closed_eyesflushedrelievedsatisfiedgrin
    winkstuck_out_tongue_winking_eyestuck_out_tongue_closed_eyesgrinningkissingstuck_out_tonguesleeping
    worriedfrowninganguishedopen_mouthgrimacingconfusedhushed
    expressionlessunamusedsweat_smilesweatdisappointed_relievedwearypensive
    disappointedconfoundedfearfulcold_sweatperseverecrysob
    joyastonishedscreamtired_faceangryragetriumph
    sleepyyummasksunglassesdizzy_faceimpsmiling_imp
    neutral_faceno_mouthinnocent
Enter the two words shown in the image:

Sitemap We don't Store Any File In Server. The Search and free download links all published by our users.if You Have Any Doubts About Legality Of Content, plz contact us.
  • count 88x31px