Ry Cooder - Paradise And Lunch (1974)

alice Category: music

Ry Cooder - Paradise And Lunch (1974)
EAC | FLAC | Image (Cue&Log) ~ 229 Mb (incl 5%) | Mp3 (CBR320) ~ 115 Mb (incl 5%) | Scans included
Genre: Roots Rock, Blues, Country Rock, Folk | Label: Reprise | # 2179-2 | Time: 00:37:22

Ry Cooder understands that a great song is a great song, whether it was written before the Depression or last week. Still, at the same time he isn't afraid to explore new avenues and possibilities for the material. Like his three previous records, Paradise and Lunch is filled with treasures which become part of a world where eras and styles converge without ever sounding forced or contrived. One may think that an album that contains a traditional railroad song, tunes by assorted blues greats, and a Negro spiritual alongside selections by the likes of Bobby Womack, Burt Bacharach, and Little Milton may lack cohesiveness or merely come across as a history lesson, but to Cooder this music is all part of the same fabric and is as relevant and accessible as anything else that may be happening at the time. No matter when it was written or how it may have been done in the past, the tracks, led by Cooder's brilliant guitar, are taken to new territory where they can coexist. It's as if Washington Phillips' "Tattler" could have shared a place on the charts with Womack's "It's All Over Now" or Little Milton's "If Walls Could Talk." That he's successful on these, as well as the Salvation Army march of "Jesus on the Mainline" or the funky, gospel feel of Blind Willie McTell's "Married Man's a Fool," is not only a credit to Cooder's talent and ingenuity as an arranger and bandleader, but also to the songs themselves. The album closes with its most stripped-down track, an acoustic guitar and piano duet with jazz legend Earl "Fatha" Hines on the Blind Blake classic "Ditty Wah Ditty." Here both musicians are given plenty of room to showcase their instrumental prowess, and the results are nothing short of stunning. Eclectic, intelligent, and thoroughly entertaining, Paradise and Lunch remains Ry Cooder's masterpiece.

Review by Brett Hartenbach, Allmusic.com


Ry Cooder at Allmusic
Ry Cooder at Wiki

Tracklist:

01. Tamp 'Em Up Solid (03:22)
02. Tattler (04:19)
03. Married Man's A Fool (03:14)
04. Jesus On The Mainline (04:10)
05. It's All Over Now (04:53)
06. Medley: Fool For A Cigarette - Feelin' Good (04:28)
07. If Walls Could Talk (03:15)
08. Mexican Divorce (03:57)
09. Ditty Wah Ditty (05:42)


EAC log
Exact Audio Copy V1.0 beta 3 from 29. August 2011

Отчёт EAC об извлечении, выполненном 21. ноября 2014, 20:27

Ry Cooder / Paradise And Lunch

Дисковод: SONY CD-RW CRX230ED Adapter: 0 ID: 1

Режим чтения : Достоверность
Использование точного потока : Да
Отключение кэша аудио : Да
Использование указателей C2 : Нет

Коррекция смещения при чтении : 6
Способность читать области Lead-in и Lead-out : Нет
Заполнение пропущенных сэмплов тишиной : Да
Удаление блоков с тишиной в начале и конце : Нет
При вычислениях CRC использовались нулевые сэмплы : Да
Интерфейс : Встроенный Win32-интерфейс для Win NT/2000

Выходной формат : Внутренние WAV-операции
Формат сэмплов : 44.100 Гц; 16 бит; стерео TOC извлечённого CD

Трек | Старт | Длительность | Начальный сектор | Конечный сектор
---------------------------------------------------------------------
1 | 0:00.32 | 3:22.28 | 32 | 15209
2 | 3:22.60 | 4:19.22 | 15210 | 34656
3 | 7:42.07 | 3:14.13 | 34657 | 49219
4 | 10:56.20 | 4:10.72 | 49220 | 68041
5 | 15:07.17 | 4:53.05 | 68042 | 90021
6 | 20:00.22 | 4:28.18 | 90022 | 110139
7 | 24:28.40 | 3:15.07 | 110140 | 124771
8 | 27:43.47 | 3:57.03 | 124772 | 142549
9 | 31:40.50 | 5:42.05 | 142550 | 168204 Характеристики диапазона извлечения и сообщения об ошибках

Выбранный диапазон

Имя файла F:MusicCDRy Cooder - Paradise And LunchRy Cooder - Paradise And Lunch.wav

Пиковый уровень 97.8 %
Скорость извлечения 7.3 X
Качество диапазона 100.0 %
CRC теста BEAE1252
CRC копии BEAE1252
Копирование... OK

Ошибок не произошло


AccurateRip: сводка

Трек 1 : извлечено точно (доверие 7) [737F8B38] (AR v2)
Трек 2 : извлечено точно (доверие 8) [021A535D] (AR v2)
Трек 3 : извлечено точно (доверие 8) [C128409D] (AR v2)
Трек 4 : извлечено точно (доверие 8) [FA50B03E] (AR v2)
Трек 5 : извлечено точно (доверие 8) [403F4CBF] (AR v2)
Трек 6 : извлечено точно (доверие 8) [41B97A9F] (AR v2)
Трек 7 : извлечено точно (доверие 8) [19558487] (AR v2)
Трек 8 : извлечено точно (доверие 8) [8C7FC893] (AR v2)
Трек 9 : извлечено точно (доверие 8) [7ADB7A30] (AR v2)

Все треки извлечены точно

Конец отчёта

==== Контрольная сумма отчёта 7CF56E751918246299C634FE065D8257D675D7BD32713840F59DC04B1867F8F3 ====

AR log
[CUETools log; Date: 21.05.2015 16:38:30; Version: 2.1.5]
Pregap length 00:00:32.
[CTDB TOCID: OAKqRZxRgQzIy1mDvryoENRvsqE-] found.
Track | CTDB Status
1 | (3/3) Accurately ripped
2 | (3/3) Accurately ripped
3 | (3/3) Accurately ripped
4 | (3/3) Accurately ripped
5 | (3/3) Accurately ripped
6 | (3/3) Accurately ripped
7 | (3/3) Accurately ripped
8 | (3/3) Accurately ripped
9 | (3/3) Accurately ripped
[AccurateRip ID: 000c4022-005ab9c9-6a08c209] found.
Track [ CRC | V2 ] Status
01 [b21bf55c|737f8b38] (14+09/53) Accurately ripped
02 [73bea18f|021a535d] (14+10/53) Accurately ripped
03 [cbd9b96e|c128409d] (14+10/53) Accurately ripped
04 [a54aff80|fa50b03e] (14+10/54) Accurately ripped
05 [d2407cb9|403f4cbf] (14+10/53) Accurately ripped
06 [a3d5c723|41b97a9f] (14+10/54) Accurately ripped
07 [3bc0c449|19558487] (14+10/53) Accurately ripped
08 [25ae3606|8c7fc893] (14+10/53) Accurately ripped
09 [33171ed9|7adb7a30] (14+10/53) Accurately ripped
Offsetted by 92:
01 [5e6e3274] (18/53) Accurately ripped
02 [c9a58cf3] (17/53) Accurately ripped
03 [38f0405a] (17/53) Accurately ripped
04 [14f8d80f] (18/54) Accurately ripped
05 [70708ff6] (17/53) Accurately ripped
06 [fae739cf] (18/54) Accurately ripped
07 [e55bbb25] (17/53) Accurately ripped
08 [e0719db6] (17/53) Accurately ripped
09 [9a99b881] (17/53) Accurately ripped

Track Peak [ CRC32 ] [W/O NULL] [ LOG ]
-- 97,8 [BEAE1252] [5915FC9A] CRC32
01 83,3 [51A21038] [C74632D7]
02 78,1 [2EF4888E] [2C59D29A]
03 92,3 [A0CEED45] [A340C7E2]
04 97,8 [6FC0D590] [FE89721A]
05 94,7 [AAFC9630] [BADD6940]
06 96,3 [859853E7] [14651DB5]
07 94,4 [31F091AA] [7CB866E6]
08 76,1 [908AE7E5] [CF43BBF6]
09 66,3 [433C85C2] [2325985F]

DR log
foobar2000 1.3.8 / Dynamic Range Meter 1.1.1
log date: 2015-05-21 14:31:58

--------------------------------------------------------------------------------
Analyzed: Ry Cooder / Paradise And Lunch
--------------------------------------------------------------------------------

DR Peak RMS Duration Track
--------------------------------------------------------------------------------
DR16 -1.59 dB -21.18 dB 3:22 01-Tamp 'Em Up Solid
DR13 -2.14 dB -17.18 dB 4:19 02-Tattler
DR14 -0.69 dB -16.82 dB 3:14 03-Married Man's A Fool
DR14 -0.19 dB -16.79 dB 4:11 04-Jesus On The Mainline
DR14 -0.47 dB -17.34 dB 4:53 05-It's All Over Now
DR14 -0.32 dB -17.80 dB 4:28 06-Medley: Fool For A Cigarette - Feelin' Good
DR13 -0.50 dB -16.34 dB 3:15 07-If Walls Could Talk
DR13 -2.37 dB -18.97 dB 3:57 08-Mexican Divorce
DR16 -3.56 dB -22.03 dB 5:42 09-Ditty Wah Ditty
--------------------------------------------------------------------------------

Number of tracks: 9
Official DR value: DR14

Samplerate: 44100 Hz
Channels: 2
Bits per sample: 16
Bitrate: 727 kbps
Codec: FLAC
================================================================================









Ry Cooder Paris Texas Is Safe 1 | Ali Farka Toure Ry Cooder | Ry Cooder River | Ry Cooder Crossroads | X Art Ivy Lunch | Ry Cooder 2013 | The Lunch X | Ry Cooder 320 | Ry Cooder Paris Texas Is Safe 1 | Buena Vista Social Club Ry Cooder
Free Full Download Ry Cooder - Paradise And Lunch (1974) form MediaFire link RapidShare, ifile.it, Uploaded.to, Zippyshare, FileSonic, turbobit, ul.to, ORON, DepositFiles,rapidgator.net, extabit.com, filefactory.com. Ry Cooder - Paradise And Lunch (1974) Torrent Download with keygen, crack, serial, cdkey,password,1080P,hd, 2015, 2016
Dear visitor, you went to the site as unregistered user.
We encourage you to register .

Add comment

Name:*
E-Mail:*
Comment:
  • bowtiesmilelaughingblushsmileyrelaxedsmirk
    heart_eyeskissing_heartkissing_closed_eyesflushedrelievedsatisfiedgrin
    winkstuck_out_tongue_winking_eyestuck_out_tongue_closed_eyesgrinningkissingstuck_out_tonguesleeping
    worriedfrowninganguishedopen_mouthgrimacingconfusedhushed
    expressionlessunamusedsweat_smilesweatdisappointed_relievedwearypensive
    disappointedconfoundedfearfulcold_sweatperseverecrysob
    joyastonishedscreamtired_faceangryragetriumph
    sleepyyummasksunglassesdizzy_faceimpsmiling_imp
    neutral_faceno_mouthinnocent
Enter the two words shown in the image:

Sitemap We don't Store Any File In Server. The Search and free download links all published by our users.if You Have Any Doubts About Legality Of Content, plz contact us.
  • count 88x31px