Bee Gees - Number Ones (2004) 2010 Japan Re-Up

peter Category: music
1

Bee Gees - Number Ones (2004)
EAC Rip | FLAC (Img) + Cue + Log ~ 561 Mb | MP3 CBR320 ~ 186 Mb
Scans: JPG (600 dpi) ~ 132 Mb or PNG (600 dpi) ~ 733 Mb | RAR 5% Recovery
Pop, Rock, Disco | Warner Music Japan #WPCP-14023

The achievements of the brothers Gibb are truly unique. No other band has scored Number Ones around the globe in each of five decades. This album contains the best-loved number one singles, plus classic songs taken from Number One albums. In all, 20 stunning tracks which prove the Bee Gees' Greatest achievement: touching the heart and soul of millions of people with their music.


00

Track List:

01. Massachusetts [0:02:26.22]
02. World [0:03:16.33]
03. Words [0:03:17.05]
04. I've Gotta Get A Message To You [0:02:52.45]
05. I Started A Joke [0:03:10.32]
06. Don't Forget To Remember [0:03:29.43]
07. How Can You Mend A Broken Heart [0:03:58.17]
08. Jive Talkin' [0:03:46.33]
09. You Should Be Dancing [0:04:17.20]
10. How Deep Is Your Love [0:04:02.07]
11. Stayin' Alive [0:04:46.56]
12. Night Fever [0:03:30.72]
13. Too Much Heaven [0:04:57.44]
14. Tragedy [0:05:03.11]
15. More Than A Woman [0:03:18.15]
16. Love You Inside Out [0:04:12.43]
17. You Win Again [0:04:03.64]
18. Man In The Middle* [0:04:22.37]
19. Islands In The Stream (Studio)** [0:04:22.58]
20. Immortality (Original Demo Version)** [0:04:14.58]

* - Special Maurice Gibb Tribute Track
** - Japan Only Bonus Track

EAC Log
Exact Audio Copy V0.99 prebeta 5 from 4. May 2009

EAC extraction logfile from 10. November 2010, 23:00

Bee Gees / Number Ones

Used drive : PIONEER DVD-RW DVR-112D Adapter: 2 ID: 0

Read mode : Secure
Utilize accurate stream : Yes
Defeat audio cache : Yes
Make use of C2 pointers : No

Read offset correction : 48
Overread into Lead-In and Lead-Out : No
Fill up missing offset samples with silence : Yes
Delete leading and trailing silent blocks : No
Null samples used in CRC calculations : Yes
Used interface : Installed external ASPI interface

Used output format : User Defined Encoder
Selected bitrate : 1024 kBit/s
Quality : High
Add ID3 tag : No
Command line compressor : C:Program Files (x86)Exact Audio CopyFlacflac.exe
Additional command line options : -5 -V -T "ARTIST=%a" -T "TITLE=%t" -T "ALBUM=%g" -T "DATE=%y" -T "TRACKNUMBER=%n" -T "GENRE=%m" -T "COMMENT=EAC FLAC -5" %s TOC of the extracted CD

Track | Start | Length | Start sector | End sector
---------------------------------------------------------
1 | 0:00.00 | 2:26.22 | 0 | 10971
2 | 2:26.22 | 3:16.33 | 10972 | 25704
3 | 5:42.55 | 3:17.05 | 25705 | 40484
4 | 8:59.60 | 2:52.45 | 40485 | 53429
5 | 11:52.30 | 3:10.32 | 53430 | 67711
6 | 15:02.62 | 3:29.43 | 67712 | 83429
7 | 18:32.30 | 3:58.17 | 83430 | 101296
8 | 22:30.47 | 3:46.33 | 101297 | 118279
9 | 26:17.05 | 4:17.20 | 118280 | 137574
10 | 30:34.25 | 4:02.07 | 137575 | 155731
11 | 34:36.32 | 4:46.56 | 155732 | 177237
12 | 39:23.13 | 3:30.72 | 177238 | 193059
13 | 42:54.10 | 4:57.44 | 193060 | 215378
14 | 47:51.54 | 5:03.11 | 215379 | 238114
15 | 52:54.65 | 3:18.15 | 238115 | 252979
16 | 56:13.05 | 4:12.43 | 252980 | 271922
17 | 60:25.48 | 4:03.64 | 271923 | 290211
18 | 64:29.37 | 4:22.37 | 290212 | 309898
19 | 68:51.74 | 4:22.58 | 309899 | 329606
20 | 73:14.57 | 4:14.58 | 329607 | 348714 Range status and errors

Selected range

Filename F:Bee Gees - Number Ones - 2004 (Japan)Bee Gees - Number Ones.wav

Peak level 100.0 %
Range quality 100.0 %
Test CRC 091449AD
Copy CRC 091449AD
Copy OK

No errors occurred


AccurateRip summary

Track 1 not present in database
Track 2 not present in database
Track 3 not present in database
Track 4 not present in database
Track 5 not present in database
Track 6 not present in database
Track 7 not present in database
Track 8 not present in database
Track 9 not present in database
Track 10 not present in database
Track 11 not present in database
Track 12 not present in database
Track 13 not present in database
Track 14 not present in database
Track 15 not present in database
Track 16 not present in database
Track 17 not present in database
Track 18 not present in database
Track 19 not present in database
Track 20 not present in database

None of the tracks are present in the AccurateRip database

End of status report

DR Log
foobar2000 1.2.6 / Dynamic Range Meter 1.1.1
log date: 2015-07-23 16:22:00

--------------------------------------------------------------------------------
Analyzed: Bee Gees / Number Ones
--------------------------------------------------------------------------------

DR Peak RMS Duration Track
--------------------------------------------------------------------------------
DR8 -0.10 dB -9.32 dB 2:26 01-Massachusetts
DR7 -0.10 dB -9.65 dB 3:16 02-World
DR7 -2.04 dB -11.16 dB 3:17 03-Words
DR7 -0.54 dB -9.37 dB 2:53 04-I've Gotta Get A Message To You
DR7 -0.54 dB -9.67 dB 3:10 05-I Started A Joke
DR7 -0.54 dB -8.90 dB 3:30 06-Don't Forget To Remember
DR6 -0.13 dB -9.50 dB 3:58 07-How Can You Mend A Broken Heart
DR7 -0.22 dB -8.84 dB 3:46 08-Jive Talkin'
DR7 -0.10 dB -8.77 dB 4:17 09-You Should Be Dancing
DR6 -0.10 dB -8.32 dB 4:02 10-How Deep Is Your Love
DR7 -0.10 dB -8.66 dB 4:47 11-Stayin' Alive
DR7 -0.31 dB -8.73 dB 3:31 12-Night Fever
DR6 -0.31 dB -8.63 dB 4:58 13-Too Much Heaven
DR7 0.00 dB -8.70 dB 5:03 14-Tragedy
DR7 -0.31 dB -8.41 dB 3:18 15-More Than A Woman
DR7 -0.31 dB -9.17 dB 4:13 16-Love You Inside Out
DR9 -0.10 dB -10.09 dB 4:04 17-You Win Again
DR8 -0.10 dB -10.32 dB 4:22 18-Man In The Middle
DR7 -0.10 dB -8.83 dB 4:23 19-Islands In The Stream
DR10 -0.10 dB -12.74 dB 4:15 20-Immortality
--------------------------------------------------------------------------------

Number of tracks: 20
Official DR value: DR7

Samplerate: 44100 Hz
Channels: 2
Bits per sample: 16
Bitrate: 965 kbps
Codec: FLAC
================================================================================

CUETools Log
[CUETools log; Date: 23.07.2015 16:22:01; Version: 2.1.5]
[CTDB TOCID: n5yjiir9U7FQDP32pJBGE7WhV6g-] found.
Track | CTDB Status
1 | (3/3) Accurately ripped
2 | (3/3) Accurately ripped
3 | (3/3) Accurately ripped
4 | (3/3) Accurately ripped
5 | (3/3) Accurately ripped
6 | (3/3) Accurately ripped
7 | (3/3) Accurately ripped
8 | (3/3) Accurately ripped
9 | (3/3) Accurately ripped
10 | (3/3) Accurately ripped
11 | (3/3) Accurately ripped
12 | (3/3) Accurately ripped
13 | (3/3) Accurately ripped
14 | (3/3) Accurately ripped
15 | (3/3) Accurately ripped
16 | (3/3) Accurately ripped
17 | (3/3) Accurately ripped
18 | (3/3) Accurately ripped
19 | (3/3) Accurately ripped
20 | (3/3) Accurately ripped
[AccurateRip ID: 00343632-031059d4-2a122914] found.
Track [ CRC | V2 ] Status
01 [d7621d6c|d42376e0] (0+1/2) Accurately ripped
02 [6ed6e4fd|77a4c967] (0+1/2) Accurately ripped
03 [6c24d3ac|636528fd] (0+1/2) Accurately ripped
04 [dbceff8e|3630ac9b] (0+1/2) Accurately ripped
05 [5c271245|ff4c9f1a] (0+1/2) Accurately ripped
06 [bd2660a0|9f0f8bce] (0+1/2) Accurately ripped
07 [06a1ef0c|988b6d3d] (0+1/2) Accurately ripped
08 [6614efbd|1a65bc47] (0+1/2) Accurately ripped
09 [2bdc4701|d92bacdd] (0+1/2) Accurately ripped
10 [7f027f01|1baf8d61] (0+1/2) Accurately ripped
11 [3eb2565b|66de141c] (0+1/2) Accurately ripped
12 [0848aba3|2b3b2cd8] (0+1/2) Accurately ripped
13 [8254f429|80207f2a] (0+1/2) Accurately ripped
14 [6bb0a3af|cdb2539a] (0+1/2) Accurately ripped
15 [ca33cfba|c1a8475e] (0+1/2) Accurately ripped
16 [b7cd8d0d|3f2f89be] (0+1/2) Accurately ripped
17 [ccb9a412|15fd8003] (0+1/2) Accurately ripped
18 [0e8b93ac|c3379958] (0+1/2) Accurately ripped
19 [093a897d|4a2ded81] (0+1/2) Accurately ripped
20 [972c573f|28771abf] (0+1/2) Accurately ripped

Track Peak [ CRC32 ] [W/O NULL] [ LOG ]
-- 100,0 [091449AD] [DE43EEDC] CRC32
01 98,8 [BB78B3F8] [2AD6A1B0]
02 98,8 [49511D26] [E5ABEBA5]
03 79,0 [25E81328] [86694AE3]
04 93,9 [34AE3799] [6A5F6AAE]
05 93,9 [4B7E6BE1] [12FA90B7]
06 93,9 [8E5F5548] [4681CAD5]
07 98,5 [21111CD3] [856C0CD8]
08 97,4 [07949008] [CB735FEF]
09 98,8 [FE3AE442] [5D71B4A6]
10 98,8 [0FF2B18C] [C6BC7449]
11 98,8 [541E81DE] [37B6F53A]
12 96,5 [60DE6A28] [473456A6]
13 96,5 [E2368219] [9622E4E7]
14 100,0 [665EB33E] [3BF73A6E]
15 96,5 [0005113C] [F293FF31]
16 96,5 [637F12F3] [1869FB30]
17 98,8 [D91D9D2B] [BFE4EA02]
18 98,8 [C9309A72] [CF1A5DB8]
19 98,8 [2874ADC2] [47BE6A02]
20 98,8 [BDEB2804] [550AB6B9]

2

3

4

All thanks go to the original ripper(s) ...
Download:




Asia Tour 2010 In Japan Ready | Bee Gees | Asia Tour 2010 In Japan Ready | Bee Gees Here At Last | Battlestar Galactica 2004 2010 | I Am Number Four 2010 | The Bee Gees | Bee Gees This Is Where I Came In | Bee Gees 320 | Bee Gees Number Ones
Free Full Download Bee Gees - Number Ones (2004) 2010 form MediaFire link RapidShare, ifile.it, Uploaded.to, Zippyshare, FileSonic, turbobit, ul.to, ORON, DepositFiles,rapidgator.net, extabit.com, filefactory.com. Bee Gees - Number Ones (2004) 2010 Torrent Download with keygen, crack, serial, cdkey,password,1080P,hd, 2015, 2016
Dear visitor, you went to the site as unregistered user.
We encourage you to register .

Add comment

Name:*
E-Mail:*
Comment:
  • bowtiesmilelaughingblushsmileyrelaxedsmirk
    heart_eyeskissing_heartkissing_closed_eyesflushedrelievedsatisfiedgrin
    winkstuck_out_tongue_winking_eyestuck_out_tongue_closed_eyesgrinningkissingstuck_out_tonguesleeping
    worriedfrowninganguishedopen_mouthgrimacingconfusedhushed
    expressionlessunamusedsweat_smilesweatdisappointed_relievedwearypensive
    disappointedconfoundedfearfulcold_sweatperseverecrysob
    joyastonishedscreamtired_faceangryragetriumph
    sleepyyummasksunglassesdizzy_faceimpsmiling_imp
    neutral_faceno_mouthinnocent
Enter the two words shown in the image:

Sitemap We don't Store Any File In Server. The Search and free download links all published by our users.if You Have Any Doubts About Legality Of Content, plz contact us.
  • count 88x31px