Rob Blaine - Rob Blaines Big Otis Blues (2010)

alice Category: music

Rob Blaine - Rob Blaine's Big Otis Blues (2010)
EAC Rip | FLAC (Image) + CUE + LOG | Covers | 341 MB
Genre: Blues | Label: Swississippi Records | Release Date: September 21, 2010 | Catalog Number: SR5802
Hoster: Uploaded + DepositFiles | RAR 5% Rec.

The liner notes are on-target when they say Rob Blaine yanks big chunks of music from his guitar.-- by Vintage Guitar - January 2011
Sounds like a super,lost soul session...Hot stuff.-- by Midwest Review
Rob Blaine serves up hot contemporary blues for Swississippi on the excellent Big Otis Blues. The 12-track CD immediately sets the bar high with the explosive Not The Forgiving Kind, where Blaine showcases both his sharp guitar chops as well as his husky, passionate vocals-- by Illinois Entertainer
------------
Tracklist
------------
. Not The Forgiving Kind 3:15
2. Only Mine 4:29
3. Affection And Pain 3:38
4. Same Old Blues 4:36
5. Hourglass Baby 2:59
6. Gone, Not Forgot 3:48
7. Trouble 4:21
8. Can't Help But Wonder 7:15
9. Must Be Nice 5:04
10. Find A Way 5:57
11. Don't Burn Down The Bridge 2:54
12. Must Be Nice (Acoustic) 4:20


Personnel:
Big Rob Blaine - Guitar,Vocals
Joewaun "Man" Scott - Bass
James Knowles - Drums
Marty Sammon - Piano
Roosevelt Purifox - Organ,Clavinet
Gary Gary - Organ
Ariyo Sumito Ariyyoshi - Piano
pete Galanis - Slide Guitar
Nigel Mack - National Steel
Cory Dennison - Background Vocals



EAC LOG
Exact Audio Copy V1.0 beta 3 from 29. August 2011

EAC extraction logfile from 7. June 2013, 15:05

Rob Blaine / Rob Blaine's Big Otis Blues

Used drive : ASUS BC-12B1ST Adapter: 3 ID: 0

Read mode : Secure
Utilize accurate stream : Yes
Defeat audio cache : Yes
Make use of C2 pointers : No

Read offset correction : 702
Overread into Lead-In and Lead-Out : No
Fill up missing offset samples with silence : Yes
Delete leading and trailing silent blocks : No
Null samples used in CRC calculations : Yes
Used interface : Native Win32 interface for Win NT & 2000

Used output format : User Defined Encoder
Selected bitrate : 1024 kBit/s
Quality : High
Add ID3 tag : No
Command line compressor : C:Program FilesExact Audio CopyFlacflac.exe
Additional command line options : -6 -V -T "ARTIST=%artist%" -T "TITLE=%title%" -T "ALBUM=%albumtitle%" -T "DATE=%year%" -T "TRACKNUMBER=%tracknr%" -T "GENRE=%genre%" -T "COMMENT=%comment%" -T "BAND=%albuminterpret%" -T "ALBUMARTIST=%albuminterpret%" -T "COMPOSER=%composer%" %haslyrics%--tag-from-file=LYRICS="%lyricsfile%"%haslyrics% -T "DISCNUMBER=%cdnumber%" -T "TOTALDISCS=%totalcds%" -T "TOTALTRACKS=%numtracks%" %hascover%--picture="%coverfile%"%hascover% %source% -o %dest% TOC of the extracted CD

Track | Start | Length | Start sector | End sector
---------------------------------------------------------
1 | 0:00.00 | 3:15.19 | 0 | 14643
2 | 3:15.19 | 4:29.48 | 14644 | 34866
3 | 7:44.67 | 3:38.32 | 34867 | 51248
4 | 11:23.24 | 4:36.21 | 51249 | 71969
5 | 15:59.45 | 2:59.27 | 71970 | 85421
6 | 18:58.72 | 3:48.05 | 85422 | 102526
7 | 22:47.02 | 4:21.48 | 102527 | 122149
8 | 27:08.50 | 7:15.68 | 122150 | 154842
9 | 34:24.43 | 5:04.16 | 154843 | 177658
10 | 39:28.59 | 5:57.65 | 177659 | 204498
11 | 45:26.49 | 2:54.54 | 204499 | 217602
12 | 48:21.28 | 4:19.58 | 217603 | 237085 Range status and errors

Selected range

Filename D:MUSIKBLUESRob Blaine - Rob Blaine's Big Otis Blues [FLAC] (2010)Rob Blaine - Rob Blaine's Big Otis Blues.wav

Peak level 97.0 %
Extraction speed 7.5 X
Range quality 100.0 %
Copy CRC 21C56E33
Copy OK

No errors occurred


AccurateRip summary

Track 1 cannot be verified as accurate (confidence 1) [2B8C37D1], AccurateRip returned [EEEF090D] (AR v2)
Track 2 cannot be verified as accurate (confidence 1) [030BA039], AccurateRip returned [9DDCE6C8] (AR v2)
Track 3 cannot be verified as accurate (confidence 1) [F70A584F], AccurateRip returned [22DF73B3] (AR v2)
Track 4 cannot be verified as accurate (confidence 1) [0C3A5A98], AccurateRip returned [62805EA5] (AR v2)
Track 5 cannot be verified as accurate (confidence 1) [09B62CAE], AccurateRip returned [E2BE02F1] (AR v2)
Track 6 cannot be verified as accurate (confidence 1) [268E04FA], AccurateRip returned [0522831E] (AR v2)
Track 7 cannot be verified as accurate (confidence 1) [6F41A78C], AccurateRip returned [F06B6599] (AR v2)
Track 8 cannot be verified as accurate (confidence 1) [66DF8ED5], AccurateRip returned [ABF3854B] (AR v2)
Track 9 cannot be verified as accurate (confidence 1) [BDC2565B], AccurateRip returned [CF07E66A] (AR v2)
Track 10 cannot be verified as accurate (confidence 1) [1EB9A0B7], AccurateRip returned [19782B9D] (AR v2)
Track 11 cannot be verified as accurate (confidence 1) [2D129B87], AccurateRip returned [07A71E1E] (AR v2)
Track 12 cannot be verified as accurate (confidence 1) [D6BF7BFF], AccurateRip returned [91CCA44D] (AR v2)

No tracks could be verified as accurate
You may have a different pressing from the one(s) in the database

End of status report

==== Log checksum B70DE0AA3BB3ACFEF883B20DFC4C1B4D56BCEEF8739AB638F070023198C65348 ====


Dynamic Range Analysis
foobar2000 1.2.6 / Dynamic Range Meter 1.1.1
log date: 2013-06-07 15:06:19

--------------------------------------------------------------------------------
Analyzed: Rob Blaine / Rob Blaine's Big Otis Blues
--------------------------------------------------------------------------------

DR Peak RMS Duration Track
--------------------------------------------------------------------------------
DR7 -0.26 dB -8.09 dB 3:15 01-Not The Forgiving Kind
DR6 -0.26 dB -7.82 dB 4:30 02-Only Mine
DR7 -0.26 dB -7.93 dB 3:38 03-Affection And Pain
DR6 -0.26 dB -7.53 dB 4:36 04-Same Old Blues
DR7 -0.26 dB -8.05 dB 2:59 05-Hourglass Baby
DR10 -0.96 dB -12.86 dB 3:48 06-Gone, Not Forgot
DR7 -0.26 dB -8.30 dB 4:22 07-Trouble
DR6 -0.26 dB -7.80 dB 7:16 08-Can't Help But Wonder
DR6 -0.26 dB -7.49 dB 5:04 09-Must Be Nice
DR7 -0.26 dB -9.81 dB 5:58 10-Find A Way
DR6 -0.26 dB -7.33 dB 2:55 11-Don't Burn Down The Bridge
DR8 -0.96 dB -11.74 dB 4:20 12-Must Be Nice (Acoustic)
--------------------------------------------------------------------------------

Number of tracks: 12
Official DR value: DR7

Samplerate: 44100 Hz
Channels: 2
Bits per sample: 16
Bitrate: 876 kbps
Codec: FLAC
================================================================================


BIO: Rob Blaine- Born in Chicago 1981, moved to Michigan, grew up listening to Blues, R&B, Funk, Rock, Soul, because of his father. Began playing guitar at 15, started giging and playing out by age of 17 with his guitar teacher, Charlie Schantz's band.Playing the blues standards. Started his own band with his brother Buck and other friends, playing around Grand Rapids for the next couple of years. He moved back to Chicago in 2003, where since has been on 3 U.S tours, and one European tour. Touring with Little Milton before his untimely passing, and currently touring with the Chicago Rythme & Blues Kings (formerly Big Twist and the Mellow Fellows) featuring Gene Barge a.k.a. Daddy G., and his own band. Big Rob Blaine plays at Kingston Mines every tuesday and at B.L.U.E.S. on Halsted once a month.-- by Amazon




In case you encounter dead links in any of my posts, please send me a private message !!!!

NO mirrors and/or direct links in your comments, please !!!!

****Visit My Blog****

Uploaded

DepositFiles

***** Pass: countryfreak *****



Otis Spann | Johnny Otis | Otis Redding Dictionary | Ella Frank Brooke Blaine | Kanye West And Jay Z Otis | Sons Of Otis | Adventures Of Milo And Otis | Otis Rush Live | Milo Otis 1986 | David Blaine Real Or Magic
Free Full Download Rob Blaine - Rob Blaines Big Otis Blues form MediaFire link RapidShare, ifile.it, Uploaded.to, Zippyshare, FileSonic, turbobit, ul.to, ORON, DepositFiles,rapidgator.net, extabit.com, filefactory.com. Rob Blaine - Rob Blaines Big Otis Blues Torrent Download with keygen, crack, serial, cdkey,password,1080P,hd, 2015, 2016
Dear visitor, you went to the site as unregistered user.
We encourage you to register .

Add comment

Name:*
E-Mail:*
Comment:
  • bowtiesmilelaughingblushsmileyrelaxedsmirk
    heart_eyeskissing_heartkissing_closed_eyesflushedrelievedsatisfiedgrin
    winkstuck_out_tongue_winking_eyestuck_out_tongue_closed_eyesgrinningkissingstuck_out_tonguesleeping
    worriedfrowninganguishedopen_mouthgrimacingconfusedhushed
    expressionlessunamusedsweat_smilesweatdisappointed_relievedwearypensive
    disappointedconfoundedfearfulcold_sweatperseverecrysob
    joyastonishedscreamtired_faceangryragetriumph
    sleepyyummasksunglassesdizzy_faceimpsmiling_imp
    neutral_faceno_mouthinnocent
Enter the two words shown in the image:

Sitemap We don't Store Any File In Server. The Search and free download links all published by our users.if You Have Any Doubts About Legality Of Content, plz contact us.
  • count 88x31px