Gloria Coates - At Midnight (2013) Tzadik Composer Series

jone Category: music

Gloria Coates - At Midnight (2013) {Tzadik Composer Series}
EAC rip (secure mode) | FLAC (tracks)+CUE+LOG -> 310 Mb | MP3 @320 -> 167 Mb | Artwork | 5% repair rar
© 2013 Tzadik | Composer Series | TZ 8096
Classical / Avant-Garde / Chamber Music

Born in Wisconsin and a resident of Germany since 1969, Gloria Coates has been composing for over fifty years. Her work is complex, filled with canons, palindromes, polyrhythms, dissonances, glissandi and is distinguished by a wide expressive and emotional range. Her first CD on Tzadik presents a varied program of music for solo piano, a string quartet, her exciting violin concerto, a piece for bass and piano and a fabulous piece for two tuning guitars. An historic release by one of the world’s most courageous and original musical pioneers!



Personnel:
Cambridge University Orchestra
Ruth Fischer: Guitar
Morgan Goff: Viola
Neil Heyde: Cello
Christine Hoock: Double Bass
Peter Sheppard Skaerved: Violin
Stephen Stiens: Guitar
Alessandro Taverna: Piano
Neil Thomson: Conductor
Mihailo Trandafilovski: Violin

tracklist:
01. I: Holographic Universe
02. I: Holographic Universe
03. I: Holographic Universe
04. II: Where the Eagle Flies
05. II: Where the Eagle Flies
06. II: Where the Eagle Flies
07. II: Where the Eagle Flies
08. III: Among the Asteroids
09. IV: Lunar Loops
10. V: The Silver Eyed Soul

EAC log
Exact Audio Copy V1.0 beta 3 from 29. August 2011

EAC extraction logfile from 15. February 2014, 10:54

Gloria Coates / At Midnight

Used drive : hp DVDWBD TS-LB23P Adapter: 0 ID: 1

Read mode : Secure
Utilize accurate stream : Yes
Defeat audio cache : Yes
Make use of C2 pointers : No

Read offset correction : 6
Overread into Lead-In and Lead-Out : No
Fill up missing offset samples with silence : Yes
Delete leading and trailing silent blocks : No
Null samples used in CRC calculations : Yes
Used interface : Native Win32 interface for Win NT & 2000
Gap handling : Appended to previous track

Used output format : User Defined Encoder
Selected bitrate : 1024 kBit/s
Quality : High
Add ID3 tag : No
Command line compressor : C:ProgramsExact Audio CopyFlacflac.exe
Additional command line options : -8 -V -T "ARTIST=%artist%" -T "TITLE=%title%" -T "ALBUM=%albumtitle%" -T "DATE=%year%" -T "TRACKNUMBER=%tracknr%" -T "GENRE=%genre%" -T "PERFORMER=%albuminterpret%" -T "COMPOSER=%composer%" %haslyrics%--tag-from-file=LYRICS="%lyricsfile%"%haslyrics% -T "ALBUMARTIST=%albumartist%" -T "DISCNUMBER=%cdnumber%" -T "TOTALDISCS=%totalcds%" -T "TOTALTRACKS=%numtracks%" -T "COMMENT=%comment%" %source% -o %dest% TOC of the extracted CD

Track | Start | Length | Start sector | End sector
---------------------------------------------------------
1 | 0:00.00 | 7:08.41 | 0 | 32140
2 | 7:08.41 | 5:26.50 | 32141 | 56640
3 | 12:35.16 | 8:04.01 | 56641 | 92941
4 | 20:39.17 | 4:16.65 | 92942 | 112206
5 | 24:56.07 | 3:20.61 | 112207 | 127267
6 | 28:16.68 | 1:21.72 | 127268 | 133414
7 | 29:38.65 | 4:23.37 | 133415 | 153176
8 | 34:02.27 | 12:43.69 | 153177 | 210470
9 | 46:46.21 | 12:30.63 | 210471 | 266783
10 | 59:17.09 | 8:03.67 | 266784 | 303075 Track 1

Filename C:CD RipsGloria Coates - At Midnight (2013) [flac]1 - I Holographic Universe - Dark Energy.wav

Pre-gap length 0:00:02.00

Peak level 92.1 %
Extraction speed 1.3 X
Track quality 100.0 %
Test CRC B902B113
Copy CRC B902B113
Accurately ripped (confidence 1) [1AC5F97C] (AR v2)
Copy OK

Track 2

Filename C:CD RipsGloria Coates - At Midnight (2013) [flac]2 - I Holographic Universe - Mirror Manifolds.wav

Peak level 91.6 %
Extraction speed 1.8 X
Track quality 99.9 %
Test CRC DF5CF2D3
Copy CRC DF5CF2D3
Accurately ripped (confidence 1) [FEE11735] (AR v2)
Copy OK

Track 3

Filename C:CD RipsGloria Coates - At Midnight (2013) [flac]3 - I Holographic Universe - Holographic Universe.wav

Peak level 87.6 %
Extraction speed 1.7 X
Track quality 100.0 %
Test CRC F7B4AA38
Copy CRC F7B4AA38
Accurately ripped (confidence 1) [F5A57B5B] (AR v2)
Copy OK

Track 4

Filename C:CD RipsGloria Coates - At Midnight (2013) [flac]4 - II Where the Eagle Flies - Through.wav

Peak level 95.6 %
Extraction speed 2.5 X
Track quality 100.0 %
Test CRC EF8FBAE2
Copy CRC EF8FBAE2
Accurately ripped (confidence 1) [C27B314B] (AR v2)
Copy OK

Track 5

Filename C:CD RipsGloria Coates - At Midnight (2013) [flac]5 - II Where the Eagle Flies - Around.wav

Peak level 96.6 %
Extraction speed 1.5 X
Track quality 99.9 %
Test CRC 40DEDD3B
Copy CRC 40DEDD3B
Accurately ripped (confidence 1) [36F3FADB] (AR v2)
Copy OK

Track 6

Filename C:CD RipsGloria Coates - At Midnight (2013) [flac]6 - II Where the Eagle Flies - Above.wav

Peak level 87.5 %
Extraction speed 1.2 X
Track quality 99.8 %
Test CRC D82235B0
Copy CRC D82235B0
Accurately ripped (confidence 1) [82157CF8] (AR v2)
Copy OK

Track 7

Filename C:CD RipsGloria Coates - At Midnight (2013) [flac]7 - II Where the Eagle Flies - Below.wav

Peak level 96.6 %
Extraction speed 2.9 X
Track quality 100.0 %
Test CRC 7D82CB32
Copy CRC 7D82CB32
Accurately ripped (confidence 1) [08BEE129] (AR v2)
Copy OK

Track 8

Filename C:CD RipsGloria Coates - At Midnight (2013) [flac]8 - III Among the Asteroids.wav

Peak level 96.6 %
Extraction speed 2.2 X
Track quality 99.9 %
Test CRC F625CF76
Copy CRC F625CF76
Accurately ripped (confidence 1) [13300B55] (AR v2)
Copy OK

Track 9

Filename C:CD RipsGloria Coates - At Midnight (2013) [flac]9 - IV Lunar Loops.wav

Peak level 95.3 %
Extraction speed 2.5 X
Track quality 100.0 %
Test CRC EED418B9
Copy CRC EED418B9
Accurately ripped (confidence 1) [E543F731] (AR v2)
Copy OK

Track 10

Filename C:CD RipsGloria Coates - At Midnight (2013) [flac]10 - V The Silver Eyed Soul.wav

Peak level 93.4 %
Extraction speed 2.6 X
Track quality 100.0 %
Test CRC 5B58C996
Copy CRC 5B58C996
Accurately ripped (confidence 1) [6FF60058] (AR v2)
Copy OK All tracks accurately ripped

No errors occurred

End of status report

---- CUETools DB Plugin V2.1.3

[CTDB TOCID: kB8Z5NXMiyuMSW4UPOSSEHXncWU-] found, Submit result: already submitted
[bb8ccb32] (1/1) Accurately ripped ==== Log checksum A866B13C6A3B21425458839C56F1356E8050782D92843C1562BE7AFE7CD9CD8B ====




All thanks goes to the original releaser!

More Tzadik Composer Series:




Avid Media Composer | Simlab Composer | Avid Media Composer 8 1 | Media Composer Is Safe 1 | Avid Media Composer 8 3 0 | Avid Media Composer 8 1 | Midnight 2013 11 11 | Media Composer 6 0 1 1 | Media Composer Is Safe 1 | Avid Media Composer 8
Free Full Download Gloria Coates - At Midnight (2013) form MediaFire link RapidShare, ifile.it, Uploaded.to, Zippyshare, FileSonic, turbobit, ul.to, ORON, DepositFiles,rapidgator.net, extabit.com, filefactory.com. Gloria Coates - At Midnight (2013) Torrent Download with keygen, crack, serial, cdkey,password,1080P,hd, 2015, 2016
Dear visitor, you went to the site as unregistered user.
We encourage you to register .

Add comment

Name:*
E-Mail:*
Comment:
  • bowtiesmilelaughingblushsmileyrelaxedsmirk
    heart_eyeskissing_heartkissing_closed_eyesflushedrelievedsatisfiedgrin
    winkstuck_out_tongue_winking_eyestuck_out_tongue_closed_eyesgrinningkissingstuck_out_tonguesleeping
    worriedfrowninganguishedopen_mouthgrimacingconfusedhushed
    expressionlessunamusedsweat_smilesweatdisappointed_relievedwearypensive
    disappointedconfoundedfearfulcold_sweatperseverecrysob
    joyastonishedscreamtired_faceangryragetriumph
    sleepyyummasksunglassesdizzy_faceimpsmiling_imp
    neutral_faceno_mouthinnocent
Enter the two words shown in the image:

Sitemap We don't Store Any File In Server. The Search and free download links all published by our users.if You Have Any Doubts About Legality Of Content, plz contact us.
  • count 88x31px