Clarence Gatemouth Brown - The Man (1995)

jone Category: music

Clarence 'Gatemouth' Brown - The Man (1995)
EAC Rip | FLAC (Image) + CUE + LOG | Covers | 408 MB
Genre: Blues/Folk/R&B/Country | Label: Verve | Catalog Number: 5237612
Release Date: February 7, 1995 | Uploaded + DepositFiles | RAR 5% Rec.

Brown made the big jump to major-label stature for this typically unclassifiable set, which feistily sweeps through zydeco ("Big Mammou"), country ("Up Jumped the Devil"), Louis Jordan ("Early in the Morning"), and even a little blues along its unpredictable course. Cajun accordionist Jo-El Sonnier receives several solos in a guest-starring role.-- by Bill Dahl
------------
Tracklist
------------
1. Honky Tonk 4:56
2. Early In The Morning 4:03
3. You Can Disagree 6:02
4. Say You Love Me 3:49
5. I Wonder 3:29
6. Unchained Melody 4:25
7. Big Mammou 4:06
8. There You Are 5:28
9. Solid Gold Plated Fool 3:53
10. Old Folks Cry A Lot More (Than We'll Ever Know) 4:19
11. Jambalaya 6:40
12. Someday My Luck Will Change 5:33
13. Up Jumped The Devil 5:25


Personnel:
Clarence 'Gatemouth' Brown - Vocal,Violin,Viola,Guitar
Jo-El Sonnier - Accordions
Ron Harris,Luther Wamble - Guitars
Tommy Moran - Pedal Steel Guitar,Guitars
Joe Krown - Piano,Organ
Harold Floyd - Bass
David Peters - Drums
Elaine Foster,Lisa Foster,Erica Falls - Background Vocals
Terry Townsn - Trumpets
Bobby Campo - Trumpet,Flutes
Peter McEachern,Chris Belleau - Trombone
Eric Demmer - Alto Sax
Dennis Taylor - Tenor Sax
Jon Smith - Sax
Bill Samuel - Bariton Sax



EAC LOG
Exact Audio Copy V1.0 beta 3 from 29. August 2011

EAC extraction logfile from 14. May 2013, 11:34

Clarence 'Gatemouth' Brown / The Man

Used drive : ASUS DRW-24B1LT Adapter: 3 ID: 0

Read mode : Secure
Utilize accurate stream : Yes
Defeat audio cache : No
Make use of C2 pointers : Yes

Read offset correction : 6
Overread into Lead-In and Lead-Out : No
Fill up missing offset samples with silence : Yes
Delete leading and trailing silent blocks : No
Null samples used in CRC calculations : Yes
Used interface : Native Win32 interface for Win NT & 2000

Used output format : User Defined Encoder
Selected bitrate : 1024 kBit/s
Quality : High
Add ID3 tag : Yes
Command line compressor : C:Program FilesExact Audio CopyFLACFLAC.EXE
Additional command line options : -6 -V -T "ARTIST=%artist%" -T "TITLE=%title%" -T "ALBUM=%albumtitle%" -T "DATE=%year%" -T "TRACKNUMBER=%tracknr%" -T "GENRE=%genre%" -T "COMMENT=%comment%" -T "BAND=%albuminterpret%" -T "ALBUMARTIST=%albuminterpret%" -T "COMPOSER=%composer%" %haslyrics%--tag-from-file=LYRICS="%lyricsfile%"%haslyrics% -T "DISCNUMBER=%cdnumber%" -T "TOTALDISCS=%totalcds%" -T "TOTALTRACKS=%numtracks%" %hascover%--picture="%coverfile%"%hascover% %source% -o %dest% TOC of the extracted CD

Track | Start | Length | Start sector | End sector
---------------------------------------------------------
1 | 0:00.00 | 4:56.03 | 0 | 22202
2 | 4:56.03 | 4:02.70 | 22203 | 40422
3 | 8:58.73 | 6:02.52 | 40423 | 67624
4 | 15:01.50 | 3:49.13 | 67625 | 84812
5 | 18:50.63 | 3:29.42 | 84813 | 100529
6 | 22:20.30 | 4:25.35 | 100530 | 120439
7 | 26:45.65 | 4:06.48 | 120440 | 138937
8 | 30:52.38 | 5:28.67 | 138938 | 163604
9 | 36:21.30 | 3:53.60 | 163605 | 181139
10 | 40:15.15 | 4:19.65 | 181140 | 200629
11 | 44:35.05 | 6:40.10 | 200630 | 230639
12 | 51:15.15 | 5:33.20 | 230640 | 255634
13 | 56:48.35 | 5:25.00 | 255635 | 280009 Range status and errors

Selected range

Filename D:MUSIKBLUESClarence 'Gatemouth' Brown - The Man [FLAC] (1995)Clarence 'Gatemouth' Brown - The Man.wav

Peak level 100.0 %
Extraction speed 21.0 X
Range quality 100.0 %
Copy CRC 6A214E4E
Copy OK

No errors occurred


AccurateRip summary

Track 1 not present in database
Track 2 not present in database
Track 3 not present in database
Track 4 not present in database
Track 5 not present in database
Track 6 not present in database
Track 7 not present in database
Track 8 not present in database
Track 9 not present in database
Track 10 not present in database
Track 11 not present in database
Track 12 not present in database
Track 13 not present in database

None of the tracks are present in the AccurateRip database

End of status report

==== Log checksum A301E676668AC557960DD418E9420A2097F71876925CB4AF00761396ABDECD55 ====


Dynamic Range Analysis
foobar2000 1.1.14a / Dynamic Range Meter 1.1.1
log date: 2013-05-14 11:36:02

--------------------------------------------------------------------------------
Analyzed: Clarence 'Gatemouth' Brown / The Man
--------------------------------------------------------------------------------

DR Peak RMS Duration Track
--------------------------------------------------------------------------------
DR13 -0.03 dB -14.85 dB 4:56 01-Honky Tonk
DR12 -0.03 dB -14.01 dB 4:03 02-Early In The Morning
DR10 -0.03 dB -13.08 dB 6:03 03-You Can Disagree
DR13 -0.03 dB -14.59 dB 3:49 04-Say You Love Me
DR10 -0.03 dB -11.76 dB 3:30 05-I Wonder
DR12 -0.03 dB -17.35 dB 4:25 06-Unchained Melody
DR12 -0.03 dB -13.95 dB 4:07 07-Big Mammou
DR10 -0.03 dB -12.37 dB 5:29 08-There You Are
DR13 0.00 dB -14.38 dB 3:54 09-Solid Gold Plated Fool
DR11 0.00 dB -12.62 dB 4:20 10-Old Folks Cry A Lot More (Than We'll Ever Know)
DR10 -1.87 dB -13.43 dB 6:40 11-Jambalaya
DR10 0.00 dB -12.65 dB 5:33 12-Someday My Luck Will Change
DR9 0.00 dB -10.99 dB 5:25 13-Up Jumped The Devil
--------------------------------------------------------------------------------

Number of tracks: 13
Official DR value: DR11

Samplerate: 44100 Hz
Channels: 2
Bits per sample: 16
Bitrate: 820 kbps
Codec: FLAC
================================================================================


In case you encounter dead links in any of my posts, please send me a private message !!!!

NO mirrors and/or direct links in your comments, please !!!!

****Visit My Blog****



Uploaded

DepositFiles

***** Pass: countryfreak *****



Clarence S01E00 Is Safe 1 | Clarence Reid | The Five 1995 | 1995 Bla Bla Bla | Men Of War 1995 | The Dig Pc 1995 | Chris Brown Chris Brown Is Safe 1 | Best Of The Best 1995 | Clarence S01E00 Is Safe 1 | Just Cause 1995
Free Full Download Clarence Gatemouth Brown - The Man form MediaFire link RapidShare, ifile.it, Uploaded.to, Zippyshare, FileSonic, turbobit, ul.to, ORON, DepositFiles,rapidgator.net, extabit.com, filefactory.com. Clarence Gatemouth Brown - The Man Torrent Download with keygen, crack, serial, cdkey,password,1080P,hd, 2015, 2016
Dear visitor, you went to the site as unregistered user.
We encourage you to register .

Add comment

Name:*
E-Mail:*
Comment:
  • bowtiesmilelaughingblushsmileyrelaxedsmirk
    heart_eyeskissing_heartkissing_closed_eyesflushedrelievedsatisfiedgrin
    winkstuck_out_tongue_winking_eyestuck_out_tongue_closed_eyesgrinningkissingstuck_out_tonguesleeping
    worriedfrowninganguishedopen_mouthgrimacingconfusedhushed
    expressionlessunamusedsweat_smilesweatdisappointed_relievedwearypensive
    disappointedconfoundedfearfulcold_sweatperseverecrysob
    joyastonishedscreamtired_faceangryragetriumph
    sleepyyummasksunglassesdizzy_faceimpsmiling_imp
    neutral_faceno_mouthinnocent
Enter the two words shown in the image:

Sitemap We don't Store Any File In Server. The Search and free download links all published by our users.if You Have Any Doubts About Legality Of Content, plz contact us.
  • count 88x31px