Herbert von Karajan Berlin Philharmonic - Mozart: Late Symphonies Nos. 29 32 33 35 36 38-41 (2008) SHM

peter Category: music

Herbert von Karajan, Berlin Philharmonic - Mozart: Late Symphonies Nos. 29, 32, 33, 35, 36, 38-41 (2008) [SHM-CD]
FLAC | 3 CDs | EAC+CUEs+LOGs | Full High Quality Artwork | Total Time: 221:18 | 972 MB
Genre: Classical | Style: Romantic | Label: Universal Classics UCCG9755-7 | Country/Year: Japan, 2008 | 5% Rec. Info


This is a terrific version of a set of Wolfgang Amadeus Mozart's later symphonies, Numbers 29, 32, 33, 35, 36, 38, 39, 40 and 41. Herbert von Karajan conducts the Berlin Philharmonic and the end result is splendid! It also helps to have that wonderful instrument, the Berlin Philharmonic, as a partner in this great music. Even a nonmusician can hear in these recordings the glories of structure that Mozart achieved in these late works, with the result that they are so often far greater than the sum of their parts. The modern "HIP" set may prefer trendy small original instrument ensembles, but these recordings swept me out to sea. If you listen to Bruno Walter's romantic interpretations of the G Minor and the Jupiter, Karajan hasn't wandered so far from home here.

Von Karajan was a perfectionist, and these are truly great performances which have aged very well indeed. The Berlin Philharmonic are sumptuous, but not excessively so. This is Mozart for the purist, the collector, and an excellent starting point for anyone wanting to experience Mozart for the first time. The recordings, several decades old, are superb: there is a warmth, a mellowness here without sacrificing detail.

The performances are absolutely wonderful-- von Karajan is superb in Mozart, and the Berlin Philharmonic has never sounded better. Each disc is filled to the brim, the remastered recordings are superb. I cannot imagine a better collection of late Mozart, and for seasoned collectors there is a lot to savor here. Very, VERY highly recommended!!!



Disc 1:
Symphony No.32 In G, K.318 (Overture In G)
Symphony No.33 in B flat, K.319
Symphony No.35 In D, K.385 "Haffner"
Symphony No.36 In C, K.425 - "Linz"

Disc 2:
Symphony No.29 in A, K.201
Symphony No.38 In D, K.504 "Prague"
Symphony No.39 In E Flat, K.543

Disc 3:
Symphony No.40 In G Minor, K.550
Symphony No.41 "Jupiter"


EAC Log CD 1
Exact Audio Copy V1.0 beta 1 from 15. November 2010

EAC extraction logfile from 5. September 2011, 15:43

Berlin Philharmonic, Herbert von Karajan / Mozart Symphonien (SHM-CD) CD1

Used drive : LITE-ON LTR-16102B Adapter: 1 ID: 0

Read mode : Secure
Utilize accurate stream : Yes
Defeat audio cache : Yes
Make use of C2 pointers : No

Read offset correction : 12
Overread into Lead-In and Lead-Out : No
Fill up missing offset samples with silence : Yes
Delete leading and trailing silent blocks : No
Null samples used in CRC calculations : Yes
Used interface : Native Win32 interface for Win NT & 2000

Used output format : Internal WAV Routines
Sample format : 44.100 Hz; 16 Bit; Stereo TOC of the extracted CD

Track | Start | Length | Start sector | End sector
---------------------------------------------------------
1 | 0:00.00 | 7:08.32 | 0 | 32131
2 | 7:08.32 | 6:02.18 | 32132 | 59299
3 | 13:10.50 | 4:07.10 | 59300 | 77834
4 | 17:17.60 | 4:14.15 | 77835 | 96899
5 | 21:32.00 | 9:02.70 | 96900 | 137619
6 | 30:34.70 | 6:55.45 | 137620 | 168789
7 | 37:30.40 | 4:56.12 | 168790 | 191001
8 | 42:26.52 | 3:28.60 | 191002 | 206661
9 | 45:55.37 | 4:20.38 | 206662 | 226199 Range status and errors

Selected range

Filename D:MusicDeccaUCCG9755-7_Karajan - Mozart Symphonien (SHM-CD)CD1CD1Image.wav

Peak level 89.1 %
Extraction speed 0.5 X
Range quality 100.0 %
Copy CRC 42D8F734
Copy OK

No errors occurred


AccurateRip summary

Track 1 not present in database
Track 2 not present in database
Track 3 not present in database
Track 4 not present in database
Track 5 not present in database
Track 6 not present in database
Track 7 not present in database
Track 8 not present in database
Track 9 not present in database

None of the tracks are present in the AccurateRip database

End of status report

EAC Log CD 2
Exact Audio Copy V1.0 beta 1 from 15. November 2010

EAC extraction logfile from 5. September 2011, 15:56

Herbert von Karajan, Berlin Philharmonic / Mozart Symphonien (SHM-CD) CD2

Used drive : LITE-ON LTR-16102B Adapter: 1 ID: 0

Read mode : Secure
Utilize accurate stream : Yes
Defeat audio cache : Yes
Make use of C2 pointers : No

Read offset correction : 12
Overread into Lead-In and Lead-Out : No
Fill up missing offset samples with silence : Yes
Delete leading and trailing silent blocks : No
Null samples used in CRC calculations : Yes
Used interface : Native Win32 interface for Win NT & 2000

Used output format : Internal WAV Routines
Sample format : 44.100 Hz; 16 Bit; Stereo TOC of the extracted CD

Track | Start | Length | Start sector | End sector
---------------------------------------------------------
1 | 0:00.33 | 5:32.00 | 33 | 24932
2 | 5:32.33 | 4:22.00 | 24933 | 44582
3 | 9:54.33 | 3:18.00 | 44583 | 59432
4 | 13:12.33 | 3:42.00 | 59433 | 76082
5 | 16:54.33 | 7:59.00 | 76083 | 112007
6 | 24:53.33 | 7:02.00 | 112008 | 143657
7 | 31:55.33 | 4:21.00 | 143658 | 163232
8 | 36:16.33 | 7:21.00 | 163233 | 196307
9 | 43:37.33 | 10:24.00 | 196308 | 243107
10 | 54:01.33 | 9:04.00 | 243108 | 283907
11 | 63:05.33 | 5:37.00 | 283908 | 309182 Range status and errors

Selected range

Filename D:MusicDeccaUCCG9755-7_Karajan - Mozart Symphonien (SHM-CD)CD2CD2Image.wav

Peak level 99.9 %
Extraction speed 0.5 X
Range quality 100.0 %
Copy CRC E0AE216D
Copy OK

No errors occurred


AccurateRip summary

Track 1 accurately ripped (confidence 4) [6CFBC6B1]
Track 2 accurately ripped (confidence 4) [68F3AA18]
Track 3 accurately ripped (confidence 4) [C69A8509]
Track 4 accurately ripped (confidence 4) [FFDE7114]
Track 5 accurately ripped (confidence 4) [8D62E78D]
Track 6 accurately ripped (confidence 4) [5C75ACFF]
Track 7 accurately ripped (confidence 4) [DD75FEFF]
Track 8 accurately ripped (confidence 4) [D063690C]
Track 9 accurately ripped (confidence 4) [DFB9FAC8]
Track 10 accurately ripped (confidence 4) [FD09BB56]
Track 11 accurately ripped (confidence 4) [DB419FEA]

All tracks accurately ripped

End of status reportEnd of status report

EAC Log CD 3
Exact Audio Copy V1.0 beta 1 from 15. November 2010

EAC extraction logfile from 5. September 2011, 17:27

Berlin Philharmonic, Herbert von Karajan / Mozart Symphonien (SHM-CD) CD3

Used drive : LITE-ON LTR-16102B Adapter: 1 ID: 0

Read mode : Secure
Utilize accurate stream : Yes
Defeat audio cache : Yes
Make use of C2 pointers : No

Read offset correction : 12
Overread into Lead-In and Lead-Out : No
Fill up missing offset samples with silence : Yes
Delete leading and trailing silent blocks : No
Null samples used in CRC calculations : Yes
Used interface : Native Win32 interface for Win NT & 2000

Used output format : Internal WAV Routines
Sample format : 44.100 Hz; 16 Bit; Stereo TOC of the extracted CD

Track | Start | Length | Start sector | End sector
---------------------------------------------------------
1 | 0:00.00 | 8:16.00 | 0 | 37199
2 | 8:16.00 | 8:14.00 | 37200 | 74249
3 | 16:30.00 | 4:08.00 | 74250 | 92849
4 | 20:38.00 | 4:11.00 | 92850 | 111674
5 | 24:49.00 | 7:20.00 | 111675 | 144674
6 | 32:09.00 | 7:46.00 | 144675 | 179624
7 | 39:55.00 | 4:38.00 | 179625 | 200474
8 | 44:33.00 | 4:42.00 | 200475 | 221624
9 | 49:15.00 | 11:24.00 | 221625 | 272924
10 | 60:39.00 | 7:47.00 | 272925 | 307949
11 | 68:26.00 | 5:11.00 | 307950 | 331274
12 | 73:37.00 | 6:03.00 | 331275 | 358499 Range status and errors

Selected range

Filename D:MusicDeccaUCCG9755-7_Karajan - Mozart Symphonien (SHM-CD)CD3CD3Image.wav

Peak level 99.9 %
Extraction speed 0.5 X
Range quality 100.0 %
Copy CRC C9B98B30
Copy OK

No errors occurred


AccurateRip summary

Track 1 accurately ripped (confidence 4) [DEE9E30C]
Track 2 accurately ripped (confidence 4) [A0ED20B8]
Track 3 accurately ripped (confidence 4) [35C34D0E]
Track 4 accurately ripped (confidence 4) [B2B6466E]
Track 5 accurately ripped (confidence 4) [E664AC65]
Track 6 accurately ripped (confidence 4) [98B242AA]
Track 7 accurately ripped (confidence 4) [D948FEAE]
Track 8 accurately ripped (confidence 4) [C027E8E0]
Track 9 accurately ripped (confidence 4) [5791CD00]
Track 10 accurately ripped (confidence 4) [330DBA3D]
Track 11 accurately ripped (confidence 4) [E1727AC2]
Track 12 accurately ripped (confidence 4) [4F73ACA5]

All tracks accurately ripped

End of status report


Download:




Late Late Show With James Corden S01E01 | Karajan Beethoven Symphonies | Mozart Symphonies Marriner | Fran Herbert S Dune | Mozart Coronation Mass Mozart | Der Himmel Berlin Uber Berlin | Late Late Show With James Corden S01E09 | Mozart 45 Symphonies | Mozart Requiem Karajan | Herbert Mp3 Is Safe 1
Free Full Download Herbert von Karajan Berlin Philharmonic form MediaFire link RapidShare, ifile.it, Uploaded.to, Zippyshare, FileSonic, turbobit, ul.to, ORON, DepositFiles,rapidgator.net, extabit.com, filefactory.com. Herbert von Karajan Berlin Philharmonic Torrent Download with keygen, crack, serial, cdkey,password,1080P,hd, 2015, 2016
Dear visitor, you went to the site as unregistered user.
We encourage you to register .

Add comment

Name:*
E-Mail:*
Comment:
  • bowtiesmilelaughingblushsmileyrelaxedsmirk
    heart_eyeskissing_heartkissing_closed_eyesflushedrelievedsatisfiedgrin
    winkstuck_out_tongue_winking_eyestuck_out_tongue_closed_eyesgrinningkissingstuck_out_tonguesleeping
    worriedfrowninganguishedopen_mouthgrimacingconfusedhushed
    expressionlessunamusedsweat_smilesweatdisappointed_relievedwearypensive
    disappointedconfoundedfearfulcold_sweatperseverecrysob
    joyastonishedscreamtired_faceangryragetriumph
    sleepyyummasksunglassesdizzy_faceimpsmiling_imp
    neutral_faceno_mouthinnocent
Enter the two words shown in the image:

Sitemap We don't Store Any File In Server. The Search and free download links all published by our users.if You Have Any Doubts About Legality Of Content, plz contact us.
  • count 88x31px