Ray Conniff - The Way We Were / The Happy Sound Of (2 LP in 1 CD 2002) Re-Up

peter Category: music

Ray Conniff
The Way We Were / The Happy Sound Of (2 LP in 1 CD , 2002)

EAC Rip | FLAC-TRACKS+CUE+LOG | 1CD | Scans | 62Min. | 426 MB
Label: Sony Music Collectables / Catalogue: COL-CD-7434 /
Easy Listening Pop / LP´s Released in 1974

I actually bought the CD "Ray Conniff: The Happy Sounds.../The Way We Were" as a gift for a family member. Listening to it with him, I realized how much talent was involved in the who orchestration of this CD. Conniff, a band musician first, never fails to deliver, not just vocal, but orchestral quality on this CD. The singers' rendition of the "Way We Were" is one of the best ever done.



The songs are never boring, with the energetic "The Entertainer" or "In the Mood" - it is actually hard to sit still. One can almost feel the excitement of the big ballrooms, even if they are too young to have danced in one.
Conniff and his group epitomize the word musician.This collection is a fantastic musical mix, with selections from the standards of the forties and fifties, the "original" Conniff sound, to some of the most popular somgs of the seventies. One of my all-time Conniff favorites was the original Quadraphonic LP from the seventies, "The Way We Were," and the Quad quality has not been lost on this CD. This collection is pure enjoyment!


Track Listings
1. The Most Beautiful Girl
2. Loves Me Like a Rock
3. Leave Me Alone (Ruby Red Dress)
4. Paper Roses
5. Goodbye Yellow Brick Road
6. Who's in the Strawberry Patch With Sally
7. The Way We Were [From The Way We Were]
8. Photograph
9. Beyond Tomorrow [Love Theme from Serpico]
10. Top of the World
11. Medley: Dear Father/Be [From Jonathan Livingston Seagull]
12. I'll Be With You in Apple Blossom Time
13. You Made Me Love You (I Didn't Want to Do It)
14. Don't Be That Way
15. When Mabel Comes in the Room [From Mack and Mabel]
16. White Silver Sands
17. The Entertainer
18. Chattanooga Choo Choo
19. In the Mood
20. Half as Much
21. It's a Sin to Tell a Lie
22. Ecstasy

EAC LOG
Exact Audio Copy V1.0 beta 3 from 29. August 2011

EAC extraction logfile from 26. May 2015, 11:55

Ray Conniff / The Way We Were / The Happy Sound Of

Used drive : SONY DVD RW DRU-840A Adapter: 0 ID: 1

Read mode : Secure
Utilize accurate stream : Yes
Defeat audio cache : Yes
Make use of C2 pointers : No

Read offset correction : 6
Overread into Lead-In and Lead-Out : No
Fill up missing offset samples with silence : Yes
Delete leading and trailing silent blocks : No
Null samples used in CRC calculations : Yes
Used interface : Native Win32 interface for Win NT & 2000
Gap handling : Not detected, thus appended to previous track

Used output format : User Defined Encoder
Selected bitrate : 320 kBit/s
Quality : High
Add ID3 tag : No
Command line compressor : C:Archivos de programaExact Audio CopyFLACFLAC.EXE
Additional command line options : -6 -V -T "ARTIST=%artist%" -T "TITLE=%title%" -T "ALBUM=%albumtitle%" -T "DATE=%year%" -T "TRACKNUMBER=%tracknr%" -T "GENRE=%genre%" -T "COMMENT=%comment%" -T "BAND=%albuminterpret%" -T "ALBUMARTIST=%albuminterpret%" -T "COMPOSER=%composer%" %haslyrics%--tag-from-file=LYRICS="%lyricsfile%"%haslyrics% -T "DISCNUMBER=%cdnumber%" -T "TOTALDISCS=%totalcds%" -T "TOTALTRACKS=%numtracks%" %hascover%--picture="%coverfile%"%hascover% %source% -o %dest% TOC of the extracted CD

Track | Start | Length | Start sector | End sector
---------------------------------------------------------
1 | 0:00.00 | 3:05.10 | 0 | 13884
2 | 3:05.10 | 2:33.07 | 13885 | 25366
3 | 5:38.17 | 2:38.00 | 25367 | 37216
4 | 8:16.17 | 2:50.28 | 37217 | 49994
5 | 11:06.45 | 3:17.37 | 49995 | 64806
6 | 14:24.07 | 2:23.28 | 64807 | 75559
7 | 16:47.35 | 2:40.55 | 75560 | 87614
8 | 19:28.15 | 2:47.65 | 87615 | 100204
9 | 22:16.05 | 3:00.67 | 100205 | 113771
10 | 25:16.72 | 2:58.33 | 113772 | 127154
11 | 28:15.30 | 3:10.07 | 127155 | 141411
12 | 31:25.37 | 2:09.63 | 141412 | 151149
13 | 33:35.25 | 2:49.30 | 151150 | 163854
14 | 36:24.55 | 2:42.22 | 163855 | 176026
15 | 39:07.02 | 2:37.15 | 176027 | 187816
16 | 41:44.17 | 2:30.63 | 187817 | 199129
17 | 44:15.05 | 2:37.42 | 199130 | 210946
18 | 46:52.47 | 3:33.38 | 210947 | 226959
19 | 50:26.10 | 3:10.12 | 226960 | 241221
20 | 53:36.22 | 3:05.13 | 241222 | 255109
21 | 56:41.35 | 2:49.42 | 255110 | 267826
22 | 59:31.02 | 3:12.00 | 267827 | 282226 Track 1

Filename E:MUSICMy MusicRe subirRay ConniffRay Conniff - The Way WE Were - The Happy Sound OfCD1 The Most Beautiful Girl.wav

Peak level 84.5 %
Extraction speed 1.5 X
Track quality 99.9 %
Test CRC 0C7E9E82
Copy CRC 0C7E9E82
Cannot be verified as accurate (confidence 3) [BA8DF0B4], AccurateRip returned [11C27CF1] (AR v2)
Copy OK

Track 2

Filename E:MUSICMy MusicRe subirRay ConniffRay Conniff - The Way WE Were - The Happy Sound OfCD2 Loves Me Like a Rock.wav

Peak level 92.3 %
Extraction speed 1.9 X
Track quality 100.0 %
Test CRC C62F622D
Copy CRC C62F622D
Cannot be verified as accurate (confidence 3) [EF384919], AccurateRip returned [55A38EE5] (AR v2)
Copy OK

Track 3

Filename E:MUSICMy MusicRe subirRay ConniffRay Conniff - The Way WE Were - The Happy Sound OfCD3 Leave Me Alone.wav

Peak level 91.7 %
Extraction speed 1.6 X
Track quality 99.9 %
Test CRC 177D4CFD
Copy CRC 177D4CFD
Cannot be verified as accurate (confidence 3) [4DF4CFFE], AccurateRip returned [512F3F30] (AR v2)
Copy OK

Track 4

Filename E:MUSICMy MusicRe subirRay ConniffRay Conniff - The Way WE Were - The Happy Sound OfCD4 Paper Roses.wav

Peak level 90.1 %
Extraction speed 1.7 X
Track quality 99.9 %
Test CRC 965D248D
Copy CRC 965D248D
Cannot be verified as accurate (confidence 3) [9465B1DC], AccurateRip returned [DF9BEE30] (AR v2)
Copy OK

Track 5

Filename E:MUSICMy MusicRe subirRay ConniffRay Conniff - The Way WE Were - The Happy Sound OfCD5 Goodbye Yellow Brick Road.wav

Peak level 88.1 %
Extraction speed 2.3 X
Track quality 100.0 %
Test CRC A6F6AD5F
Copy CRC A6F6AD5F
Cannot be verified as accurate (confidence 3) [4C648565], AccurateRip returned [781E8387] (AR v2)
Copy OK

Track 6

Filename E:MUSICMy MusicRe subirRay ConniffRay Conniff - The Way WE Were - The Happy Sound OfCD6 Who´s In The Strawberry Patch With Sally.wav

Peak level 91.0 %
Extraction speed 2.2 X
Track quality 100.0 %
Test CRC 3BFF4AAC
Copy CRC 3BFF4AAC
Cannot be verified as accurate (confidence 3) [B5146367], AccurateRip returned [94D7DFDA] (AR v2)
Copy OK

Track 7

Filename E:MUSICMy MusicRe subirRay ConniffRay Conniff - The Way WE Were - The Happy Sound OfCD7 The Wau We Were.wav

Peak level 86.4 %
Extraction speed 2.4 X
Track quality 100.0 %
Test CRC 5499401E
Copy CRC 5499401E
Cannot be verified as accurate (confidence 3) [F4873FB2], AccurateRip returned [170556DE] (AR v2)
Copy OK

Track 8

Filename E:MUSICMy MusicRe subirRay ConniffRay Conniff - The Way WE Were - The Happy Sound OfCD8 Photograph.wav

Peak level 92.0 %
Extraction speed 2.5 X
Track quality 100.0 %
Test CRC B240E3C6
Copy CRC B240E3C6
Cannot be verified as accurate (confidence 3) [DD8E802D], AccurateRip returned [5A5172E4] (AR v2)
Copy OK

Track 9

Filename E:MUSICMy MusicRe subirRay ConniffRay Conniff - The Way WE Were - The Happy Sound OfCD9 Beyond Tomorrow.wav

Peak level 82.6 %
Extraction speed 2.0 X
Track quality 99.9 %
Test CRC 6E3D6759
Copy CRC 6E3D6759
Cannot be verified as accurate (confidence 3) [A1267912], AccurateRip returned [8C614816] (AR v2)
Copy OK

Track 10

Filename E:MUSICMy MusicRe subirRay ConniffRay Conniff - The Way WE Were - The Happy Sound OfCD10 Top Of The World.wav

Peak level 89.7 %
Extraction speed 2.7 X
Track quality 100.0 %
Test CRC 04EF45FC
Copy CRC 04EF45FC
Cannot be verified as accurate (confidence 3) [682D311F], AccurateRip returned [D19C85DF] (AR v2)
Copy OK

Track 11

Filename E:MUSICMy MusicRe subirRay ConniffRay Conniff - The Way WE Were - The Happy Sound OfCD11 Medley - Dear Father , Be.wav

Peak level 90.2 %
Extraction speed 2.8 X
Track quality 100.0 %
Test CRC 5986515E
Copy CRC 5986515E
Cannot be verified as accurate (confidence 3) [48F8F57F], AccurateRip returned [B38FAFD5] (AR v2)
Copy OK

Track 12

Filename E:MUSICMy MusicRe subirRay ConniffRay Conniff - The Way WE Were - The Happy Sound OfCD12 I´ll Be With You In Apple Blossom Time.wav

Peak level 86.0 %
Extraction speed 2.6 X
Track quality 100.0 %
Test CRC F72EB970
Copy CRC F72EB970
Cannot be verified as accurate (confidence 3) [636A9F8B], AccurateRip returned [31C62D07] (AR v2)
Copy OK

Track 13

Filename E:MUSICMy MusicRe subirRay ConniffRay Conniff - The Way WE Were - The Happy Sound OfCD13 You Made Me Love You.wav

Peak level 88.1 %
Extraction speed 2.9 X
Track quality 100.0 %
Test CRC B13CCB1A
Copy CRC B13CCB1A
Cannot be verified as accurate (confidence 3) [F72F7863], AccurateRip returned [BEF3B125] (AR v2)
Copy OK

Track 14

Filename E:MUSICMy MusicRe subirRay ConniffRay Conniff - The Way WE Were - The Happy Sound OfCD14 Don´t Be That Way.wav

Peak level 83.4 %
Extraction speed 2.9 X
Track quality 100.0 %
Test CRC 168A0D6F
Copy CRC 168A0D6F
Cannot be verified as accurate (confidence 3) [15D90617], AccurateRip returned [2805049B] (AR v2)
Copy OK

Track 15

Filename E:MUSICMy MusicRe subirRay ConniffRay Conniff - The Way WE Were - The Happy Sound OfCD15 When Mable Comes In The Room.wav

Peak level 85.8 %
Extraction speed 3.0 X
Track quality 100.0 %
Test CRC F63568C0
Copy CRC F63568C0
Cannot be verified as accurate (confidence 3) [FC0BEE49], AccurateRip returned [E630A9AB] (AR v2)
Copy OK

Track 16

Filename E:MUSICMy MusicRe subirRay ConniffRay Conniff - The Way WE Were - The Happy Sound OfCD16 White Silver Sands.wav

Peak level 86.6 %
Extraction speed 3.0 X
Track quality 100.0 %
Test CRC 2DEEB9F2
Copy CRC 2DEEB9F2
Cannot be verified as accurate (confidence 3) [349A2C33], AccurateRip returned [705B1FEC] (AR v2)
Copy OK

Track 17

Filename E:MUSICMy MusicRe subirRay ConniffRay Conniff - The Way WE Were - The Happy Sound OfCD17 The Entertainer.wav

Peak level 82.6 %
Extraction speed 3.1 X
Track quality 100.0 %
Test CRC CD0F9916
Copy CRC CD0F9916
Cannot be verified as accurate (confidence 3) [65CB2550], AccurateRip returned [8D55D0D6] (AR v2)
Copy OK

Track 18

Filename E:MUSICMy MusicRe subirRay ConniffRay Conniff - The Way WE Were - The Happy Sound OfCD18 Chattanooga Choo Choo.wav

Peak level 83.7 %
Extraction speed 3.4 X
Track quality 100.0 %
Test CRC A8B2B337
Copy CRC A8B2B337
Cannot be verified as accurate (confidence 3) [CFCFF13B], AccurateRip returned [127A0E37] (AR v2)
Copy OK

Track 19

Filename E:MUSICMy MusicRe subirRay ConniffRay Conniff - The Way WE Were - The Happy Sound OfCD19 In The Mood.wav

Peak level 86.0 %
Extraction speed 3.4 X
Track quality 100.0 %
Test CRC 2F56A9D9
Copy CRC 2F56A9D9
Cannot be verified as accurate (confidence 3) [9DF8274B], AccurateRip returned [EAF82ED4] (AR v2)
Copy OK

Track 20

Filename E:MUSICMy MusicRe subirRay ConniffRay Conniff - The Way WE Were - The Happy Sound OfCD20 Half As Much.wav

Peak level 90.2 %
Extraction speed 3.5 X
Track quality 100.0 %
Test CRC 5373F62D
Copy CRC 5373F62D
Cannot be verified as accurate (confidence 3) [F5DB7816], AccurateRip returned [656F74EA] (AR v2)
Copy OK

Track 21

Filename E:MUSICMy MusicRe subirRay ConniffRay Conniff - The Way WE Were - The Happy Sound OfCD21 It´s a Sin To Tell a Lie.wav

Peak level 90.8 %
Extraction speed 3.5 X
Track quality 100.0 %
Test CRC 509AF763
Copy CRC 509AF763
Cannot be verified as accurate (confidence 3) [FD0567D9], AccurateRip returned [569644F4] (AR v2)
Copy OK

Track 22

Filename E:MUSICMy MusicRe subirRay ConniffRay Conniff - The Way WE Were - The Happy Sound OfCD22 Ecstasy.wav

Peak level 91.5 %
Extraction speed 3.6 X
Track quality 100.0 %
Test CRC 7DAC430F
Copy CRC 7DAC430F
Cannot be verified as accurate (confidence 3) [B23146CA], AccurateRip returned [379916C0] (AR v2)
Copy OK No tracks could be verified as accurate
You may have a different pressing from the one(s) in the database

No errors occurred

End of status report

==== Log checksum E5BB8C80A241199DF68AB8C5A0ACC68C814F80392E3F4E46A4B91BED2E62EA3D ====

------------------------------------------------------------

Exact Audio Copy V1.0 beta 3 from 29. August 2011

EAC extraction logfile from 26. May 2015, 11:55

Ray Conniff / The Way We Were / The Happy Sound Of

Used drive : SONY DVD RW DRU-840A Adapter: 0 ID: 1

Read mode : Secure
Utilize accurate stream : Yes
Defeat audio cache : Yes
Make use of C2 pointers : No

Read offset correction : 6
Overread into Lead-In and Lead-Out : No
Fill up missing offset samples with silence : Yes
Delete leading and trailing silent blocks : No
Null samples used in CRC calculations : Yes
Used interface : Native Win32 interface for Win NT & 2000
Gap handling : Not detected, thus appended to previous track

Used output format : User Defined Encoder
Selected bitrate : 320 kBit/s
Quality : High
Add ID3 tag : No
Command line compressor : C:Archivos de programaExact Audio CopyFLACFLAC.EXE
Additional command line options : -6 -V -T "ARTIST=%artist%" -T "TITLE=%title%" -T "ALBUM=%albumtitle%" -T "DATE=%year%" -T "TRACKNUMBER=%tracknr%" -T "GENRE=%genre%" -T "COMMENT=%comment%" -T "BAND=%albuminterpret%" -T "ALBUMARTIST=%albuminterpret%" -T "COMPOSER=%composer%" %haslyrics%--tag-from-file=LYRICS="%lyricsfile%"%haslyrics% -T "DISCNUMBER=%cdnumber%" -T "TOTALDISCS=%totalcds%" -T "TOTALTRACKS=%numtracks%" %hascover%--picture="%coverfile%"%hascover% %source% -o %dest% TOC of the extracted CD

Track | Start | Length | Start sector | End sector
---------------------------------------------------------
1 | 0:00.00 | 3:05.10 | 0 | 13884
2 | 3:05.10 | 2:33.07 | 13885 | 25366
3 | 5:38.17 | 2:38.00 | 25367 | 37216
4 | 8:16.17 | 2:50.28 | 37217 | 49994
5 | 11:06.45 | 3:17.37 | 49995 | 64806
6 | 14:24.07 | 2:23.28 | 64807 | 75559
7 | 16:47.35 | 2:40.55 | 75560 | 87614
8 | 19:28.15 | 2:47.65 | 87615 | 100204
9 | 22:16.05 | 3:00.67 | 100205 | 113771
10 | 25:16.72 | 2:58.33 | 113772 | 127154
11 | 28:15.30 | 3:10.07 | 127155 | 141411
12 | 31:25.37 | 2:09.63 | 141412 | 151149
13 | 33:35.25 | 2:49.30 | 151150 | 163854
14 | 36:24.55 | 2:42.22 | 163855 | 176026
15 | 39:07.02 | 2:37.15 | 176027 | 187816
16 | 41:44.17 | 2:30.63 | 187817 | 199129
17 | 44:15.05 | 2:37.42 | 199130 | 210946
18 | 46:52.47 | 3:33.38 | 210947 | 226959
19 | 50:26.10 | 3:10.12 | 226960 | 241221
20 | 53:36.22 | 3:05.13 | 241222 | 255109
21 | 56:41.35 | 2:49.42 | 255110 | 267826
22 | 59:31.02 | 3:12.00 | 267827 | 282226 Track 1

Filename E:MUSICMy MusicRe subirRay ConniffRay Conniff - The Way WE Were - The Happy Sound OfCD1 The Most Beautiful Girl.wav

Peak level 84.5 %
Extraction speed 1.5 X
Track quality 99.9 %
Test CRC 0C7E9E82
Copy CRC 0C7E9E82
Cannot be verified as accurate (confidence 3) [BA8DF0B4], AccurateRip returned [11C27CF1] (AR v2)
Copy OK

Track 2

Filename E:MUSICMy MusicRe subirRay ConniffRay Conniff - The Way WE Were - The Happy Sound OfCD2 Loves Me Like a Rock.wav

Peak level 92.3 %
Extraction speed 1.9 X
Track quality 100.0 %
Test CRC C62F622D
Copy CRC C62F622D
Cannot be verified as accurate (confidence 3) [EF384919], AccurateRip returned [55A38EE5] (AR v2)
Copy OK

Track 3

Filename E:MUSICMy MusicRe subirRay ConniffRay Conniff - The Way WE Were - The Happy Sound OfCD3 Leave Me Alone.wav

Peak level 91.7 %
Extraction speed 1.6 X
Track quality 99.9 %
Test CRC 177D4CFD
Copy CRC 177D4CFD
Cannot be verified as accurate (confidence 3) [4DF4CFFE], AccurateRip returned [512F3F30] (AR v2)
Copy OK

Track 4

Filename E:MUSICMy MusicRe subirRay ConniffRay Conniff - The Way WE Were - The Happy Sound OfCD4 Paper Roses.wav

Peak level 90.1 %
Extraction speed 1.7 X
Track quality 99.9 %
Test CRC 965D248D
Copy CRC 965D248D
Cannot be verified as accurate (confidence 3) [9465B1DC], AccurateRip returned [DF9BEE30] (AR v2)
Copy OK

Track 5

Filename E:MUSICMy MusicRe subirRay ConniffRay Conniff - The Way WE Were - The Happy Sound OfCD5 Goodbye Yellow Brick Road.wav

Peak level 88.1 %
Extraction speed 2.3 X
Track quality 100.0 %
Test CRC A6F6AD5F
Copy CRC A6F6AD5F
Cannot be verified as accurate (confidence 3) [4C648565], AccurateRip returned [781E8387] (AR v2)
Copy OK

Track 6

Filename E:MUSICMy MusicRe subirRay ConniffRay Conniff - The Way WE Were - The Happy Sound OfCD6 Who´s In The Strawberry Patch With Sally.wav

Peak level 91.0 %
Extraction speed 2.2 X
Track quality 100.0 %
Test CRC 3BFF4AAC
Copy CRC 3BFF4AAC
Cannot be verified as accurate (confidence 3) [B5146367], AccurateRip returned [94D7DFDA] (AR v2)
Copy OK

Track 7

Filename E:MUSICMy MusicRe subirRay ConniffRay Conniff - The Way WE Were - The Happy Sound OfCD7 The Wau We Were.wav

Peak level 86.4 %
Extraction speed 2.4 X
Track quality 100.0 %
Test CRC 5499401E
Copy CRC 5499401E
Cannot be verified as accurate (confidence 3) [F4873FB2], AccurateRip returned [170556DE] (AR v2)
Copy OK

Track 8

Filename E:MUSICMy MusicRe subirRay ConniffRay Conniff - The Way WE Were - The Happy Sound OfCD8 Photograph.wav

Peak level 92.0 %
Extraction speed 2.5 X
Track quality 100.0 %
Test CRC B240E3C6
Copy CRC B240E3C6
Cannot be verified as accurate (confidence 3) [DD8E802D], AccurateRip returned [5A5172E4] (AR v2)
Copy OK

Track 9

Filename E:MUSICMy MusicRe subirRay ConniffRay Conniff - The Way WE Were - The Happy Sound OfCD9 Beyond Tomorrow.wav

Peak level 82.6 %
Extraction speed 2.0 X
Track quality 99.9 %
Test CRC 6E3D6759
Copy CRC 6E3D6759
Cannot be verified as accurate (confidence 3) [A1267912], AccurateRip returned [8C614816] (AR v2)
Copy OK

Track 10

Filename E:MUSICMy MusicRe subirRay ConniffRay Conniff - The Way WE Were - The Happy Sound OfCD10 Top Of The World.wav

Peak level 89.7 %
Extraction speed 2.7 X
Track quality 100.0 %
Test CRC 04EF45FC
Copy CRC 04EF45FC
Cannot be verified as accurate (confidence 3) [682D311F], AccurateRip returned [D19C85DF] (AR v2)
Copy OK

Track 11

Filename E:MUSICMy MusicRe subirRay ConniffRay Conniff - The Way WE Were - The Happy Sound OfCD11 Medley - Dear Father , Be.wav

Peak level 90.2 %
Extraction speed 2.8 X
Track quality 100.0 %
Test CRC 5986515E
Copy CRC 5986515E
Cannot be verified as accurate (confidence 3) [48F8F57F], AccurateRip returned [B38FAFD5] (AR v2)
Copy OK

Track 12

Filename E:MUSICMy MusicRe subirRay ConniffRay Conniff - The Way WE Were - The Happy Sound OfCD12 I´ll Be With You In Apple Blossom Time.wav

Peak level 86.0 %
Extraction speed 2.6 X
Track quality 100.0 %
Test CRC F72EB970
Copy CRC F72EB970
Cannot be verified as accurate (confidence 3) [636A9F8B], AccurateRip returned [31C62D07] (AR v2)
Copy OK

Track 13

Filename E:MUSICMy MusicRe subirRay ConniffRay Conniff - The Way WE Were - The Happy Sound OfCD13 You Made Me Love You.wav

Peak level 88.1 %
Extraction speed 2.9 X
Track quality 100.0 %
Test CRC B13CCB1A
Copy CRC B13CCB1A
Cannot be verified as accurate (confidence 3) [F72F7863], AccurateRip returned [BEF3B125] (AR v2)
Copy OK

Track 14

Filename E:MUSICMy MusicRe subirRay ConniffRay Conniff - The Way WE Were - The Happy Sound OfCD14 Don´t Be That Way.wav

Peak level 83.4 %
Extraction speed 2.9 X
Track quality 100.0 %
Test CRC 168A0D6F
Copy CRC 168A0D6F
Cannot be verified as accurate (confidence 3) [15D90617], AccurateRip returned [2805049B] (AR v2)
Copy OK

Track 15

Filename E:MUSICMy MusicRe subirRay ConniffRay Conniff - The Way WE Were - The Happy Sound OfCD15 When Mable Comes In The Room.wav

Peak level 85.8 %
Extraction speed 3.0 X
Track quality 100.0 %
Test CRC F63568C0
Copy CRC F63568C0
Cannot be verified as accurate (confidence 3) [FC0BEE49], AccurateRip returned [E630A9AB] (AR v2)
Copy OK

Track 16

Filename E:MUSICMy MusicRe subirRay ConniffRay Conniff - The Way WE Were - The Happy Sound OfCD16 White Silver Sands.wav

Peak level 86.6 %
Extraction speed 3.0 X
Track quality 100.0 %
Test CRC 2DEEB9F2
Copy CRC 2DEEB9F2
Cannot be verified as accurate (confidence 3) [349A2C33], AccurateRip returned [705B1FEC] (AR v2)
Copy OK

Track 17

Filename E:MUSICMy MusicRe subirRay ConniffRay Conniff - The Way WE Were - The Happy Sound OfCD17 The Entertainer.wav

Peak level 82.6 %
Extraction speed 3.1 X
Track quality 100.0 %
Test CRC CD0F9916
Copy CRC CD0F9916
Cannot be verified as accurate (confidence 3) [65CB2550], AccurateRip returned [8D55D0D6] (AR v2)
Copy OK

Track 18

Filename E:MUSICMy MusicRe subirRay ConniffRay Conniff - The Way WE Were - The Happy Sound OfCD18 Chattanooga Choo Choo.wav

Peak level 83.7 %
Extraction speed 3.4 X
Track quality 100.0 %
Test CRC A8B2B337
Copy CRC A8B2B337
Cannot be verified as accurate (confidence 3) [CFCFF13B], AccurateRip returned [127A0E37] (AR v2)
Copy OK

Track 19

Filename E:MUSICMy MusicRe subirRay ConniffRay Conniff - The Way WE Were - The Happy Sound OfCD19 In The Mood.wav

Peak level 86.0 %
Extraction speed 3.4 X
Track quality 100.0 %
Test CRC 2F56A9D9
Copy CRC 2F56A9D9
Cannot be verified as accurate (confidence 3) [9DF8274B], AccurateRip returned [EAF82ED4] (AR v2)
Copy OK

Track 20

Filename E:MUSICMy MusicRe subirRay ConniffRay Conniff - The Way WE Were - The Happy Sound OfCD20 Half As Much.wav

Peak level 90.2 %
Extraction speed 3.5 X
Track quality 100.0 %
Test CRC 5373F62D
Copy CRC 5373F62D
Cannot be verified as accurate (confidence 3) [F5DB7816], AccurateRip returned [656F74EA] (AR v2)
Copy OK

Track 21

Filename E:MUSICMy MusicRe subirRay ConniffRay Conniff - The Way WE Were - The Happy Sound OfCD21 It´s a Sin To Tell a Lie.wav

Peak level 90.8 %
Extraction speed 3.5 X
Track quality 100.0 %
Test CRC 509AF763
Copy CRC 509AF763
Cannot be verified as accurate (confidence 3) [FD0567D9], AccurateRip returned [569644F4] (AR v2)
Copy OK

Track 22

Filename E:MUSICMy MusicRe subirRay ConniffRay Conniff - The Way WE Were - The Happy Sound OfCD22 Ecstasy.wav

Peak level 91.5 %
Extraction speed 3.6 X
Track quality 100.0 %
Test CRC 7DAC430F
Copy CRC 7DAC430F
Cannot be verified as accurate (confidence 3) [B23146CA], AccurateRip returned [379916C0] (AR v2)
Copy OK No tracks could be verified as accurate
You may have a different pressing from the one(s) in the database

No errors occurred

End of status report

==== Log checksum E5BB8C80A241199DF68AB8C5A0ACC68C814F80392E3F4E46A4B91BED2E62EA3D ====






Very Happy V6 | Happy Together | Telugu Happy Happy | Happy Happy Happy Epub | A Happy End | Happy Ya Ya Ya | Never Happy Ever After | Happy And S01 | Die Happy Vi | How To Be Happy
Free Full Download Ray Conniff - The Way We Were / The form MediaFire link RapidShare, ifile.it, Uploaded.to, Zippyshare, FileSonic, turbobit, ul.to, ORON, DepositFiles,rapidgator.net, extabit.com, filefactory.com. Ray Conniff - The Way We Were / The Torrent Download with keygen, crack, serial, cdkey,password,1080P,hd, 2015, 2016
Dear visitor, you went to the site as unregistered user.
We encourage you to register .

Add comment

Name:*
E-Mail:*
Comment:
  • bowtiesmilelaughingblushsmileyrelaxedsmirk
    heart_eyeskissing_heartkissing_closed_eyesflushedrelievedsatisfiedgrin
    winkstuck_out_tongue_winking_eyestuck_out_tongue_closed_eyesgrinningkissingstuck_out_tonguesleeping
    worriedfrowninganguishedopen_mouthgrimacingconfusedhushed
    expressionlessunamusedsweat_smilesweatdisappointed_relievedwearypensive
    disappointedconfoundedfearfulcold_sweatperseverecrysob
    joyastonishedscreamtired_faceangryragetriumph
    sleepyyummasksunglassesdizzy_faceimpsmiling_imp
    neutral_faceno_mouthinnocent
Enter the two words shown in the image:

Sitemap We don't Store Any File In Server. The Search and free download links all published by our users.if You Have Any Doubts About Legality Of Content, plz contact us.
  • count 88x31px