Gloria Gaynor - Greatest Hits (2008)

jone Category: music

Gloria Gaynor - Greatest Hits (2008)
EAC | FLAC | Image (Cue&Log) ~ 505 Mb (incl 5%) | Mp3 (CBR320) ~ 196 Mb (incl 5%) | Scans included
Genre: Disco, R&B | Label: Polydor | # 833 433-2 | Time: 01:06:02

Greatest Hits is an 11-track collection that features all of Gloria Gaynor's biggest, including "Never Can Say Goodbye," "I Will Survive," "Reach Out (I'll Be There)," "Walk on By," and "(If You Want It) Do It Yourself," making it a definitive retrospective.

Review by Stephen Thomas Erlewine, Allmusic.com





Tracklist:

01. I Will Survive (07:57)
02. Honey Bee (06:00)
03. Never Can Say Goodbye (06:19)
04. Reach Out, I'll Be There (06:14)
05. Let Me Know (I Have A Right) (08:22)
06. Casanova Brown (06:22)
07. (If You Want It) Do It Yourself (05:59)
08. All I Need Is Your Good Lovin' (02:46)
09. Walk On By (05:43)
10. We Can Start All Over Again (05:10)
11. Let's Mend What's Been Broken (05:05)


EAC log
Exact Audio Copy V1.0 beta 3 from 29. August 2011

Отчёт EAC об извлечении, выполненном 24. ноября 2013, 0:32

Gloria Gaynor / Greatest Hits

Дисковод: PLEXTOR DVDR PX-712A Adapter: 0 ID: 0

Режим чтения : Достоверность
Использование точного потока : Да
Отключение кэша аудио : Да
Использование указателей C2 : Нет

Коррекция смещения при чтении : 30
Способность читать области Lead-in и Lead-out : Нет
Заполнение пропущенных сэмплов тишиной : Да
Удаление блоков с тишиной в начале и конце : Нет
При вычислениях CRC использовались нулевые сэмплы : Да
Интерфейс : Встроенный Win32-интерфейс для Win NT/2000

Выходной формат : Внутренние WAV-операции
Формат сэмплов : 44.100 Гц; 16 бит; стерео TOC извлечённого CD

Трек | Старт | Длительность | Начальный сектор | Конечный сектор
---------------------------------------------------------------------
1 | 0:00.32 | 7:57.73 | 32 | 35879
2 | 7:58.30 | 6:00.37 | 35880 | 62916
3 | 13:58.67 | 6:19.13 | 62917 | 91354
4 | 20:18.05 | 6:14.57 | 91355 | 119461
5 | 26:32.62 | 8:22.63 | 119462 | 157174
6 | 34:55.50 | 6:22.47 | 157175 | 185871
7 | 41:18.22 | 5:59.00 | 185872 | 212796
8 | 47:17.22 | 2:46.33 | 212797 | 225279
9 | 50:03.55 | 5:43.47 | 225280 | 251051
10 | 55:47.27 | 5:10.23 | 251052 | 274324
11 | 60:57.50 | 5:05.22 | 274325 | 297221 Характеристики диапазона извлечения и сообщения об ошибках

Выбранный диапазон

Имя файла D:musicLossless-flac_Rip by mooteGloria Gaynor - Greatest Hits.wav

Пиковый уровень 100.0 %
Скорость извлечения 4.6 X
Качество диапазона 100.0 %
CRC теста AA351CA8
CRC копии AA351CA8
Копирование... OK

Ошибок не произошло


AccurateRip: сводка

Трек 1 : извлечено точно (доверие 5) [C494C966] (AR v2)
Трек 2 : извлечено точно (доверие 5) [39F3F392] (AR v2)
Трек 3 : извлечено точно (доверие 5) [C8E2885C] (AR v2)
Трек 4 : извлечено точно (доверие 5) [7789648B] (AR v2)
Трек 5 : извлечено точно (доверие 5) [0EB1A1AE] (AR v2)
Трек 6 : извлечено точно (доверие 5) [6C0ADDC9] (AR v2)
Трек 7 : извлечено точно (доверие 5) [1C5A9D94] (AR v2)
Трек 8 : извлечено точно (доверие 5) [197099B3] (AR v2)
Трек 9 : извлечено точно (доверие 5) [83130825] (AR v2)
Трек 10 : извлечено точно (доверие 5) [C9124762] (AR v2)
Трек 11 : извлечено точно (доверие 5) [6140F338] (AR v2)

Все треки извлечены точно

Конец отчёта

==== Контрольная сумма отчёта 63E9D969E852B5B71E2C5A9BF7A0DCF0516D96090BD43690E36C1717DCAEB69A ====

DR log
foobar2000 1.2 / Dynamic Range Meter 1.1.1
log date: 2015-07-30 15:26:05

--------------------------------------------------------------------------------
Analyzed: Gloria Gaynor / Greatest Hits
--------------------------------------------------------------------------------

DR Peak RMS Duration Track
--------------------------------------------------------------------------------
DR16 0.00 dB -17.49 dB 7:58 01-I Will Survive
DR12 -0.25 dB -14.23 dB 6:00 02-Honey Bee
DR10 -0.22 dB -13.21 dB 6:19 03-Never Can Say Goodbye
DR9 0.00 dB -10.25 dB 6:15 04-Reach Out, I'll Be There
DR17 0.00 dB -18.39 dB 8:23 05-Let Me Know (I Have A Right)
DR11 0.00 dB -14.46 dB 6:23 06-Casanova Brown
DR12 -0.16 dB -13.82 dB 5:59 07-(If You Want It) Do It Yourself
DR11 -0.81 dB -14.53 dB 2:46 08-All I Need Is Your Good Lovin'
DR10 0.00 dB -12.48 dB 5:44 09-Walk On By
DR14 -0.60 dB -17.42 dB 5:10 10-We Can Start All Over Again
DR15 0.00 dB -16.44 dB 5:05 11-Let's Mend What's Been Broken
--------------------------------------------------------------------------------

Number of tracks: 11
Official DR value: DR12

Samplerate: 44100 Hz
Channels: 2
Bits per sample: 16
Bitrate: 942 kbps
Codec: FLAC
================================================================================



All thanks to original releaser - mister. x







Greatest Hits 60 | Greatest Hits 70S | Greatest Hits 50 | Greatest Hits 320 The Who | Big Pun Greatest Hits | Rbd Greatest Hits 2008 | Gloria Gaynor All The Hits Remixed | The Greatest Hits 60S | Dri Greatest Hits | Greatest Hits 90
Free Full Download Gloria Gaynor - Greatest Hits (2008) form MediaFire link RapidShare, ifile.it, Uploaded.to, Zippyshare, FileSonic, turbobit, ul.to, ORON, DepositFiles,rapidgator.net, extabit.com, filefactory.com. Gloria Gaynor - Greatest Hits (2008) Torrent Download with keygen, crack, serial, cdkey,password,1080P,hd, 2015, 2016
Dear visitor, you went to the site as unregistered user.
We encourage you to register .

Add comment

Name:*
E-Mail:*
Comment:
  • bowtiesmilelaughingblushsmileyrelaxedsmirk
    heart_eyeskissing_heartkissing_closed_eyesflushedrelievedsatisfiedgrin
    winkstuck_out_tongue_winking_eyestuck_out_tongue_closed_eyesgrinningkissingstuck_out_tonguesleeping
    worriedfrowninganguishedopen_mouthgrimacingconfusedhushed
    expressionlessunamusedsweat_smilesweatdisappointed_relievedwearypensive
    disappointedconfoundedfearfulcold_sweatperseverecrysob
    joyastonishedscreamtired_faceangryragetriumph
    sleepyyummasksunglassesdizzy_faceimpsmiling_imp
    neutral_faceno_mouthinnocent
Enter the two words shown in the image:

Sitemap We don't Store Any File In Server. The Search and free download links all published by our users.if You Have Any Doubts About Legality Of Content, plz contact us.
  • count 88x31px