Ray Conniff - I Can See Clearly Now / Harmony (2 LP on 1 CD 2004)Re Up

alice Category: music

Ray Conniff
I Can See Clearly Now / Harmony (2 LP on 1 CD , 2004)

EAC Rip | FLAC-TRACKS+CUE+LOG | 1CD | Scans | 67Min. | 435 MB
Label: Sony Music Collectables / Catalogue: COL-CD-7622 /
Easy Listening Pop / LP´s Released in 1973

This "two-fer" couples two of the very best examples of the "New Conniff" sound of the seventies and early eighties that provided masterful rearrangements of popular hits of the time. Following on the heels of the breakthrough Conniff LP, "Theme From the Godfather...," "I Can See Clearly Now" was a new classic for Conniff. It firmly established the "sound," and other highly successful, and eminently listenable LPs followed. As a single continually played on radios across the world, "Harmony" was a logical partner for this reissue. These two CDs reflect Conniff "as good as it gets!"



By the time Ray Conniff recorded these albums, his brass and wah wah chorus conceptions had given way to a vocal sound that was less original and more dominated by his chorus singing the lyrics. So, if you're attracted by classic Conniff albums like S'Marvelous from 1957 and Somewhere My Love from 1966, this CD may prove a bit disappointing. Nevertheless, Conniff remained a smooth arranger and an excellent conductor, virtues that this CD brings to the fore. The title track on Harmony is probably the best cut on the CD, with a fuller, busier sound than the other numbers. The title track on I Can See Clearly Now is a vivid demonstration of a how a chorus, when properly led, can sound hip. Ben is a touchingly delicate track, and Clair features a contribution from Ray's then infant daughter. This CD is not essential Conniff, but it certainly provides pleasant listening in its own right.


Track Listings:

1. I Can See Clearly Now
2. If You Don't Know Me by Now
3. It Never Rains in Southern California
4. Ben
5. Summer Breeze
6. Clair
7. I Believe in Music
8. If I Could Reach You
9. Something's Wrong With Me
10. I Am Woman
11. I'd Love You to Want Me
12. Harmony
13. Playground in My Mind
14. The Morning After
15. Young Love
16. Live and Let Die
17. How Can I Tell Her
18. Say Has Anybody Seen My Sweet Gypsy Rose
19. Yesterday Once More
20. Delta Down
21. Touch Me in the Morning
22. Here Today and Gone Tomorrow

EAC LOG
Exact Audio Copy V1.0 beta 3 from 29. August 2011

EAC extraction logfile from 2. June 2015, 20:59

Ray Conniff / I Can See Clearly Now - Harmony

Used drive : SONY DVD RW DRU-840A Adapter: 0 ID: 1

Read mode : Secure
Utilize accurate stream : Yes
Defeat audio cache : Yes
Make use of C2 pointers : No

Read offset correction : 6
Overread into Lead-In and Lead-Out : No
Fill up missing offset samples with silence : Yes
Delete leading and trailing silent blocks : No
Null samples used in CRC calculations : Yes
Used interface : Native Win32 interface for Win NT & 2000
Gap handling : Not detected, thus appended to previous track

Used output format : User Defined Encoder
Selected bitrate : 320 kBit/s
Quality : High
Add ID3 tag : No
Command line compressor : C:Archivos de programaExact Audio CopyFLACFLAC.EXE
Additional command line options : -6 -V -T "ARTIST=%artist%" -T "TITLE=%title%" -T "ALBUM=%albumtitle%" -T "DATE=%year%" -T "TRACKNUMBER=%tracknr%" -T "GENRE=%genre%" -T "COMMENT=%comment%" -T "BAND=%albuminterpret%" -T "ALBUMARTIST=%albuminterpret%" -T "COMPOSER=%composer%" %haslyrics%--tag-from-file=LYRICS="%lyricsfile%"%haslyrics% -T "DISCNUMBER=%cdnumber%" -T "TOTALDISCS=%totalcds%" -T "TOTALTRACKS=%numtracks%" %hascover%--picture="%coverfile%"%hascover% %source% -o %dest% TOC of the extracted CD

Track | Start | Length | Start sector | End sector
---------------------------------------------------------
1 | 0:00.00 | 3:00.62 | 0 | 13561
2 | 3:00.62 | 3:22.20 | 13562 | 28731
3 | 6:23.07 | 3:45.00 | 28732 | 45606
4 | 10:08.07 | 2:43.50 | 45607 | 57881
5 | 12:51.57 | 3:30.43 | 57882 | 73674
6 | 16:22.25 | 2:58.55 | 73675 | 87079
7 | 19:21.05 | 2:59.57 | 87080 | 100561
8 | 22:20.62 | 3:08.33 | 100562 | 114694
9 | 25:29.20 | 3:20.72 | 114695 | 129766
10 | 28:50.17 | 3:11.33 | 129767 | 144124
11 | 32:01.50 | 3:44.10 | 144125 | 160934
12 | 35:45.60 | 2:44.07 | 160935 | 173241
13 | 38:29.67 | 2:34.08 | 173242 | 184799
14 | 41:04.00 | 2:13.62 | 184800 | 194836
15 | 43:17.62 | 2:46.50 | 194837 | 207336
16 | 46:04.37 | 2:47.00 | 207337 | 219861
17 | 48:51.37 | 2:50.58 | 219862 | 232669
18 | 51:42.20 | 2:36.30 | 232670 | 244399
19 | 54:18.50 | 3:32.30 | 244400 | 260329
20 | 57:51.05 | 2:37.50 | 260330 | 272154
21 | 60:28.55 | 4:00.30 | 272155 | 290184
22 | 64:29.10 | 2:54.60 | 290185 | 303294 Track 1

Filename E:MUSICMy MusicRe subirRay ConniffRay Conniff - I Can See Clearly Now - HarmonyCD1 I Can See Clearly Now.wav

Peak level 92.3 %
Extraction speed 1.8 X
Track quality 100.0 %
Test CRC 62C9B27C
Copy CRC 62C9B27C
Cannot be verified as accurate (confidence 5) [A1D681E8], AccurateRip returned [2F736137] (AR v2)
Copy OK

Track 2

Filename E:MUSICMy MusicRe subirRay ConniffRay Conniff - I Can See Clearly Now - HarmonyCD2 If You Don´t Know Me By Now.wav

Peak level 92.2 %
Extraction speed 2.0 X
Track quality 100.0 %
Test CRC 8B94BD76
Copy CRC 8B94BD76
Cannot be verified as accurate (confidence 5) [3F5AD90F], AccurateRip returned [CB8AACC8] (AR v2)
Copy OK

Track 3

Filename E:MUSICMy MusicRe subirRay ConniffRay Conniff - I Can See Clearly Now - HarmonyCD3 It Never Rains In Southern California.wav

Peak level 88.5 %
Extraction speed 2.2 X
Track quality 100.0 %
Test CRC ED60AB57
Copy CRC A8CD395A
Cannot be verified as accurate (confidence 5) [E8F2E965], AccurateRip returned [FB3C16D3] (AR v2)
Copy OK

Track 4

Filename E:MUSICMy MusicRe subirRay ConniffRay Conniff - I Can See Clearly Now - HarmonyCD4 Ben.wav

Peak level 73.7 %
Extraction speed 1.7 X
Track quality 99.9 %
Test CRC 34E2E7F8
Copy CRC 34E2E7F8
Cannot be verified as accurate (confidence 5) [407B3013], AccurateRip returned [1C0E5384] (AR v2)
Copy OK

Track 5

Filename E:MUSICMy MusicRe subirRay ConniffRay Conniff - I Can See Clearly Now - HarmonyCD5 Summer Breeze.wav

Peak level 91.0 %
Extraction speed 2.4 X
Track quality 100.0 %
Test CRC 5A0282F4
Copy CRC 5A0282F4
Cannot be verified as accurate (confidence 5) [6BC62C5A], AccurateRip returned [D32FD00E] (AR v2)
Copy OK

Track 6

Filename E:MUSICMy MusicRe subirRay ConniffRay Conniff - I Can See Clearly Now - HarmonyCD6 Clair.wav

Peak level 88.8 %
Extraction speed 2.4 X
Track quality 100.0 %
Test CRC B87FB452
Copy CRC B87FB452
Cannot be verified as accurate (confidence 5) [78D85499], AccurateRip returned [DF44F94C] (AR v2)
Copy OK

Track 7

Filename E:MUSICMy MusicRe subirRay ConniffRay Conniff - I Can See Clearly Now - HarmonyCD7 I Believe In Music.wav

Peak level 89.3 %
Extraction speed 2.5 X
Track quality 100.0 %
Test CRC 42850DB9
Copy CRC 42850DB9
Cannot be verified as accurate (confidence 5) [13E4AF57], AccurateRip returned [52A11077] (AR v2)
Copy OK

Track 8

Filename E:MUSICMy MusicRe subirRay ConniffRay Conniff - I Can See Clearly Now - HarmonyCD8 If I Could Reach You.wav

Peak level 88.1 %
Extraction speed 2.6 X
Track quality 100.0 %
Test CRC 4EAB9E86
Copy CRC 4EAB9E86
Cannot be verified as accurate (confidence 5) [B6403BC0], AccurateRip returned [B32225D2] (AR v2)
Copy OK

Track 9

Filename E:MUSICMy MusicRe subirRay ConniffRay Conniff - I Can See Clearly Now - HarmonyCD9 Something´s Wrong With Me.wav

Peak level 92.3 %
Extraction speed 2.8 X
Track quality 100.0 %
Test CRC D5FCF928
Copy CRC D5FCF928
Cannot be verified as accurate (confidence 5) [44834B53], AccurateRip returned [67CF27FB] (AR v2)
Copy OK

Track 10

Filename E:MUSICMy MusicRe subirRay ConniffRay Conniff - I Can See Clearly Now - HarmonyCD10 I Am Woman.wav

Peak level 91.1 %
Extraction speed 2.9 X
Track quality 100.0 %
Test CRC E455C413
Copy CRC E455C413
Cannot be verified as accurate (confidence 5) [B93E918C], AccurateRip returned [D754EAA8] (AR v2)
Copy OK

Track 11

Filename E:MUSICMy MusicRe subirRay ConniffRay Conniff - I Can See Clearly Now - HarmonyCD11 I´d Love You To Want Me.wav

Peak level 90.3 %
Extraction speed 3.0 X
Track quality 100.0 %
Test CRC E0B878EF
Copy CRC E0B878EF
Cannot be verified as accurate (confidence 5) [9B7E98F4], AccurateRip returned [5BD736B4] (AR v2)
Copy OK

Track 12

Filename E:MUSICMy MusicRe subirRay ConniffRay Conniff - I Can See Clearly Now - HarmonyCD12 Harmony.wav

Peak level 88.7 %
Extraction speed 3.0 X
Track quality 100.0 %
Test CRC AF98F3AE
Copy CRC AF98F3AE
Cannot be verified as accurate (confidence 5) [FB0A7BB6], AccurateRip returned [5DE905DC] (AR v2)
Copy OK

Track 13

Filename E:MUSICMy MusicRe subirRay ConniffRay Conniff - I Can See Clearly Now - HarmonyCD13 Playground In My Mind.wav

Peak level 82.9 %
Extraction speed 3.0 X
Track quality 100.0 %
Test CRC 6BB3CC7E
Copy CRC 6BB3CC7E
Cannot be verified as accurate (confidence 5) [AB2E2285], AccurateRip returned [2E9613FE] (AR v2)
Copy OK

Track 14

Filename E:MUSICMy MusicRe subirRay ConniffRay Conniff - I Can See Clearly Now - HarmonyCD14 The Morning After.wav

Peak level 84.8 %
Extraction speed 2.9 X
Track quality 100.0 %
Test CRC 7C40CA3C
Copy CRC 7C40CA3C
Cannot be verified as accurate (confidence 5) [A2569120], AccurateRip returned [190F211F] (AR v2)
Copy OK

Track 15

Filename E:MUSICMy MusicRe subirRay ConniffRay Conniff - I Can See Clearly Now - HarmonyCD15 Young Love.wav

Peak level 81.7 %
Extraction speed 2.2 X
Track quality 99.9 %
Test CRC 51E73157
Copy CRC 51E73157
Cannot be verified as accurate (confidence 5) [50E23282], AccurateRip returned [5B7771A2] (AR v2)
Copy OK

Track 16

Filename E:MUSICMy MusicRe subirRay ConniffRay Conniff - I Can See Clearly Now - HarmonyCD16 Live And Let Die.wav

Peak level 91.0 %
Extraction speed 2.2 X
Track quality 99.9 %
Test CRC 5EEE337A
Copy CRC 5EEE337A
Cannot be verified as accurate (confidence 5) [8E3A1F7F], AccurateRip returned [9CB42DDB] (AR v2)
Copy OK

Track 17

Filename E:MUSICMy MusicRe subirRay ConniffRay Conniff - I Can See Clearly Now - HarmonyCD17 How Can I Tell Her.wav

Peak level 91.0 %
Extraction speed 3.3 X
Track quality 100.0 %
Test CRC 72C1CCFA
Copy CRC 72C1CCFA
Cannot be verified as accurate (confidence 5) [A618F503], AccurateRip returned [C257EA82] (AR v2)
Copy OK

Track 18

Filename E:MUSICMy MusicRe subirRay ConniffRay Conniff - I Can See Clearly Now - HarmonyCD18 Say Has Anybody Seen My Sweet Gypsy Rose.wav

Peak level 92.3 %
Extraction speed 3.3 X
Track quality 100.0 %
Test CRC 3CA7435D
Copy CRC 3CA7435D
Cannot be verified as accurate (confidence 5) [5892CD26], AccurateRip returned [4725F34D] (AR v2)
Copy OK

Track 19

Filename E:MUSICMy MusicRe subirRay ConniffRay Conniff - I Can See Clearly Now - HarmonyCD19 Yesterday Once More.wav

Peak level 85.8 %
Extraction speed 3.6 X
Track quality 100.0 %
Test CRC 6011B86E
Copy CRC 6011B86E
Cannot be verified as accurate (confidence 5) [0422F801], AccurateRip returned [078C417F] (AR v2)
Copy OK

Track 20

Filename E:MUSICMy MusicRe subirRay ConniffRay Conniff - I Can See Clearly Now - HarmonyCD20 Delta Dawn.wav

Peak level 84.5 %
Extraction speed 2.2 X
Track quality 99.9 %
Test CRC 2A4E4173
Copy CRC 2A4E4173
Cannot be verified as accurate (confidence 5) [5E50C43B], AccurateRip returned [871AD573] (AR v2)
Copy OK

Track 21

Filename E:MUSICMy MusicRe subirRay ConniffRay Conniff - I Can See Clearly Now - HarmonyCD21 Touch Me In The Morning.wav

Peak level 82.3 %
Extraction speed 3.8 X
Track quality 100.0 %
Test CRC F652EB5F
Copy CRC F652EB5F
Cannot be verified as accurate (confidence 5) [0B1D14C3], AccurateRip returned [5F551F77] (AR v2)
Copy OK

Track 22

Filename E:MUSICMy MusicRe subirRay ConniffRay Conniff - I Can See Clearly Now - HarmonyCD22 Here Today And Gone Tomorrow.wav

Peak level 85.0 %
Extraction speed 3.7 X
Track quality 100.0 %
Test CRC 93054A0D
Copy CRC 93054A0D
Cannot be verified as accurate (confidence 5) [746D33C0], AccurateRip returned [1CCA3A43] (AR v2)
Copy OK No tracks could be verified as accurate
You may have a different pressing from the one(s) in the database

No errors occurred

End of status report

==== Log checksum 0EBAF6DDEDBF8999582A3F87119FD50BA9E976A2BCDBBAEC2AEFF24D399ED291 ====

------------------------------------------------------------

Exact Audio Copy V1.0 beta 3 from 29. August 2011

EAC extraction logfile from 2. June 2015, 20:59

Ray Conniff / I Can See Clearly Now - Harmony

Used drive : SONY DVD RW DRU-840A Adapter: 0 ID: 1

Read mode : Secure
Utilize accurate stream : Yes
Defeat audio cache : Yes
Make use of C2 pointers : No

Read offset correction : 6
Overread into Lead-In and Lead-Out : No
Fill up missing offset samples with silence : Yes
Delete leading and trailing silent blocks : No
Null samples used in CRC calculations : Yes
Used interface : Native Win32 interface for Win NT & 2000
Gap handling : Not detected, thus appended to previous track

Used output format : User Defined Encoder
Selected bitrate : 320 kBit/s
Quality : High
Add ID3 tag : No
Command line compressor : C:Archivos de programaExact Audio CopyFLACFLAC.EXE
Additional command line options : -6 -V -T "ARTIST=%artist%" -T "TITLE=%title%" -T "ALBUM=%albumtitle%" -T "DATE=%year%" -T "TRACKNUMBER=%tracknr%" -T "GENRE=%genre%" -T "COMMENT=%comment%" -T "BAND=%albuminterpret%" -T "ALBUMARTIST=%albuminterpret%" -T "COMPOSER=%composer%" %haslyrics%--tag-from-file=LYRICS="%lyricsfile%"%haslyrics% -T "DISCNUMBER=%cdnumber%" -T "TOTALDISCS=%totalcds%" -T "TOTALTRACKS=%numtracks%" %hascover%--picture="%coverfile%"%hascover% %source% -o %dest% TOC of the extracted CD

Track | Start | Length | Start sector | End sector
---------------------------------------------------------
1 | 0:00.00 | 3:00.62 | 0 | 13561
2 | 3:00.62 | 3:22.20 | 13562 | 28731
3 | 6:23.07 | 3:45.00 | 28732 | 45606
4 | 10:08.07 | 2:43.50 | 45607 | 57881
5 | 12:51.57 | 3:30.43 | 57882 | 73674
6 | 16:22.25 | 2:58.55 | 73675 | 87079
7 | 19:21.05 | 2:59.57 | 87080 | 100561
8 | 22:20.62 | 3:08.33 | 100562 | 114694
9 | 25:29.20 | 3:20.72 | 114695 | 129766
10 | 28:50.17 | 3:11.33 | 129767 | 144124
11 | 32:01.50 | 3:44.10 | 144125 | 160934
12 | 35:45.60 | 2:44.07 | 160935 | 173241
13 | 38:29.67 | 2:34.08 | 173242 | 184799
14 | 41:04.00 | 2:13.62 | 184800 | 194836
15 | 43:17.62 | 2:46.50 | 194837 | 207336
16 | 46:04.37 | 2:47.00 | 207337 | 219861
17 | 48:51.37 | 2:50.58 | 219862 | 232669
18 | 51:42.20 | 2:36.30 | 232670 | 244399
19 | 54:18.50 | 3:32.30 | 244400 | 260329
20 | 57:51.05 | 2:37.50 | 260330 | 272154
21 | 60:28.55 | 4:00.30 | 272155 | 290184
22 | 64:29.10 | 2:54.60 | 290185 | 303294 Track 1

Filename E:MUSICMy MusicRe subirRay ConniffRay Conniff - I Can See Clearly Now - HarmonyCD1 I Can See Clearly Now.wav

Peak level 92.3 %
Extraction speed 1.8 X
Track quality 100.0 %
Test CRC 62C9B27C
Copy CRC 62C9B27C
Cannot be verified as accurate (confidence 5) [A1D681E8], AccurateRip returned [2F736137] (AR v2)
Copy OK

Track 2

Filename E:MUSICMy MusicRe subirRay ConniffRay Conniff - I Can See Clearly Now - HarmonyCD2 If You Don´t Know Me By Now.wav

Peak level 92.2 %
Extraction speed 2.0 X
Track quality 100.0 %
Test CRC 8B94BD76
Copy CRC 8B94BD76
Cannot be verified as accurate (confidence 5) [3F5AD90F], AccurateRip returned [CB8AACC8] (AR v2)
Copy OK

Track 3

Filename E:MUSICMy MusicRe subirRay ConniffRay Conniff - I Can See Clearly Now - HarmonyCD3 It Never Rains In Southern California.wav

Peak level 88.5 %
Extraction speed 2.2 X
Track quality 100.0 %
Test CRC ED60AB57
Copy CRC A8CD395A
Cannot be verified as accurate (confidence 5) [E8F2E965], AccurateRip returned [FB3C16D3] (AR v2)
Copy OK

Track 4

Filename E:MUSICMy MusicRe subirRay ConniffRay Conniff - I Can See Clearly Now - HarmonyCD4 Ben.wav

Peak level 73.7 %
Extraction speed 1.7 X
Track quality 99.9 %
Test CRC 34E2E7F8
Copy CRC 34E2E7F8
Cannot be verified as accurate (confidence 5) [407B3013], AccurateRip returned [1C0E5384] (AR v2)
Copy OK

Track 5

Filename E:MUSICMy MusicRe subirRay ConniffRay Conniff - I Can See Clearly Now - HarmonyCD5 Summer Breeze.wav

Peak level 91.0 %
Extraction speed 2.4 X
Track quality 100.0 %
Test CRC 5A0282F4
Copy CRC 5A0282F4
Cannot be verified as accurate (confidence 5) [6BC62C5A], AccurateRip returned [D32FD00E] (AR v2)
Copy OK

Track 6

Filename E:MUSICMy MusicRe subirRay ConniffRay Conniff - I Can See Clearly Now - HarmonyCD6 Clair.wav

Peak level 88.8 %
Extraction speed 2.4 X
Track quality 100.0 %
Test CRC B87FB452
Copy CRC B87FB452
Cannot be verified as accurate (confidence 5) [78D85499], AccurateRip returned [DF44F94C] (AR v2)
Copy OK

Track 7

Filename E:MUSICMy MusicRe subirRay ConniffRay Conniff - I Can See Clearly Now - HarmonyCD7 I Believe In Music.wav

Peak level 89.3 %
Extraction speed 2.5 X
Track quality 100.0 %
Test CRC 42850DB9
Copy CRC 42850DB9
Cannot be verified as accurate (confidence 5) [13E4AF57], AccurateRip returned [52A11077] (AR v2)
Copy OK

Track 8

Filename E:MUSICMy MusicRe subirRay ConniffRay Conniff - I Can See Clearly Now - HarmonyCD8 If I Could Reach You.wav

Peak level 88.1 %
Extraction speed 2.6 X
Track quality 100.0 %
Test CRC 4EAB9E86
Copy CRC 4EAB9E86
Cannot be verified as accurate (confidence 5) [B6403BC0], AccurateRip returned [B32225D2] (AR v2)
Copy OK

Track 9

Filename E:MUSICMy MusicRe subirRay ConniffRay Conniff - I Can See Clearly Now - HarmonyCD9 Something´s Wrong With Me.wav

Peak level 92.3 %
Extraction speed 2.8 X
Track quality 100.0 %
Test CRC D5FCF928
Copy CRC D5FCF928
Cannot be verified as accurate (confidence 5) [44834B53], AccurateRip returned [67CF27FB] (AR v2)
Copy OK

Track 10

Filename E:MUSICMy MusicRe subirRay ConniffRay Conniff - I Can See Clearly Now - HarmonyCD10 I Am Woman.wav

Peak level 91.1 %
Extraction speed 2.9 X
Track quality 100.0 %
Test CRC E455C413
Copy CRC E455C413
Cannot be verified as accurate (confidence 5) [B93E918C], AccurateRip returned [D754EAA8] (AR v2)
Copy OK

Track 11

Filename E:MUSICMy MusicRe subirRay ConniffRay Conniff - I Can See Clearly Now - HarmonyCD11 I´d Love You To Want Me.wav

Peak level 90.3 %
Extraction speed 3.0 X
Track quality 100.0 %
Test CRC E0B878EF
Copy CRC E0B878EF
Cannot be verified as accurate (confidence 5) [9B7E98F4], AccurateRip returned [5BD736B4] (AR v2)
Copy OK

Track 12

Filename E:MUSICMy MusicRe subirRay ConniffRay Conniff - I Can See Clearly Now - HarmonyCD12 Harmony.wav

Peak level 88.7 %
Extraction speed 3.0 X
Track quality 100.0 %
Test CRC AF98F3AE
Copy CRC AF98F3AE
Cannot be verified as accurate (confidence 5) [FB0A7BB6], AccurateRip returned [5DE905DC] (AR v2)
Copy OK

Track 13

Filename E:MUSICMy MusicRe subirRay ConniffRay Conniff - I Can See Clearly Now - HarmonyCD13 Playground In My Mind.wav

Peak level 82.9 %
Extraction speed 3.0 X
Track quality 100.0 %
Test CRC 6BB3CC7E
Copy CRC 6BB3CC7E
Cannot be verified as accurate (confidence 5) [AB2E2285], AccurateRip returned [2E9613FE] (AR v2)
Copy OK

Track 14

Filename E:MUSICMy MusicRe subirRay ConniffRay Conniff - I Can See Clearly Now - HarmonyCD14 The Morning After.wav

Peak level 84.8 %
Extraction speed 2.9 X
Track quality 100.0 %
Test CRC 7C40CA3C
Copy CRC 7C40CA3C
Cannot be verified as accurate (confidence 5) [A2569120], AccurateRip returned [190F211F] (AR v2)
Copy OK

Track 15

Filename E:MUSICMy MusicRe subirRay ConniffRay Conniff - I Can See Clearly Now - HarmonyCD15 Young Love.wav

Peak level 81.7 %
Extraction speed 2.2 X
Track quality 99.9 %
Test CRC 51E73157
Copy CRC 51E73157
Cannot be verified as accurate (confidence 5) [50E23282], AccurateRip returned [5B7771A2] (AR v2)
Copy OK

Track 16

Filename E:MUSICMy MusicRe subirRay ConniffRay Conniff - I Can See Clearly Now - HarmonyCD16 Live And Let Die.wav

Peak level 91.0 %
Extraction speed 2.2 X
Track quality 99.9 %
Test CRC 5EEE337A
Copy CRC 5EEE337A
Cannot be verified as accurate (confidence 5) [8E3A1F7F], AccurateRip returned [9CB42DDB] (AR v2)
Copy OK

Track 17

Filename E:MUSICMy MusicRe subirRay ConniffRay Conniff - I Can See Clearly Now - HarmonyCD17 How Can I Tell Her.wav

Peak level 91.0 %
Extraction speed 3.3 X
Track quality 100.0 %
Test CRC 72C1CCFA
Copy CRC 72C1CCFA
Cannot be verified as accurate (confidence 5) [A618F503], AccurateRip returned [C257EA82] (AR v2)
Copy OK

Track 18

Filename E:MUSICMy MusicRe subirRay ConniffRay Conniff - I Can See Clearly Now - HarmonyCD18 Say Has Anybody Seen My Sweet Gypsy Rose.wav

Peak level 92.3 %
Extraction speed 3.3 X
Track quality 100.0 %
Test CRC 3CA7435D
Copy CRC 3CA7435D
Cannot be verified as accurate (confidence 5) [5892CD26], AccurateRip returned [4725F34D] (AR v2)
Copy OK

Track 19

Filename E:MUSICMy MusicRe subirRay ConniffRay Conniff - I Can See Clearly Now - HarmonyCD19 Yesterday Once More.wav

Peak level 85.8 %
Extraction speed 3.6 X
Track quality 100.0 %
Test CRC 6011B86E
Copy CRC 6011B86E
Cannot be verified as accurate (confidence 5) [0422F801], AccurateRip returned [078C417F] (AR v2)
Copy OK

Track 20

Filename E:MUSICMy MusicRe subirRay ConniffRay Conniff - I Can See Clearly Now - HarmonyCD20 Delta Dawn.wav

Peak level 84.5 %
Extraction speed 2.2 X
Track quality 99.9 %
Test CRC 2A4E4173
Copy CRC 2A4E4173
Cannot be verified as accurate (confidence 5) [5E50C43B], AccurateRip returned [871AD573] (AR v2)
Copy OK

Track 21

Filename E:MUSICMy MusicRe subirRay ConniffRay Conniff - I Can See Clearly Now - HarmonyCD21 Touch Me In The Morning.wav

Peak level 82.3 %
Extraction speed 3.8 X
Track quality 100.0 %
Test CRC F652EB5F
Copy CRC F652EB5F
Cannot be verified as accurate (confidence 5) [0B1D14C3], AccurateRip returned [5F551F77] (AR v2)
Copy OK

Track 22

Filename E:MUSICMy MusicRe subirRay ConniffRay Conniff - I Can See Clearly Now - HarmonyCD22 Here Today And Gone Tomorrow.wav

Peak level 85.0 %
Extraction speed 3.7 X
Track quality 100.0 %
Test CRC 93054A0D
Copy CRC 93054A0D
Cannot be verified as accurate (confidence 5) [746D33C0], AccurateRip returned [1CCA3A43] (AR v2)
Copy OK No tracks could be verified as accurate
You may have a different pressing from the one(s) in the database

No errors occurred

End of status report

==== Log checksum 0EBAF6DDEDBF8999582A3F87119FD50BA9E976A2BCDBBAEC2AEFF24D399ED291 ====






Inner Harmony | Fifth Harmony 7 27 | Fifth Harmony | The Priests Harmony | The Harmony Guides | Fifth Harmony Ft Kid Ink | Harmony Reigns Harmony Gets Slayed By Nacho | Ddf Harmony Reigns | Fifth Harmony Sledgehammer | Best Of Europe Harmony
Free Full Download Ray Conniff - I Can See Clearly Now / form MediaFire link RapidShare, ifile.it, Uploaded.to, Zippyshare, FileSonic, turbobit, ul.to, ORON, DepositFiles,rapidgator.net, extabit.com, filefactory.com. Ray Conniff - I Can See Clearly Now / Torrent Download with keygen, crack, serial, cdkey,password,1080P,hd, 2015, 2016
Dear visitor, you went to the site as unregistered user.
We encourage you to register .

Add comment

Name:*
E-Mail:*
Comment:
  • bowtiesmilelaughingblushsmileyrelaxedsmirk
    heart_eyeskissing_heartkissing_closed_eyesflushedrelievedsatisfiedgrin
    winkstuck_out_tongue_winking_eyestuck_out_tongue_closed_eyesgrinningkissingstuck_out_tonguesleeping
    worriedfrowninganguishedopen_mouthgrimacingconfusedhushed
    expressionlessunamusedsweat_smilesweatdisappointed_relievedwearypensive
    disappointedconfoundedfearfulcold_sweatperseverecrysob
    joyastonishedscreamtired_faceangryragetriumph
    sleepyyummasksunglassesdizzy_faceimpsmiling_imp
    neutral_faceno_mouthinnocent
Enter the two words shown in the image:

Sitemap We don't Store Any File In Server. The Search and free download links all published by our users.if You Have Any Doubts About Legality Of Content, plz contact us.
  • count 88x31px