Boito - Mefistofele - Treigle - Rudel ( 1997 ) Re-Up

peter Category: music

Boito - Mefistofele
Norman Treigle - Plácido Domingo - Montserrat Caballé

EAC Rip l FLAC-TRACKS+CUE+LOG+Stereo ADDl 2 CD l Libretto l Scans l 138Min. l 565mb
Label: Emi Classics lCatalogue 5099908795625
Opera / CD Released in 1997 / LP´S Released in 1974

Although Boito's Mefistofele has some wonderful music in it, it really neads a strong cast--particularly in the title role--to make it work. The opera fades from view, only to be periodically rediscovered from time to time when an opera company wants to show off a stellar bass-baritone. Today, Samuel Ramey is the most famous interpreter of the role, and deservedly so.
Norman Treigle
Montserrat Caballé & Plácido Domingo
Julius Rudel ( right ) & Norman Treigle

But in the 1960s and early 70s, American bass-baritone Norman Triegle simply blew audiences away with his performance--and listening to this recording, one can see why. A stalwart of the New York City Opera, Triegle, like Beverly Sills, endured the enmity of Rudolph Bing, so did not sing at the Met. But what a voice! Although criticized for some histrionics in his singing, in this role Triegle is by turns urbane, sarcastic, terrifying and even sexy. His death at the height of his career was a great lost to opera.
And the rest of the cast members are no slouch either. Placido Domingo was 32 when this recording was made in 1973, and his singing is as ardent and thrilling as ever. Montserrat Caballe is also in glorious voice. Even the small role of Wagner was sung by the young Thomas Allen, now one of the great British baritones.
Another wonderful surprise is the chorus, which is masterfully held together by conductor Julius Rudel, who also guides the London Symphony Orchestra through Boito's lush score with a masterful hand. The sound quality is excellent.This recording is simply a must-have for any collection.

Opera with a prologue , four acts and an epilogue , by Arrigo Boito , after W. Goethe´s Faust.
Sung in italian .
Recorded at Abbey Road Studios & Kingsway Hall , London . July 1973.
Recording engineer , Robert Gooch .

Cast :
Mefistofele : Noman Treigle
Faust : Plácido Domingo
Margherita : Montserrat Caballé
Elena : Josella Ligi
Marta : Heather Begg
Wagner : Thomas Allen
Pantalis : Delia Wallis
Nereo : Lellie Fyson

Ambrosian Opera Chorus
London Symphony Orchestra
Julius Rudel

Tracks Listing :
CD 1


Prologo

1 Preludio
2 Ave Signor degli Angeli
3 Ave Signor
4 Te noto Faust ?
5 Siam Nimbi
6 Salve Regina

Act I

7 Perché di la ?
8 Al Soave raggiar
9 Juhé ! Juhé !
10 Sediam sovra
11 Dai campi , dai prati
12 Son lo spirito che nega
13 Strano figlio del Caos
14 Se tu mi doni
15 Fin da stanotte

Act II

16 Cavaliero illustre
17 Dimmi se credi
18 Dio clemente

CD 2


1 Su , cammina , cammina
2 Folletto ! folletto !
3 Popoli ! e scettro
4 Ecco il mondo
5 Stupor ! stupor !

Act III

6 L´altra notte
7 Dio di pieta !
8 Lontano , lontano
9 Sorge il di
10 Spunta l´aurora pallida

Act IV

11 La luna immobile
12 Ecco la notte
13 Ah ! trionfi ad Elena
14 Notte cupa , truce
15 Forma ideal purissima

Epilogue

16 Cammina , cammina... superbo pensier
17 Giunto sul passo estremo
18 All´erta ! all´erta !


CD1

EAC LOG

Exact Audio Copy V1.0 beta 3 from 29. August 2011

EAC extraction logfile from 18. May 2015, 21:02

London Symph. - Julius Rudel; Treigle, Domingo, Caballe, Ligi / Arrigo Boito - Mefistofele Disc 1 of 2

Used drive : SONY DVD RW DRU-840A Adapter: 0 ID: 1

Read mode : Secure
Utilize accurate stream : Yes
Defeat audio cache : Yes
Make use of C2 pointers : No

Read offset correction : 6
Overread into Lead-In and Lead-Out : No
Fill up missing offset samples with silence : Yes
Delete leading and trailing silent blocks : No
Null samples used in CRC calculations : Yes
Used interface : Native Win32 interface for Win NT & 2000
Gap handling : Not detected, thus appended to previous track

Used output format : User Defined Encoder
Selected bitrate : 320 kBit/s
Quality : High
Add ID3 tag : No
Command line compressor : C:Archivos de programaExact Audio CopyFLACFLAC.EXE
Additional command line options : -6 -V -T "ARTIST=%artist%" -T "TITLE=%title%" -T "ALBUM=%albumtitle%" -T "DATE=%year%" -T "TRACKNUMBER=%tracknr%" -T "GENRE=%genre%" -T "COMMENT=%comment%" -T "BAND=%albuminterpret%" -T "ALBUMARTIST=%albuminterpret%" -T "COMPOSER=%composer%" %haslyrics%--tag-from-file=LYRICS="%lyricsfile%"%haslyrics% -T "DISCNUMBER=%cdnumber%" -T "TOTALDISCS=%totalcds%" -T "TOTALTRACKS=%numtracks%" %hascover%--picture="%coverfile%"%hascover% %source% -o %dest% TOC of the extracted CD

Track | Start | Length | Start sector | End sector
---------------------------------------------------------
1 | 0:00.00 | 5:12.13 | 0 | 23412
2 | 5:12.13 | 3:29.70 | 23413 | 39157
3 | 8:42.08 | 3:54.25 | 39158 | 56732
4 | 12:36.33 | 3:11.62 | 56733 | 71119
5 | 15:48.20 | 2:01.43 | 71120 | 80237
6 | 17:49.63 | 6:36.67 | 80238 | 110004
7 | 24:26.55 | 4:05.68 | 110005 | 128447
8 | 28:32.48 | 2:09.66 | 128448 | 138188
9 | 30:42.39 | 2:51.00 | 138189 | 151013
10 | 33:33.39 | 6:22.52 | 151014 | 179715
11 | 39:56.16 | 4:24.63 | 179716 | 199578
12 | 44:21.04 | 3:22.07 | 199579 | 214735
13 | 47:43.11 | 1:15.45 | 214736 | 220405
14 | 48:58.56 | 1:11.62 | 220406 | 225792
15 | 50:10.43 | 2:58.62 | 225793 | 239204
16 | 53:09.30 | 5:01.60 | 239205 | 261839
17 | 58:11.15 | 4:39.10 | 261840 | 282774
18 | 62:50.25 | 1:53.13 | 282775 | 291262 Track 1

Filename E:MUSICMy MusicRe subirMefistófele - Treigle - Domingo - Caballé - CD 1CD1 Preludio.wav

Peak level 82.3 %
Extraction speed 2.0 X
Track quality 100.0 %
Test CRC 48B176DE
Copy CRC 48B176DE
Track not present in AccurateRip database
Copy OK

Track 2

Filename E:MUSICMy MusicRe subirMefistófele - Treigle - Domingo - Caballé - CD 1CD2 Ave Signore-chorus.wav

Peak level 58.7 %
Extraction speed 2.1 X
Track quality 100.0 %
Test CRC 74C6DB1D
Copy CRC 74C6DB1D
Track not present in AccurateRip database
Copy OK

Track 3

Filename E:MUSICMy MusicRe subirMefistófele - Treigle - Domingo - Caballé - CD 1CD3 Ave Signor--treigle.wav

Peak level 65.7 %
Extraction speed 2.3 X
Track quality 100.0 %
Test CRC C2D97805
Copy CRC C2D97805
Track not present in AccurateRip database
Copy OK

Track 4

Filename E:MUSICMy MusicRe subirMefistófele - Treigle - Domingo - Caballé - CD 1CD4 T'e Noto Faust.wav

Peak level 51.0 %
Extraction speed 2.4 X
Track quality 100.0 %
Test CRC DE93E9CE
Copy CRC DE93E9CE
Track not present in AccurateRip database
Copy OK

Track 5

Filename E:MUSICMy MusicRe subirMefistófele - Treigle - Domingo - Caballé - CD 1CD5 Siam Nimbi Volante Dai Limbi.wav

Peak level 31.2 %
Extraction speed 2.2 X
Track quality 100.0 %
Test CRC A52748A0
Copy CRC A52748A0
Track not present in AccurateRip database
Copy OK

Track 6

Filename E:MUSICMy MusicRe subirMefistófele - Treigle - Domingo - Caballé - CD 1CD6 Salve, Regina.wav

Peak level 97.7 %
Extraction speed 2.9 X
Track quality 100.0 %
Test CRC 288BBD2F
Copy CRC 288BBD2F
Track not present in AccurateRip database
Copy OK

Track 7

Filename E:MUSICMy MusicRe subirMefistófele - Treigle - Domingo - Caballé - CD 1CD7 Act 1 Perche De La-chorus.wav

Peak level 97.7 %
Extraction speed 2.9 X
Track quality 100.0 %
Test CRC 86AF5277
Copy CRC 86AF5277
Track not present in AccurateRip database
Copy OK

Track 8

Filename E:MUSICMy MusicRe subirMefistófele - Treigle - Domingo - Caballé - CD 1CD8 Al Soave Raggiar Di Primavera-faust , Wagner.wav

Peak level 89.9 %
Extraction speed 2.7 X
Track quality 100.0 %
Test CRC C7BD815B
Copy CRC C7BD815B
Track not present in AccurateRip database
Copy OK

Track 9

Filename E:MUSICMy MusicRe subirMefistófele - Treigle - Domingo - Caballé - CD 1CD9 Juhe,juhe,juheisa! Juhe-chorus.wav

Peak level 94.2 %
Extraction speed 2.1 X
Track quality 99.9 %
Test CRC 221C1BB6
Copy CRC 221C1BB6
Track not present in AccurateRip database
Copy OK

Track 10

Filename E:MUSICMy MusicRe subirMefistófele - Treigle - Domingo - Caballé - CD 1CD10 Sediam Sovra Quel Sasso - Faust,wagner,chorus.wav

Peak level 99.5 %
Extraction speed 3.3 X
Track quality 100.0 %
Test CRC 12BCC987
Copy CRC 12BCC987
Track not present in AccurateRip database
Copy OK

Track 11

Filename E:MUSICMy MusicRe subirMefistófele - Treigle - Domingo - Caballé - CD 1CD11 Act1,sc2 Dai Campi, Dai Prati-faust.wav

Peak level 97.7 %
Extraction speed 3.4 X
Track quality 100.0 %
Test CRC 13ECF8C6
Copy CRC 13ECF8C6
Track not present in AccurateRip database
Copy OK

Track 12

Filename E:MUSICMy MusicRe subirMefistófele - Treigle - Domingo - Caballé - CD 1CD12 Son Lo Spirito Che Nega-mefistofele.wav

Peak level 97.7 %
Extraction speed 3.3 X
Track quality 100.0 %
Test CRC 8236B8B5
Copy CRC 8236B8B5
Track not present in AccurateRip database
Copy OK

Track 13

Filename E:MUSICMy MusicRe subirMefistófele - Treigle - Domingo - Caballé - CD 1CD13 Strano Figlio Del Caos-faust,mefistofele.wav

Peak level 39.0 %
Extraction speed 2.6 X
Track quality 100.0 %
Test CRC 3FEE0DB2
Copy CRC 3FEE0DB2
Track not present in AccurateRip database
Copy OK

Track 14

Filename E:MUSICMy MusicRe subirMefistófele - Treigle - Domingo - Caballé - CD 1CD14 Se Tu Mi Doni Un'ora Di Riposo-faust,mefistofele.wav

Peak level 39.7 %
Extraction speed 2.6 X
Track quality 100.0 %
Test CRC 43579265
Copy CRC 43579265
Track not present in AccurateRip database
Copy OK

Track 15

Filename E:MUSICMy MusicRe subirMefistófele - Treigle - Domingo - Caballé - CD 1CD15 Fin Da Stanotte-mefistofele,faust.wav

Peak level 70.9 %
Extraction speed 3.4 X
Track quality 100.0 %
Test CRC D89F1CAE
Copy CRC D89F1CAE
Track not present in AccurateRip database
Copy OK

Track 16

Filename E:MUSICMy MusicRe subirMefistófele - Treigle - Domingo - Caballé - CD 1CD16 Act2,sc1-cavaliere Illustre E Saggio-quartet.wav

Peak level 29.8 %
Extraction speed 2.9 X
Track quality 99.9 %
Test CRC 27BB38CD
Copy CRC 27BB38CD
Track not present in AccurateRip database
Copy OK

Track 17

Filename E:MUSICMy MusicRe subirMefistófele - Treigle - Domingo - Caballé - CD 1CD17 Dimmi Se Credi,enrico, Nella Religione-margherita,faust.wav

Peak level 46.1 %
Extraction speed 3.8 X
Track quality 100.0 %
Test CRC C1A0FAE9
Copy CRC C1A0FAE9
Track not present in AccurateRip database
Copy OK

Track 18

Filename E:MUSICMy MusicRe subirMefistófele - Treigle - Domingo - Caballé - CD 1CD18 Dio Clemente Etc Quartet...wav

Peak level 64.4 %
Extraction speed 3.3 X
Track quality 100.0 %
Test CRC 6AF0A1D5
Copy CRC 6AF0A1D5
Track not present in AccurateRip database
Copy OK None of the tracks are present in the AccurateRip database

No errors occurred

End of status report

==== Log checksum 566E9F9B52D8F182A7FDE7A4D6DA9BFACF0F68BC577E95A90996E45B2690CF28 ====

CD 2
EAC LOG

Exact Audio Copy V1.0 beta 3 from 29. August 2011

EAC extraction logfile from 18. May 2015, 21:44

London Symph. - Julius Rudel; Treigle, Domingo, Caballe, Ligi / Arrigo Boito - Mefistofele Disc 2 of 2

Used drive : SONY DVD RW DRU-840A Adapter: 0 ID: 1

Read mode : Secure
Utilize accurate stream : Yes
Defeat audio cache : Yes
Make use of C2 pointers : No

Read offset correction : 6
Overread into Lead-In and Lead-Out : No
Fill up missing offset samples with silence : Yes
Delete leading and trailing silent blocks : No
Null samples used in CRC calculations : Yes
Used interface : Native Win32 interface for Win NT & 2000
Gap handling : Not detected, thus appended to previous track

Used output format : User Defined Encoder
Selected bitrate : 320 kBit/s
Quality : High
Add ID3 tag : No
Command line compressor : C:Archivos de programaExact Audio CopyFLACFLAC.EXE
Additional command line options : -6 -V -T "ARTIST=%artist%" -T "TITLE=%title%" -T "ALBUM=%albumtitle%" -T "DATE=%year%" -T "TRACKNUMBER=%tracknr%" -T "GENRE=%genre%" -T "COMMENT=%comment%" -T "BAND=%albuminterpret%" -T "ALBUMARTIST=%albuminterpret%" -T "COMPOSER=%composer%" %haslyrics%--tag-from-file=LYRICS="%lyricsfile%"%haslyrics% -T "DISCNUMBER=%cdnumber%" -T "TOTALDISCS=%totalcds%" -T "TOTALTRACKS=%numtracks%" %hascover%--picture="%coverfile%"%hascover% %source% -o %dest% TOC of the extracted CD

Track | Start | Length | Start sector | End sector
---------------------------------------------------------
1 | 0:00.00 | 2:37.00 | 0 | 11774
2 | 2:37.00 | 5:13.48 | 11775 | 35297
3 | 7:50.48 | 2:21.52 | 35298 | 45924
4 | 10:12.25 | 3:06.03 | 45925 | 59877
5 | 13:18.28 | 5:54.07 | 59878 | 86434
6 | 19:12.35 | 7:13.73 | 86435 | 118982
7 | 26:26.33 | 4:51.02 | 118983 | 140809
8 | 31:17.35 | 2:22.50 | 140810 | 151509
9 | 33:40.10 | 1:53.41 | 151510 | 160025
10 | 35:33.51 | 3:37.38 | 160026 | 176338
11 | 39:11.14 | 3:45.00 | 176339 | 193213
12 | 42:56.14 | 2:13.08 | 193214 | 203196
13 | 45:09.22 | 3:12.55 | 203197 | 217651
14 | 48:22.02 | 4:43.09 | 217652 | 238885
15 | 53:05.11 | 8:13.50 | 238886 | 275910
16 | 61:18.61 | 4:02.17 | 275911 | 294077
17 | 65:21.03 | 3:32.64 | 294078 | 310041
18 | 68:53.67 | 4:36.45 | 310042 | 330786 Track 1

Filename E:MUSICMy MusicRe subirMefistófele - Treigle - Domingo - Caballé - CD 2CD1 Su Cammina,cammina,cammina-mefistofele.wav

Peak level 18.2 %
Extraction speed 3.4 X
Track quality 99.9 %
Test CRC CA4C070D
Copy CRC CA4C070D
Track not present in AccurateRip database
Copy OK

Track 2

Filename E:MUSICMy MusicRe subirMefistófele - Treigle - Domingo - Caballé - CD 2CD2 Folletto-faust,mefistofele,witches.wav

Peak level 77.7 %
Extraction speed 5.5 X
Track quality 100.0 %
Test CRC FDCFEBE9
Copy CRC FDCFEBE9
Track not present in AccurateRip database
Copy OK

Track 3

Filename E:MUSICMy MusicRe subirMefistófele - Treigle - Domingo - Caballé - CD 2CD3 Popoli! E Scettro E Clamide Non Date Al Re Sovrano-mefistofele, Etc.wav

Peak level 57.7 %
Extraction speed 5.1 X
Track quality 100.0 %
Test CRC E1B997F4
Copy CRC E1B997F4
Track not present in AccurateRip database
Copy OK

Track 4

Filename E:MUSICMy MusicRe subirMefistófele - Treigle - Domingo - Caballé - CD 2CD4 Ecco Il Mondo-mefistofele & Witches.wav

Peak level 76.4 %
Extraction speed 5.7 X
Track quality 100.0 %
Test CRC 7ED86E97
Copy CRC 7ED86E97
Track not present in AccurateRip database
Copy OK

Track 5

Filename E:MUSICMy MusicRe subirMefistófele - Treigle - Domingo - Caballé - CD 2CD5 Stupor!stupor -faust,mefistofele,witches.wav

Peak level 82.0 %
Extraction speed 6.6 X
Track quality 100.0 %
Test CRC 3B65F770
Copy CRC 3B65F770
Track not present in AccurateRip database
Copy OK

Track 6

Filename E:MUSICMy MusicRe subirMefistófele - Treigle - Domingo - Caballé - CD 2CD6 Act3 L'altra Notte in Fondo Al Mare-margherita.wav

Peak level 48.8 %
Extraction speed 7.3 X
Track quality 100.0 %
Test CRC F0A6D8CF
Copy CRC F0A6D8CF
Track not present in AccurateRip database
Copy OK

Track 7

Filename E:MUSICMy MusicRe subirMefistófele - Treigle - Domingo - Caballé - CD 2CD7 Dio Di Pietra-margherita & Faust.wav

Peak level 57.6 %
Extraction speed 7.5 X
Track quality 100.0 %
Test CRC 5BD11D2A
Copy CRC 5BD11D2A
Track not present in AccurateRip database
Copy OK

Track 8

Filename E:MUSICMy MusicRe subirMefistófele - Treigle - Domingo - Caballé - CD 2CD8 Lontano,lontano,lontano--margherita & Faust.wav

Peak level 46.6 %
Extraction speed 6.9 X
Track quality 100.0 %
Test CRC B50018D7
Copy CRC B50018D7
Track not present in AccurateRip database
Copy OK

Track 9

Filename E:MUSICMy MusicRe subirMefistófele - Treigle - Domingo - Caballé - CD 2CD9 Soregi Il Di!-mefistofele,margherita,faust.wav

Peak level 53.6 %
Extraction speed 4.4 X
Track quality 99.9 %
Test CRC F7075342
Copy CRC F7075342
Track not present in AccurateRip database
Copy OK

Track 10

Filename E:MUSICMy MusicRe subirMefistófele - Treigle - Domingo - Caballé - CD 2CD10 Spunta L'aurora Pallida-margherita,faust,mefistofele,celestial Chorus.wav

Peak level 89.1 %
Extraction speed 7.5 X
Track quality 100.0 %
Test CRC 1FFC457F
Copy CRC 1FFC457F
Track not present in AccurateRip database
Copy OK

Track 11

Filename E:MUSICMy MusicRe subirMefistófele - Treigle - Domingo - Caballé - CD 2CD11 Act4 La Luna Immobile Innonda L'etere-elena,pantalis,faust.wav

Peak level 23.0 %
Extraction speed 8.0 X
Track quality 100.0 %
Test CRC 69AFA179
Copy CRC 69AFA179
Track not present in AccurateRip database
Copy OK

Track 12

Filename E:MUSICMy MusicRe subirMefistófele - Treigle - Domingo - Caballé - CD 2CD12 Ecco La Notte Del Classico Sabba-mefistofele,faust.wav

Peak level 48.3 %
Extraction speed 5.2 X
Track quality 99.9 %
Test CRC 33ED7BCF
Copy CRC 33ED7BCF
Track not present in AccurateRip database
Copy OK

Track 13

Filename E:MUSICMy MusicRe subirMefistófele - Treigle - Domingo - Caballé - CD 2CD13 Ah! Triofi Ad Elena-chorus.wav

Peak level 43.5 %
Extraction speed 8.1 X
Track quality 100.0 %
Test CRC 0CA6DE0E
Copy CRC 0CA6DE0E
Track not present in AccurateRip database
Copy OK

Track 14

Filename E:MUSICMy MusicRe subirMefistófele - Treigle - Domingo - Caballé - CD 2CD14 Notte Cupa, Truce Senza Fine, Funebre-elena ,chorus.wav

Peak level 63.4 %
Extraction speed 8.8 X
Track quality 100.0 %
Test CRC 835F64B3
Copy CRC 835F64B3
Track not present in AccurateRip database
Copy OK

Track 15

Filename E:MUSICMy MusicRe subirMefistófele - Treigle - Domingo - Caballé - CD 2CD15 Forma Iodeal Purissima Della Bellezza Eterena!-elena,chorus.wav

Peak level 43.5 %
Extraction speed 8.4 X
Track quality 99.9 %
Test CRC B8C8D113
Copy CRC B8C8D113
Track not present in AccurateRip database
Copy OK

Track 16

Filename E:MUSICMy MusicRe subirMefistófele - Treigle - Domingo - Caballé - CD 2CD16 Epilogue-cammina, Cammina-superbo Pensier--mefistofele,faust.wav

Peak level 39.8 %
Extraction speed 9.3 X
Track quality 100.0 %
Test CRC 3ACE669D
Copy CRC 3ACE669D
Track not present in AccurateRip database
Copy OK

Track 17

Filename E:MUSICMy MusicRe subirMefistófele - Treigle - Domingo - Caballé - CD 2CD17 Guinto Sul Passo Estremo-faust,mefistofele.wav

Peak level 48.5 %
Extraction speed 9.3 X
Track quality 100.0 %
Test CRC 4575F4AC
Copy CRC 4575F4AC
Track not present in AccurateRip database
Copy OK

Track 18

Filename E:MUSICMy MusicRe subirMefistófele - Treigle - Domingo - Caballé - CD 2CD18 All'erta! all'erta-mefistofele - faust - celestial Chorus.wav

Peak level 97.7 %
Extraction speed 9.8 X
Track quality 100.0 %
Test CRC 0D6CDC31
Copy CRC 0D6CDC31
Track not present in AccurateRip database
Copy OK None of the tracks are present in the AccurateRip database

No errors occurred

End of status report

==== Log checksum FAE518C2AAC1268ECF9CBC3E314326A7ACB46DE452B87F595F30A084A68361B5 ====

------------------------------------------------------------

Exact Audio Copy V1.0 beta 3 from 29. August 2011

EAC extraction logfile from 18. May 2015, 21:44

London Symph. - Julius Rudel; Treigle, Domingo, Caballe, Ligi / Arrigo Boito - Mefistofele Disc 2 of 2

Used drive : SONY DVD RW DRU-840A Adapter: 0 ID: 1

Read mode : Secure
Utilize accurate stream : Yes
Defeat audio cache : Yes
Make use of C2 pointers : No

Read offset correction : 6
Overread into Lead-In and Lead-Out : No
Fill up missing offset samples with silence : Yes
Delete leading and trailing silent blocks : No
Null samples used in CRC calculations : Yes
Used interface : Native Win32 interface for Win NT & 2000
Gap handling : Not detected, thus appended to previous track

Used output format : User Defined Encoder
Selected bitrate : 320 kBit/s
Quality : High
Add ID3 tag : No
Command line compressor : C:Archivos de programaExact Audio CopyFLACFLAC.EXE
Additional command line options : -6 -V -T "ARTIST=%artist%" -T "TITLE=%title%" -T "ALBUM=%albumtitle%" -T "DATE=%year%" -T "TRACKNUMBER=%tracknr%" -T "GENRE=%genre%" -T "COMMENT=%comment%" -T "BAND=%albuminterpret%" -T "ALBUMARTIST=%albuminterpret%" -T "COMPOSER=%composer%" %haslyrics%--tag-from-file=LYRICS="%lyricsfile%"%haslyrics% -T "DISCNUMBER=%cdnumber%" -T "TOTALDISCS=%totalcds%" -T "TOTALTRACKS=%numtracks%" %hascover%--picture="%coverfile%"%hascover% %source% -o %dest% TOC of the extracted CD

Track | Start | Length | Start sector | End sector
---------------------------------------------------------
1 | 0:00.00 | 2:37.00 | 0 | 11774
2 | 2:37.00 | 5:13.48 | 11775 | 35297
3 | 7:50.48 | 2:21.52 | 35298 | 45924
4 | 10:12.25 | 3:06.03 | 45925 | 59877
5 | 13:18.28 | 5:54.07 | 59878 | 86434
6 | 19:12.35 | 7:13.73 | 86435 | 118982
7 | 26:26.33 | 4:51.02 | 118983 | 140809
8 | 31:17.35 | 2:22.50 | 140810 | 151509
9 | 33:40.10 | 1:53.41 | 151510 | 160025
10 | 35:33.51 | 3:37.38 | 160026 | 176338
11 | 39:11.14 | 3:45.00 | 176339 | 193213
12 | 42:56.14 | 2:13.08 | 193214 | 203196
13 | 45:09.22 | 3:12.55 | 203197 | 217651
14 | 48:22.02 | 4:43.09 | 217652 | 238885
15 | 53:05.11 | 8:13.50 | 238886 | 275910
16 | 61:18.61 | 4:02.17 | 275911 | 294077
17 | 65:21.03 | 3:32.64 | 294078 | 310041
18 | 68:53.67 | 4:36.45 | 310042 | 330786 Track 1

Filename E:MUSICMy MusicRe subirMefistófele - Treigle - Domingo - Caballé - CD 2CD1 Su Cammina,cammina,cammina-mefistofele.wav

Peak level 18.2 %
Extraction speed 3.4 X
Track quality 99.9 %
Test CRC CA4C070D
Copy CRC CA4C070D
Track not present in AccurateRip database
Copy OK

Track 2

Filename E:MUSICMy MusicRe subirMefistófele - Treigle - Domingo - Caballé - CD 2CD2 Folletto-faust,mefistofele,witches.wav

Peak level 77.7 %
Extraction speed 5.5 X
Track quality 100.0 %
Test CRC FDCFEBE9
Copy CRC FDCFEBE9
Track not present in AccurateRip database
Copy OK

Track 3

Filename E:MUSICMy MusicRe subirMefistófele - Treigle - Domingo - Caballé - CD 2CD3 Popoli! E Scettro E Clamide Non Date Al Re Sovrano-mefistofele, Etc.wav

Peak level 57.7 %
Extraction speed 5.1 X
Track quality 100.0 %
Test CRC E1B997F4
Copy CRC E1B997F4
Track not present in AccurateRip database
Copy OK

Track 4

Filename E:MUSICMy MusicRe subirMefistófele - Treigle - Domingo - Caballé - CD 2CD4 Ecco Il Mondo-mefistofele & Witches.wav

Peak level 76.4 %
Extraction speed 5.7 X
Track quality 100.0 %
Test CRC 7ED86E97
Copy CRC 7ED86E97
Track not present in AccurateRip database
Copy OK

Track 5

Filename E:MUSICMy MusicRe subirMefistófele - Treigle - Domingo - Caballé - CD 2CD5 Stupor!stupor -faust,mefistofele,witches.wav

Peak level 82.0 %
Extraction speed 6.6 X
Track quality 100.0 %
Test CRC 3B65F770
Copy CRC 3B65F770
Track not present in AccurateRip database
Copy OK

Track 6

Filename E:MUSICMy MusicRe subirMefistófele - Treigle - Domingo - Caballé - CD 2CD6 Act3 L'altra Notte in Fondo Al Mare-margherita.wav

Peak level 48.8 %
Extraction speed 7.3 X
Track quality 100.0 %
Test CRC F0A6D8CF
Copy CRC F0A6D8CF
Track not present in AccurateRip database
Copy OK

Track 7

Filename E:MUSICMy MusicRe subirMefistófele - Treigle - Domingo - Caballé - CD 2CD7 Dio Di Pietra-margherita & Faust.wav

Peak level 57.6 %
Extraction speed 7.5 X
Track quality 100.0 %
Test CRC 5BD11D2A
Copy CRC 5BD11D2A
Track not present in AccurateRip database
Copy OK

Track 8

Filename E:MUSICMy MusicRe subirMefistófele - Treigle - Domingo - Caballé - CD 2CD8 Lontano,lontano,lontano--margherita & Faust.wav

Peak level 46.6 %
Extraction speed 6.9 X
Track quality 100.0 %
Test CRC B50018D7
Copy CRC B50018D7
Track not present in AccurateRip database
Copy OK

Track 9

Filename E:MUSICMy MusicRe subirMefistófele - Treigle - Domingo - Caballé - CD 2CD9 Soregi Il Di!-mefistofele,margherita,faust.wav

Peak level 53.6 %
Extraction speed 4.4 X
Track quality 99.9 %
Test CRC F7075342
Copy CRC F7075342
Track not present in AccurateRip database
Copy OK

Track 10

Filename E:MUSICMy MusicRe subirMefistófele - Treigle - Domingo - Caballé - CD 2CD10 Spunta L'aurora Pallida-margherita,faust,mefistofele,celestial Chorus.wav

Peak level 89.1 %
Extraction speed 7.5 X
Track quality 100.0 %
Test CRC 1FFC457F
Copy CRC 1FFC457F
Track not present in AccurateRip database
Copy OK

Track 11

Filename E:MUSICMy MusicRe subirMefistófele - Treigle - Domingo - Caballé - CD 2CD11 Act4 La Luna Immobile Innonda L'etere-elena,pantalis,faust.wav

Peak level 23.0 %
Extraction speed 8.0 X
Track quality 100.0 %
Test CRC 69AFA179
Copy CRC 69AFA179
Track not present in AccurateRip database
Copy OK

Track 12

Filename E:MUSICMy MusicRe subirMefistófele - Treigle - Domingo - Caballé - CD 2CD12 Ecco La Notte Del Classico Sabba-mefistofele,faust.wav

Peak level 48.3 %
Extraction speed 5.2 X
Track quality 99.9 %
Test CRC 33ED7BCF
Copy CRC 33ED7BCF
Track not present in AccurateRip database
Copy OK

Track 13

Filename E:MUSICMy MusicRe subirMefistófele - Treigle - Domingo - Caballé - CD 2CD13 Ah! Triofi Ad Elena-chorus.wav

Peak level 43.5 %
Extraction speed 8.1 X
Track quality 100.0 %
Test CRC 0CA6DE0E
Copy CRC 0CA6DE0E
Track not present in AccurateRip database
Copy OK

Track 14

Filename E:MUSICMy MusicRe subirMefistófele - Treigle - Domingo - Caballé - CD 2CD14 Notte Cupa, Truce Senza Fine, Funebre-elena ,chorus.wav

Peak level 63.4 %
Extraction speed 8.8 X
Track quality 100.0 %
Test CRC 835F64B3
Copy CRC 835F64B3
Track not present in AccurateRip database
Copy OK

Track 15

Filename E:MUSICMy MusicRe subirMefistófele - Treigle - Domingo - Caballé - CD 2CD15 Forma Iodeal Purissima Della Bellezza Eterena!-elena,chorus.wav

Peak level 43.5 %
Extraction speed 8.4 X
Track quality 99.9 %
Test CRC B8C8D113
Copy CRC B8C8D113
Track not present in AccurateRip database
Copy OK

Track 16

Filename E:MUSICMy MusicRe subirMefistófele - Treigle - Domingo - Caballé - CD 2CD16 Epilogue-cammina, Cammina-superbo Pensier--mefistofele,faust.wav

Peak level 39.8 %
Extraction speed 9.3 X
Track quality 100.0 %
Test CRC 3ACE669D
Copy CRC 3ACE669D
Track not present in AccurateRip database
Copy OK

Track 17

Filename E:MUSICMy MusicRe subirMefistófele - Treigle - Domingo - Caballé - CD 2CD17 Guinto Sul Passo Estremo-faust,mefistofele.wav

Peak level 48.5 %
Extraction speed 9.3 X
Track quality 100.0 %
Test CRC 4575F4AC
Copy CRC 4575F4AC
Track not present in AccurateRip database
Copy OK

Track 18

Filename E:MUSICMy MusicRe subirMefistófele - Treigle - Domingo - Caballé - CD 2CD18 All'erta! all'erta-mefistofele - faust - celestial Chorus.wav

Peak level 97.7 %
Extraction speed 9.8 X
Track quality 100.0 %
Test CRC 0D6CDC31
Copy CRC 0D6CDC31
Track not present in AccurateRip database
Copy OK None of the tracks are present in the AccurateRip database

No errors occurred

End of status report

==== Log checksum FAE518C2AAC1268ECF9CBC3E314326A7ACB46DE452B87F595F30A084A68361B5 ====




Boito Mefistofele | The 6Th Man 1997 | 1997 Best Men | The El 1997 | Con Air 1997 | Nl Sub 1997 | The Ex 1997 | The Face 1997 | Gra Pl 1997 | Con Air 1997
Free Full Download Boito - Mefistofele - Treigle - Rudel ( form MediaFire link RapidShare, ifile.it, Uploaded.to, Zippyshare, FileSonic, turbobit, ul.to, ORON, DepositFiles,rapidgator.net, extabit.com, filefactory.com. Boito - Mefistofele - Treigle - Rudel ( Torrent Download with keygen, crack, serial, cdkey,password,1080P,hd, 2015, 2016
Dear visitor, you went to the site as unregistered user.
We encourage you to register .

Add comment

Name:*
E-Mail:*
Comment:
  • bowtiesmilelaughingblushsmileyrelaxedsmirk
    heart_eyeskissing_heartkissing_closed_eyesflushedrelievedsatisfiedgrin
    winkstuck_out_tongue_winking_eyestuck_out_tongue_closed_eyesgrinningkissingstuck_out_tonguesleeping
    worriedfrowninganguishedopen_mouthgrimacingconfusedhushed
    expressionlessunamusedsweat_smilesweatdisappointed_relievedwearypensive
    disappointedconfoundedfearfulcold_sweatperseverecrysob
    joyastonishedscreamtired_faceangryragetriumph
    sleepyyummasksunglassesdizzy_faceimpsmiling_imp
    neutral_faceno_mouthinnocent
Enter the two words shown in the image:

Sitemap We don't Store Any File In Server. The Search and free download links all published by our users.if You Have Any Doubts About Legality Of Content, plz contact us.
  • count 88x31px