Russill Paul - 6 Studio Albums (1999-2004)

jone Category: music

Russill Paul - 6 Studio Albums (1999-2004)
EAC Rip | FLAC: Image+Cue+Log | 2.3 Gb | MP3 CBR 320 kbps | 867 Mb | Scans | TTime: 5:54:46
Genre: New Age, Meditative, Mantras | Label: The Relaxation Company

The Yoga of Sound is a platform that I use to share esoteric yoga practices related to sound, music and chant that are rooted in traditions thousands of years old. My approach is to make these practices relevant and accessible to our times regardless of whether people have a musical background.

My journey spans almost three decades of spiritual practice, study and the daily commitment to evolve. From the spiritual standpoint, and from experiencing my work, there can be no doubt that there are lifetimes of development involved. Although I have had profound spiritual awakenings, and continue to do so, I make no personal claims. Instead, I take the position that spiritual transformation in an on going process that requires constant and continual engagement. ~ RUSSILL PAUL (Anirud Jaidev)


Russill Paul is author of the ground-breaking literary work The Yoga of Sound: Tapping the Hidden Power of Music and Chant (New World Library 2004 & 2006) and Jesus in the Lotus: The Mystical Doorway between Christianity and Yogic Spirituality (New World Library 2009).
He the music producer of several acclaimed chant CDs through The Relaxation Company, NY, now part of Sounds True, including Shakti: Tantric Embrace and Shabda: Mantra Mysticism.

He trained simultaneously as a monk and yogi under the direction of the renowned sage and mystic, Bede Griffiths, in South India for close to five years and has taught in gradutate and post-graduate spirituality programs for 17 consecutive years.
He presents his work on sonic mysticism at prestigious retreat and learning centers nationwide in addition to teaching through his Yogic Mystery School, an online spirituality program with a highly personalized approach.

Spiritual Training and Education (26 years)

A native of Chennai, South India, Russill Paul took to playing stringed instruments from the early age of four and began professional music in his teens. Although he was born and brought up in a Christian family, he developed a keen interest in Indian spirituality in childhood that has guided him into the present day.

In 1984, he underwent a powerful spiritual transition that motivated him to begin living the unusual combination of a Benedictine monk and yogi under the direction of Dom Bede Griffiths, a pioneering Benedictine monk and revered sage who directed Shantivanam, a Christian monastery that expressed itself through the spiritual and yogic culture of India.

During the five years he spent as a monk, Russill Paul immersed himself in the sacred culture and spirituality of India's esteemed heritage, studying traditional Sanskrit chanting and South Indian classical music as well as yoga, meditation, philosophy and cosmology. In addition to his training at the monastery, Russill was initiated into the sacred learning of Sanskrit and Indian music in several ancient temple cities of South India enabling him to develop the tools related to his lifework: The Yoga of Sound.



------------------------------------------------------------------------------------------------------------------------------------------------------------------------------------------



Shabda Yoga (1999)
EAC Rip | FLAC: Image+Cue+Log | 428 Mb | MP3 CBR 320 kbps | 145.66 Mb | Scans | Time: 59:15
Label: The Relaxation Company | Cat.№: 3130

"Shabda," musician Russill Paul explains in the liner notes to this collection of traditional Indian music, represents the earliest stage in the "yoga of sound," which was cultivated more than 4,000 years ago. The disc features Paul performing on a 10-string creation that he calls a "unitar," and accompanied minimally by bansuri flute, sarangi, and percussion. The principal attraction here, however, is Paul's sincere chanting of Vedic verses that, Paul mentions in the disc's well-reasoned liner notes, are considered by some to be the world's oldest extant scriptures. These drone-like Shabda mantras exude a seriousness and solemnity that convey a mystical essence that, to Western ears, might sound alien, yet are embraced by adherents for their capacity to enable healing and personal transformation. Paul offers explanatory details on each chant and presents a framework for guided meditations. Likely to appeal primarily to advanced yoga practitioners and those who have an interest in ancient Indian musical traditions. --Terry Wood


Track Listing

1. Rudram (10:39)
2. Aum (7:33)
3. Lokah Samastha (6:15)
4. Asato Ma (4:52)
5. Vyahriti (6:31)
6. Gayatri (5:47)
7. Krato Smara (8:07)
8. Taiterreya (9:31)

EAC Log
Exact Audio Copy V0.99 prebeta 4 from 23. January 2008

EAC extraction logfile from 27. October 2009, 21:07

Russill Paul / Shabda Yoga

Used drive : Optiarc DVD RW AD-5200A Adapter: 0 ID: 1

Read mode : Secure
Utilize accurate stream : Yes
Defeat audio cache : Yes
Make use of C2 pointers : No

Read offset correction : 48
Overread into Lead-In and Lead-Out : No
Fill up missing offset samples with silence : Yes
Delete leading and trailing silent blocks : No
Null samples used in CRC calculations : Yes
Used interface : Native Win32 interface for Win NT & 2000

Used output format : Internal WAV Routines
Sample format : 44.100 Hz; 16 Bit; Stereo TOC of the extracted CD

Track | Start | Length | Start sector | End sector
---------------------------------------------------------
1 | 0:00.00 | 10:39.38 | 0 | 47962
2 | 10:39.38 | 7:33.28 | 47963 | 81965
3 | 18:12.66 | 6:15.14 | 81966 | 110104
4 | 24:28.05 | 4:51.71 | 110105 | 132000
5 | 29:20.01 | 6:31.15 | 132001 | 161340
6 | 35:51.16 | 5:47.04 | 161341 | 187369
7 | 41:38.20 | 8:07.41 | 187370 | 223935
8 | 49:45.61 | 9:31.56 | 223936 | 266816 Range status and errors

Selected range

Filename H:_prepare10Russill Paul - Shabda YogaRussill Paul - Shabda Yoga.wav

Peak level 100.0 %
Range quality 99.9 %
Test CRC 40B62C73
Copy CRC 40B62C73
Copy OK

No errors occurred


AccurateRip summary

Track 1 accurately ripped (confidence 2) [55CD7F95]
Track 2 accurately ripped (confidence 2) [61D258FE]
Track 3 accurately ripped (confidence 2) [EBDA051C]
Track 4 accurately ripped (confidence 2) [1738084A]
Track 5 accurately ripped (confidence 2) [46DDD8B4]
Track 6 accurately ripped (confidence 2) [FBBF1271]
Track 7 accurately ripped (confidence 2) [956E5FEE]
Track 8 accurately ripped (confidence 2) [0319FA78]

All tracks accurately ripped

End of status report


------------------------------------------------------------------------------------------------------------------------------------------------------------------------------------------



Bhava Yoga (2000)
EAC Rip | FLAC: Image+Cue+Log | 412.03 Mb | MP3 CBR 320 kbps | 143.45 Mb | Scans | Time: 58:47
Label: The Relaxation Company | Cat.№: 3132

Yoga! The word evokes images of people gracefully holding their bodies in positions of masterful flexibility. But alongside this familiar Yoga practice of movement and meditation is an ancient Yoga of sound largely unknown in the West, whose goal is to awaken dormant powers of the mind through the use of music and chant.

The YOGA OF SOUND SERIES will initiate you into this ancient science, and will introduce you to the path of using sound to facilitate emotional balance, vitality, freedom from stress, and an expanded sense of one’s inner space.

BHAVA YOGA, developed in the fourteenth century is the practice of using exquisite melodic chanting to experience the rapture associated with connecting to the Divine. Chanting these ancient words unites the expansiveness of the cosmos with the intimacy of the human body, bringing you a sense of inner freedom, liberation, and profound love. Russill Paul masterfully blends the tremendous power of these ancient chants with an ensemble of traditional Indian and contemporary instrumentation.

BHAVA YOGA is an ecstatic listening experience. You can delve even deeper into this tradition and actually begin chanting these powerful mantras along with the recording. The enclosed instructions will teach you the actual mantras as well as meditation techniques to help you gain the most benefit from this unique practice.


Track Listing

1. Invocation (5:21)
2. Tansen's Journey (16:37)
3. Shree Ma (9:10)
4. Arunachala (12:22)
5. Raghupathy (First Version) (8:18)
6. Raghupathy (Second Version) (6:59)

EAC Log
Exact Audio Copy V0.99 prebeta 4 from 23. January 2008

EAC extraction logfile from 17. September 2009, 19:37

Russill Paul / Bhava Yoga

Used drive : ASUS DRW-1814BL Adapter: 0 ID: 0

Read mode : Secure
Utilize accurate stream : Yes
Defeat audio cache : Yes
Make use of C2 pointers : No

Read offset correction : 6
Overread into Lead-In and Lead-Out : No
Fill up missing offset samples with silence : Yes
Delete leading and trailing silent blocks : No
Null samples used in CRC calculations : Yes
Used interface : Installed external ASPI interface

Used output format : Internal WAV Routines
Sample format : 44.100 Hz; 16 Bit; Stereo TOC of the extracted CD

Track | Start | Length | Start sector | End sector
---------------------------------------------------------
1 | 0:00.00 | 5:21.33 | 0 | 24107
2 | 5:21.33 | 16:37.43 | 24108 | 98925
3 | 21:59.01 | 9:10.39 | 98926 | 140214
4 | 31:09.40 | 12:22.07 | 140215 | 195871
5 | 43:31.47 | 8:18.64 | 195872 | 233285
6 | 51:50.36 | 6:59.42 | 233286 | 264752 Range status and errors

Selected range

Filename H:mantra9Russill Paul - Bhava YogaRussill Paul - Bhava Yoga.wav

Peak level 100.0 %
Range quality 100.0 %
Test CRC 9484A800
Copy CRC 9484A800
Copy OK

No errors occurred


AccurateRip summary

Track 1 accurately ripped (confidence 1) [65EE8142]
Track 2 accurately ripped (confidence 1) [2A3B142F]
Track 3 accurately ripped (confidence 1) [C4C592AE]
Track 4 accurately ripped (confidence 1) [D59B48F3]
Track 5 accurately ripped (confidence 1) [24B02403]
Track 6 accurately ripped (confidence 1) [F25761D0]

All tracks accurately ripped

End of status report


------------------------------------------------------------------------------------------------------------------------------------------------------------------------------------------



Shakti Yoga (2000)
EAC Rip | FLAC: Image+Cue+Log | 377.16 Mb | MP3 CBR 320 kbps | 143.08 Mb | Scans | Time: 58:23
Label: The Relaxation Company | Cat.№: 3131

Yoga! The word evokes images of people gracefully holding their bodies in positions of masterful flexibility. But alongside this familiar Yoga practice of movement and meditation is an ancient Yoga of sound largely unknown in the West, whose goal is to awaken dormant powers of the mind through the use of music and chant.

The YOGA OF SOUND SERIES will initiate you into this ancient science, and will introduce you to the path of using sound to facilitate emotional balance, vitality, freedom from stress, and an expanded sense of one’s inner space.

SHAKTI YOGA introduces you to the 1500-year-old Tantric tradition of using sacred sound to stimulate the flow of the body’s subtle energy centers, called chakras. Balancing your chakras by singing specific Tantric chants enhances your senses, heightens sensuality and physical pleasure, and helps you to establish a deep connection to your physical body and to the earth. Russill Paul masterfully blends the tremendous power of these ancient chants with an ensemble of traditional Indian and contemporary instrumentation.

SHAKTI YOGA is a sensual and energizing listening experience. You can delve even deeper into this tradition and actually begin chanting these powerful mantras along with the recording. The enclosed instructions will teach you the actual Shakti mantras as well as meditation techniques to help you gain the most benefit from this unique practice.


Track Listing

1. Om Namah Shivaaya (17:35)
2. Devi Mantras (17:57)
3. Bija Mantras (10:52)
4. Tantric Mantras (5:53)
5. Swara Yoga (6:06)

EAC Log
Exact Audio Copy V0.99 prebeta 4 from 23. January 2008

EAC extraction logfile from 27. October 2009, 21:51

Russill Paul / Shakti Yoga

Used drive : Optiarc DVD RW AD-5200A Adapter: 0 ID: 1

Read mode : Secure
Utilize accurate stream : Yes
Defeat audio cache : Yes
Make use of C2 pointers : No

Read offset correction : 48
Overread into Lead-In and Lead-Out : No
Fill up missing offset samples with silence : Yes
Delete leading and trailing silent blocks : No
Null samples used in CRC calculations : Yes
Used interface : Native Win32 interface for Win NT & 2000

Used output format : Internal WAV Routines
Sample format : 44.100 Hz; 16 Bit; Stereo TOC of the extracted CD

Track | Start | Length | Start sector | End sector
---------------------------------------------------------
1 | 0:00.00 | 17:35.23 | 0 | 79147
2 | 17:35.23 | 17:57.15 | 79148 | 159937
3 | 35:32.38 | 10:52.51 | 159938 | 208888
4 | 46:25.14 | 5:53.16 | 208889 | 235379
5 | 52:18.30 | 6:06.43 | 235380 | 262872 Range status and errors

Selected range

Filename H:_prepare10Russill Paul - Shakti YogaRussill Paul - Shakti Yoga.wav

Peak level 100.0 %
Range quality 100.0 %
Test CRC 0BD8AB03
Copy CRC 0BD8AB03
Copy OK

No errors occurred


AccurateRip summary

Track 1 accurately ripped (confidence 2) [76431FFC]
Track 2 accurately ripped (confidence 2) [4F7366B1]
Track 3 accurately ripped (confidence 2) [65EC5015]
Track 4 accurately ripped (confidence 2) [F7EC336D]
Track 5 accurately ripped (confidence 2) [CCD2E66A]

All tracks accurately ripped

End of status report


------------------------------------------------------------------------------------------------------------------------------------------------------------------------------------------



A.M. Yoga Chants (2001)
EAC Rip | FLAC: Image+Cue+Log | 395.92 Mb | MP3 CBR 320 kbps | 140.63 Mb | Scans | Time: 57:37
Label: The Relaxation Company | Cat.№: 3141

AM YOGA CHANTS

Alongside the familiar practice of Yoga exercise is an ancient, lesser-known Yoga of Sound. Using spiritually uplifting music and powerful chanting known as "kirtan," AM Yoga Chants will still your mind and open your heart, allowing you to experience peace, clarity, and joy.

An ensemble of evocative eastern and western instrumentation creates inspiring melodies and rhythmic textures. Simply listen, or chant along to be transported to another realm, giving you respite from the normal activities of your mind and activating your body’s natural healing processes.

AM Yoga Chants are energizing and invigorating. They are based on traditional morning ragas, which will give you the vitality and focus to help you create a joyous and extraordinary day.


Track Listing

1. Yoga Trance (10:27)
2. Sunrise (9:34)
3. Jewel In The Lotus (8:07)
4. Protection (10:11)
5. Namaskar (9:47)
6. A.M. Dance (9:31)

Notes

Forerunner in the field of sacred sound, Russill Paul has studied this Hindu form of yoga (sacred sound) for the better part of two decades. Teacher, musician, and practitioner, Paul introduced the bulk of his work with the phenomenal box set The Yoga of Sound. Now teaming with the Relaxation Company on the acclaimed A.M./P.M. Yoga series, Paul offers the remarkable Yoga Chants duo. Drawing upon equal measures of masculine and feminine musical energy, as well as ancient mantras including Om Mani Padme Hoom ("Jewel in the Lotus") and Hare Krishna, Krishna Krishna Hare Hare ("Sunrise"), Paul's A.M. Chants are an optimal beginning to any day. Based in the Carnatic musical tradition of South Indian classical music, violin, mridangam, and two-headed drum raga begin the hourlong morning chant session, gently moving listener-participants through sluggishness and propelling them toward mindful awareness and receptive productivity. --Paige La Grone

EAC Log
Exact Audio Copy V0.99 prebeta 4 from 23. January 2008

EAC extraction logfile from 3. November 2009, 21:58

Russill Paul / A.M. Yoga Chants

Used drive : Optiarc DVD RW AD-5200A Adapter: 0 ID: 1

Read mode : Secure
Utilize accurate stream : Yes
Defeat audio cache : Yes
Make use of C2 pointers : No

Read offset correction : 48
Overread into Lead-In and Lead-Out : No
Fill up missing offset samples with silence : Yes
Delete leading and trailing silent blocks : No
Null samples used in CRC calculations : Yes
Used interface : Installed external ASPI interface

Used output format : Internal WAV Routines
Sample format : 44.100 Hz; 16 Bit; Stereo TOC of the extracted CD

Track | Start | Length | Start sector | End sector
---------------------------------------------------------
1 | 0:00.00 | 10:27.20 | 0 | 47044
2 | 10:27.20 | 9:34.37 | 47045 | 90131
3 | 20:01.57 | 8:07.46 | 90132 | 126702
4 | 28:09.28 | 10:11.50 | 126703 | 172577
5 | 38:21.03 | 9:47.70 | 172578 | 216672
6 | 48:08.73 | 9:31.20 | 216673 | 259517 Range status and errors

Selected range

Filename H:_prepare10Russill Paul - A.M. Yoga ChantsRussill Paul - A.M. Yoga Chants.wav

Peak level 96.6 %
Range quality 100.0 %
Test CRC 91FE5394
Copy CRC 91FE5394
Copy OK

No errors occurred


AccurateRip summary

Track 1 cannot be verified as accurate (confidence 1) [DE50F9DB], AccurateRip returned [4F740D6C]
Track 2 cannot be verified as accurate (confidence 1) [9CF86F32], AccurateRip returned [961546D6]
Track 3 cannot be verified as accurate (confidence 1) [BBF7481F], AccurateRip returned [F9B8F133]
Track 4 cannot be verified as accurate (confidence 1) [B0FCC6A4], AccurateRip returned [B1908B3C]
Track 5 cannot be verified as accurate (confidence 1) [EEA57F09], AccurateRip returned [B55671B5]
Track 6 cannot be verified as accurate (confidence 1) [08D06694], AccurateRip returned [6FB23CE0]

No tracks could be verified as accurate
You may have a different pressing from the one(s) in the database

End of status report


------------------------------------------------------------------------------------------------------------------------------------------------------------------------------------------



P.M. Yoga Chants (2001)
EAC Rip | FLAC: Image+Cue+Log | 384.16 Mb | MP3 CBR 320 kbps | 140.22 Mb | Scans | Time: 56:56
Label: The Relaxation Company | Cat.№: 3142

The second volume in Russill Paul's contributions to the A.M./P.M. Yoga series, P.M. Yoga Chants is an idea closer to one's day as the pink sky of evening becomes night. Stringed instruments create a web of richly exotic sound, based on traditional evening ragas. Darker in sound than its A.M.sister, these time-honored chants, set to beautifully produced music, soothe and sate the listener's hunger for homing in. Chanting along proves powerful, enriching, grounding, and therapeutic. And Paul provides tools the listener can use to be a full (and comfortably confident) participant. Included with the disc, as with all CDs in the series, are excellent liner notes detailing the origins of each piece and suggestions for yoga poses and topics for meditation. Completing the full cycle of pieces is the stunningly lovely "Yoga Lullaby," built on a specific meter to allow for optimal slumber. --Paige La Grone


Track Listing

1. By The Stream (10:54)
2. PM Dance (8:30)
3. Dream the Dark (10:01)
4. The Beloved (11:05)
5. Aarati (5:47)
6. Yoga Lullaby (10:39)

EAC Log
Exact Audio Copy V0.99 prebeta 4 from 23. January 2008

EAC extraction logfile from 3. November 2009, 22:28

Russil Paul / P.M. Yoga Chants

Used drive : Optiarc DVD RW AD-5200A Adapter: 0 ID: 1

Read mode : Secure
Utilize accurate stream : Yes
Defeat audio cache : Yes
Make use of C2 pointers : No

Read offset correction : 48
Overread into Lead-In and Lead-Out : No
Fill up missing offset samples with silence : Yes
Delete leading and trailing silent blocks : No
Null samples used in CRC calculations : Yes
Used interface : Installed external ASPI interface

Used output format : Internal WAV Routines
Sample format : 44.100 Hz; 16 Bit; Stereo TOC of the extracted CD

Track | Start | Length | Start sector | End sector
---------------------------------------------------------
1 | 0:00.00 | 10:54.67 | 0 | 49116
2 | 10:54.67 | 8:30.29 | 49117 | 87395
3 | 19:25.21 | 10:01.66 | 87396 | 132536
4 | 29:27.12 | 11:04.73 | 132537 | 182409
5 | 40:32.10 | 5:47.52 | 182410 | 208486
6 | 46:19.62 | 10:39.18 | 208487 | 256429 Range status and errors

Selected range

Filename H:_torrent_prepare10Russil Paul - P.M. Yoga ChantsRussil Paul - P.M. Yoga Chants.wav

Peak level 96.6 %
Range quality 100.0 %
Test CRC 29A15448
Copy CRC 29A15448
Copy OK

No errors occurred


AccurateRip summary

Track 1 accurately ripped (confidence 1) [54226042]
Track 2 accurately ripped (confidence 1) [22273238]
Track 3 accurately ripped (confidence 1) [FB9ECEFB]
Track 4 accurately ripped (confidence 1) [E07B81C2]
Track 5 accurately ripped (confidence 1) [1BE127B6]
Track 6 accurately ripped (confidence 1) [9E09F43F]

All tracks accurately ripped

End of status report


------------------------------------------------------------------------------------------------------------------------------------------------------------------------------------------



Nada Yoga (1999/2004)
EAC Rip | FLAC: Image+Cue+Log | 347.82 Mb | MP3 CBR 320 kbps | 154.15 Mb | Scans | Time: 1:03:48
Label: The Relaxation Company | Cat.№: 3213

Performing on an instrument of his own design, a 10-string "unitar," one-time South Indian monk Russill Paul earnestly addresses the "sonic theology" of nada yoga in this 63-minute, three-stage collection of ragas--a work that's designed to invoke the healing power of sound. Paul sometimes adorns his deliberate, otherworldly passages with synthesizer and deep-voiced chants (along with flute and tabla, on occasion), but the unitar and its mystical tonal qualities serve as this disc's centerpiece. Serious-minded and intended for more advanced yoga practitioners, Nada Yoga is a journey to a musical world that has almost no associations with contemporary musical customs of the West. The package includes a detailed booklet in which Paul describes the music's history, his modern-day perspective on it, and suggested meditations (including recommended times of day) for use in pursuit of a more focused listening experience. --Terry Wood


Track Listing

1. Twilight Magic (17:38)
2. Evening Shadows Fall (23:29)
3. In the Stillness of the Night (22:41)

EAC Log
Exact Audio Copy V0.99 prebeta 4 from 23. January 2008

EAC extraction logfile from 3. November 2009, 21:28

Russill Paul / Nada Yoga

Used drive : Optiarc DVD RW AD-5200A Adapter: 0 ID: 1

Read mode : Secure
Utilize accurate stream : Yes
Defeat audio cache : Yes
Make use of C2 pointers : No

Read offset correction : 48
Overread into Lead-In and Lead-Out : No
Fill up missing offset samples with silence : Yes
Delete leading and trailing silent blocks : No
Null samples used in CRC calculations : Yes
Used interface : Installed external ASPI interface

Used output format : Internal WAV Routines
Sample format : 44.100 Hz; 16 Bit; Stereo TOC of the extracted CD

Track | Start | Length | Start sector | End sector
---------------------------------------------------------
1 | 0:00.00 | 17:38.09 | 0 | 79358
2 | 17:38.09 | 23:29.04 | 79359 | 185037
3 | 41:07.13 | 22:41.00 | 185038 | 287112 Range status and errors

Selected range

Filename H:_prepare10Russill Paul - Nada YogaRussill Paul - Nada Yoga.wav

Peak level 96.5 %
Range quality 100.0 %
Test CRC C3A211E0
Copy CRC C3A211E0
Copy OK

No errors occurred


AccurateRip summary

Track 1 accurately ripped (confidence 3) [3EDAF202]
Track 2 accurately ripped (confidence 3) [F94BF72B]
Track 3 accurately ripped (confidence 3) [39244EB0]

All tracks accurately ripped

End of status report


Many thanks to the original uploader: loh27

See also:
* Ambra - Honour & Glory (2002) (DVD9)




Eagles The Studio Albums | Green Day The Studio Albums 19902009 | Russill Paul | The Complete Studio Albums 1983 2008 | Eagles The Studio Albums | Ashampoo Studio 14 Burning Studio | Foreigner Studio Albums | The 100 Best Albums | Tim Finn Studio Albums | Green Day The Studio Albums 19902009
Free Full Download Russill Paul - 6 Studio Albums form MediaFire link RapidShare, ifile.it, Uploaded.to, Zippyshare, FileSonic, turbobit, ul.to, ORON, DepositFiles,rapidgator.net, extabit.com, filefactory.com. Russill Paul - 6 Studio Albums Torrent Download with keygen, crack, serial, cdkey,password,1080P,hd, 2015, 2016
Dear visitor, you went to the site as unregistered user.
We encourage you to register .

Add comment

Name:*
E-Mail:*
Comment:
  • bowtiesmilelaughingblushsmileyrelaxedsmirk
    heart_eyeskissing_heartkissing_closed_eyesflushedrelievedsatisfiedgrin
    winkstuck_out_tongue_winking_eyestuck_out_tongue_closed_eyesgrinningkissingstuck_out_tonguesleeping
    worriedfrowninganguishedopen_mouthgrimacingconfusedhushed
    expressionlessunamusedsweat_smilesweatdisappointed_relievedwearypensive
    disappointedconfoundedfearfulcold_sweatperseverecrysob
    joyastonishedscreamtired_faceangryragetriumph
    sleepyyummasksunglassesdizzy_faceimpsmiling_imp
    neutral_faceno_mouthinnocent
Enter the two words shown in the image:

Sitemap We don't Store Any File In Server. The Search and free download links all published by our users.if You Have Any Doubts About Legality Of Content, plz contact us.
  • count 88x31px