Tony Joe White - Homemade Ice Cream (1973) Reissue 2002

jone Category: music

Tony Joe White - Homemade Ice Cream (1973) Reissue 2002
EAC | FLAC | Image (Cue&Log) ~ 277 Mb (incl 5%) | Mp3 (CBR320) ~ 110 Mb (incl 5%) | Scans included | Time: 00:36:48
Genre: Singer/Songwriter, Country, Rock & Roll, Soul, Swamp Rock, Blues Rock | Label: Warner Bros. | # 7599-26923-2

Homemade Ice Cream is the sixth album released by Tony Joe White, and the third he released for Warner Brothers. It was produced by White and Tom Dowd.


Going back and listening again to Tony Joe White's prodigious output from his early years, one is amazed at the depth of his talent as a guitarist, a singer and as a songwriter. After a series of albums that explored his love of deep Southern Blues, TJW took a warmer, more acoustic turn with Home Made Icecream. A lot of this is the back porch music he clearly loves - and here he is surrounded by fine session men who, if I recall from my old vinyl copy, include a drummer who wouldn't play until he'd read the lyrics...which as Tony Joe noted: "Is all right by me." The album flows beautifully, kicking off with a little rocker - Saturday Night in Oak Grove Louisiana (Tony Joe always had a thing about vehicles - little details like fender skirts - and here its the fibreglass mufflers on his pickup truck) and featuring among other things a gorgeous, lightly picked acoustic guitar and harp instrumental: the title track of the album. There's a ballad - Ol Mother Earth - but the standout is the last track which blows in like a cold breeze off a lake. "Did Somebody Make a Fool Out of You" is among his best ever examples of songwriting, singing and guitar playing. They all come together in a plangent, soulful blues number which Tony Joe double tracks perfectly, singing a close harmony that adds a plaintive cry to the lyrics. The centrepiece of the tune is an acoustic guitar solo that in 30 years of playing has never, for me, lost its power and depth. This man is not afraid to let silence and white spaces do some of the talking. It makes my spine shiver, and if the album starts all summery, by the end you can feel winter closing in. It is an awesome way to end a beautiful album.

Review by D. Stuart, Amazon.com


Tony Joe White at Allmusic
Tony Joe White Website
Tony Joe White at Wiki

Tracklist:

01. Saturday Night In Oak Grove Louisiana (02:14)
02. For Ol' Times Sake (03:47)
03. I Want Love ('Tween You & Me) (02:42)
04. Homemade Ice Cream (03:12)
05. Ol' Mother Earth (03:07)
06. Lazy (03:48)
07. California On My Mind (03:44)
08. Backwoods Preacher Man (02:47)
09. Takin' The Midnite Train (04:06)
10. No News Is Good News (03:02)
11. Did Somebody Make A Fool Out Of You (04:15)


EAC log
Exact Audio Copy V1.0 beta 3 from 29. August 2011

EAC extraction logfile from 2. June 2014, 16:58

Tony Joe White / Homemade Ice Cream

Used drive : PLEXTOR DVDR PX-891SA Adapter: 0 ID: 2

Read mode : Secure
Utilize accurate stream : Yes
Defeat audio cache : Yes
Make use of C2 pointers : No

Read offset correction : 6
Overread into Lead-In and Lead-Out : No
Fill up missing offset samples with silence : Yes
Delete leading and trailing silent blocks : No
Null samples used in CRC calculations : Yes
Used interface : Installed external ASPI interface

Used output format : User Defined Encoder
Selected bitrate : 320 kBit/s
Quality : High
Add ID3 tag : No
Command line compressor : C:Program FilesExact Audio Copy 1.0Flacflac.exe
Additional command line options : -V -8 -T "Date=%year%" -T "Genre=%genre%" %source% TOC of the extracted CD

Track | Start | Length | Start sector | End sector
---------------------------------------------------------
1 | 0:00.00 | 2:14.00 | 0 | 10049
2 | 2:14.00 | 3:47.47 | 10050 | 27121
3 | 6:01.47 | 2:42.40 | 27122 | 39311
4 | 8:44.12 | 3:12.03 | 39312 | 53714
5 | 11:56.15 | 3:07.25 | 53715 | 67764
6 | 15:03.40 | 3:48.42 | 67765 | 84906
7 | 18:52.07 | 3:44.10 | 84907 | 101716
8 | 22:36.17 | 2:47.28 | 101717 | 114269
9 | 25:23.45 | 4:06.10 | 114270 | 132729
10 | 29:29.55 | 3:02.57 | 132730 | 146436
11 | 32:32.37 | 4:15.28 | 146437 | 165589 Range status and errors

Selected range

Filename K:Lossless TempTony Joe WhiteTony Joe White - Homemade Ice Cream - 1973 (2002 Warner Bros. 7599-26923-2, Germany)Tony Joe White - Homemade Ice Cream.wav

Peak level 98.3 %
Extraction speed 5.9 X
Range quality 100.0 %
Test CRC 8F8C4543
Copy CRC 8F8C4543
Copy OK

No errors occurred


AccurateRip summary

Track 1 accurately ripped (confidence 2) [0095153B] (AR v2)
Track 2 accurately ripped (confidence 2) [2C5C9F2D] (AR v2)
Track 3 accurately ripped (confidence 2) [49EB8894] (AR v2)
Track 4 accurately ripped (confidence 2) [A57EFF0D] (AR v2)
Track 5 accurately ripped (confidence 2) [559762DF] (AR v2)
Track 6 accurately ripped (confidence 2) [6914E90F] (AR v2)
Track 7 accurately ripped (confidence 2) [783D4F27] (AR v2)
Track 8 accurately ripped (confidence 2) [14796048] (AR v2)
Track 9 accurately ripped (confidence 2) [204DDD59] (AR v2)
Track 10 accurately ripped (confidence 2) [26EA41BB] (AR v1)
Track 11 accurately ripped (confidence 2) [A4E09821] (AR v2)

All tracks accurately ripped

End of status report

==== Log checksum B3101C74B0923D2D29AEF1E76CD01E8B53F5D29AF796BE5EF3D14B75E3623C9A ====

DR log
foobar2000 1.2 / Dynamic Range Meter 1.1.1
log date: 2015-07-23 21:24:07

--------------------------------------------------------------------------------
Analyzed: Tony Joe White / Homemade Ice Cream
--------------------------------------------------------------------------------

DR Peak RMS Duration Track
--------------------------------------------------------------------------------
DR11 -0.15 dB -13.09 dB 2:14 01-Saturday Night In Oak Grove Louisiana
DR11 -4.13 dB -18.49 dB 3:48 02-For Ol' Times Sake
DR11 -0.88 dB -16.47 dB 2:43 03-I Want Love ('Tween You & Me)
DR14 -0.39 dB -18.14 dB 3:12 04-Homemade Ice Cream
DR14 -1.52 dB -19.39 dB 3:07 05-Ol' Mother Earth
DR11 -3.98 dB -20.36 dB 3:49 06-Lazy
DR12 -1.38 dB -17.68 dB 3:44 07-California On My Mind
DR12 -1.25 dB -15.40 dB 2:47 08-Backwoods Preacher Man
DR13 -0.76 dB -19.37 dB 4:06 09-Takin' The Midnite Train
DR13 -0.77 dB -17.06 dB 3:03 10-No News Is Good News
DR13 -3.07 dB -20.77 dB 4:15 11-Did Somebody Make A Fool Out Of You
--------------------------------------------------------------------------------

Number of tracks: 11
Official DR value: DR12

Samplerate: 44100 Hz
Channels: 2
Bits per sample: 16
Bitrate: 763 kbps
Codec: FLAC
================================================================================








Tony Joe White Closer | Homemade Couples 13 | White Cream Pie | How To Make A Homemade | Teen Homemade Pov | Homemade Big Cock | Cream Live Cream | How To Make A Homemade 720 | White Light White Heat White Trash Social Distortion | Cream The Fresh Cream
Free Full Download Tony Joe White - Homemade Ice Cream form MediaFire link RapidShare, ifile.it, Uploaded.to, Zippyshare, FileSonic, turbobit, ul.to, ORON, DepositFiles,rapidgator.net, extabit.com, filefactory.com. Tony Joe White - Homemade Ice Cream Torrent Download with keygen, crack, serial, cdkey,password,1080P,hd, 2015, 2016
Dear visitor, you went to the site as unregistered user.
We encourage you to register .

Add comment

Name:*
E-Mail:*
Comment:
  • bowtiesmilelaughingblushsmileyrelaxedsmirk
    heart_eyeskissing_heartkissing_closed_eyesflushedrelievedsatisfiedgrin
    winkstuck_out_tongue_winking_eyestuck_out_tongue_closed_eyesgrinningkissingstuck_out_tonguesleeping
    worriedfrowninganguishedopen_mouthgrimacingconfusedhushed
    expressionlessunamusedsweat_smilesweatdisappointed_relievedwearypensive
    disappointedconfoundedfearfulcold_sweatperseverecrysob
    joyastonishedscreamtired_faceangryragetriumph
    sleepyyummasksunglassesdizzy_faceimpsmiling_imp
    neutral_faceno_mouthinnocent
Enter the two words shown in the image:

Sitemap We don't Store Any File In Server. The Search and free download links all published by our users.if You Have Any Doubts About Legality Of Content, plz contact us.
  • count 88x31px