Original Album Series: Linda Ronstadt (2009) 5CD Box Set Repost

peter Category: music
Original Album Series: Linda Ronstadt (2009) front

Original Album Series: Linda Ronstadt (2009)
EAC | Flac(Image) + Cue + Log & MP3 CBR 320Kbps
Rhino, 8122 798285 | ~ 1033 or 448 Mb | Scans(300dpi, jpg) Included
Country / Country Rock / Pop

This set combines five of Linda Ronstadt's albums for Asylum Records released between 1975 and 1980 and all produced by Peter Asher, 1975's Prisoner in Disguise, 1976's Hasten Down the Wind, 1977's Simple Dreams, 1978's Living in the U.S.A., and 1980's Mad Love, which means one gets Ronstadt's fine versions of Neil Young's "Love Is a Rose," Buddy Holly's "That'll Be the Day," Roy Orbison's "Blue Bayou," and many other covers done while she was at the peak of her radio success.

by Steve Leggett, AMG

Original Album Series: Linda Ronstadt (2009)


Original Album Series: Linda Ronstadt (2009):

Linda Ronstadt - Prisoner In Disguise

CD01: Linda Ronstadt - Prisoner In Disguise (1975)
EAC | Flac(Image) + Cue + Log & MP3 CBR 320Kbps
Rhino, 8122 798285 | ~ 198 or 91 Mb | Scans(300dpi, jpg) Included
Country / Country Rock / Pop

Linda Ronstadt followed the commercial and critical breakthrough success of Heart Like a Wheel with Prisoner in Disguise, a record that essentially repeats the formula of its predecessor. While it lacks the consistency of Heart Like a Wheel, it's thoroughly enjoyable, highlighted by sturdy remakes of the Motown classics "Tracks of My Tears" and "Heat Wave."

by Stephen Thomas Erlewine, AMG


Tracklist:

01. Love Is A Rose
02. Hey Mister, That's Me Up On The Jukebox
03. Roll Um Easy
04. Tracks Of My Tears
05. Prisoner In Disguise
06. Heat Wave
07. Many Rivers To Cross
08. The Sweetest Gift
09. You Tell Me That I'm Falling Down
10. I Will Always Love You
11. Silver Blue

EAC Log
Exact Audio Copy V0.99 prebeta 5 from 4. May 2009

EAC extraction logfile from 30. January 2011, 20:06

Linda Ronstadt / Prisoner In Disguise

Used drive : _NEC NR-7800B Adapter: 0 ID: 0

Read mode : Secure
Utilize accurate stream : Yes
Defeat audio cache : Yes
Make use of C2 pointers : No

Read offset correction : 685
Overread into Lead-In and Lead-Out : No
Fill up missing offset samples with silence : Yes
Delete leading and trailing silent blocks : No
Null samples used in CRC calculations : Yes
Used interface : Native Win32 interface for Win NT & 2000

Used output format : User Defined Encoder
Selected bitrate : 1024 kBit/s
Quality : High
Add ID3 tag : No
Command line compressor : C:Program Files (x86)Exact Audio CopyFlacflac.exe
Additional command line options : -8 -V %s -o %d TOC of the extracted CD

Track | Start | Length | Start sector | End sector
---------------------------------------------------------
1 | 0:00.00 | 2:48.45 | 0 | 12644
2 | 2:48.45 | 4:09.35 | 12645 | 31354
3 | 6:58.05 | 2:58.20 | 31355 | 44724
4 | 9:56.25 | 3:13.70 | 44725 | 59269
5 | 13:10.20 | 3:56.42 | 59270 | 77011
6 | 17:06.62 | 2:47.13 | 77012 | 89549
7 | 19:54.00 | 4:07.65 | 89550 | 108139
8 | 24:01.65 | 3:04.37 | 108140 | 121976
9 | 27:06.27 | 3:19.53 | 121977 | 136954
10 | 30:26.05 | 3:01.05 | 136955 | 150534
11 | 33:27.10 | 3:05.65 | 150535 | 164474 Range status and errors

Selected range

Filename D:МузыкаEACLinda Ronstadt - Prisoner In Disguise.wav

Peak level 91.2 %
Range quality 100.0 %
Test CRC 71D815FE
Copy CRC 71D815FE
Copy OK

No errors occurred


AccurateRip summary

Track 1 accurately ripped (confidence 5) [21ED1BCF]
Track 2 accurately ripped (confidence 5) [97975CBE]
Track 3 accurately ripped (confidence 5) [3BDC9EC0]
Track 4 accurately ripped (confidence 5) [D028BC9B]
Track 5 accurately ripped (confidence 5) [AB069251]
Track 6 accurately ripped (confidence 5) [29684552]
Track 7 accurately ripped (confidence 5) [12C295A4]
Track 8 accurately ripped (confidence 5) [B0A17E44]
Track 9 accurately ripped (confidence 5) [D1EB3C54]
Track 10 accurately ripped (confidence 5) [99F7F616]
Track 11 accurately ripped (confidence 5) [C503AEA6]

All tracks accurately ripped

End of status report

DR Log
foobar2000 1.2.9 / Dynamic Range Meter 1.1.1
log date: 2015-07-07 19:47:13

--------------------------------------------------------------------------------
Analyzed: Linda Ronstadt / Prisoner In Disguise
--------------------------------------------------------------------------------

DR Peak RMS Duration Track
--------------------------------------------------------------------------------
DR14 -1.18 dB -18.38 dB 2:49 01-Love Is A Rose
DR14 -3.83 dB -21.01 dB 4:09 02-Hey Mister, That's Me Up On The Jukebox
DR15 -0.80 dB -17.81 dB 2:58 03-Roll Um Easy
DR13 -1.48 dB -18.13 dB 3:14 04-Tracks Of My Tears
DR11 -4.39 dB -20.36 dB 3:57 05-Prisoner In Disguise
DR13 -1.52 dB -16.87 dB 2:47 06-Heat Wave
DR13 -1.88 dB -19.34 dB 4:08 07-Many Rivers To Cross
DR13 -4.00 dB -21.33 dB 3:04 08-The Sweetest Gift
DR14 -4.10 dB -19.67 dB 3:20 09-You Tell Me That I'm Falling Down
DR14 -1.04 dB -18.16 dB 3:01 10-I Will Always Love You
DR14 -5.08 dB -20.99 dB 3:06 11-Silver Blue
--------------------------------------------------------------------------------

Number of tracks: 11
Official DR value: DR14

Samplerate: 44100 Hz
Channels: 2
Bits per sample: 16
Bitrate: 715 kbps
Codec: FLAC

CUETools Log
[CUETools log; Date: 07.07.2015 14:08:34; Version: 2.1.4]
[CTDB TOCID: 4wUVYQxVIPum1uhSZXlTf_GP0Yo-] found.
Track | CTDB Status
1 | (35/35) Accurately ripped
2 | (35/35) Accurately ripped
3 | (35/35) Accurately ripped
4 | (35/35) Accurately ripped
5 | (35/35) Accurately ripped
6 | (35/35) Accurately ripped
7 | (34/35) Accurately ripped
8 | (35/35) Accurately ripped
9 | (35/35) Accurately ripped
10 | (35/35) Accurately ripped
11 | (35/35) Accurately ripped
[AccurateRip ID: 000f351f-0083ebc8-8f08910b] found.
Track [ CRC | V2 ] Status
01 [21ed1bcf|f6528024] (10+27/77) Accurately ripped
02 [97975cbe|3e64fd8a] (10+27/77) Accurately ripped
03 [3bdc9ec0|642042a1] (10+27/76) Accurately ripped
04 [d028bc9b|3e0bc60a] (10+27/77) Accurately ripped
05 [ab069251|53f122f9] (10+27/77) Accurately ripped
06 [29684552|287e7dc8] (10+27/77) Accurately ripped
07 [12c295a4|e735a3f2] (10+27/77) Accurately ripped
08 [b0a17e44|28819011] (10+27/77) Accurately ripped
09 [d1eb3c54|7ab360b5] (10+27/77) Accurately ripped
10 [99f7f616|f507c8e1] (10+27/77) Accurately ripped
11 [c503aea6|55bb893a] (10+28/77) Accurately ripped
Offsetted by 664:
01 [3926831f] (05/77) Accurately ripped
02 [8c471bfe] (05/77) Accurately ripped
03 [b7a42c20] (05/76) Accurately ripped
04 [a7fa6a63] (05/77) Accurately ripped
05 [e134e7c1] (05/77) Accurately ripped
06 [a761b752] (05/77) Accurately ripped
07 [8493d67c] (05/77) Accurately ripped
08 [c5b9bc0c] (05/77) Accurately ripped
09 [31fbad14] (05/77) Accurately ripped
10 [72334266] (05/77) Accurately ripped
11 [f20ec1f6] (05/77) Accurately ripped
Offsetted by 670:
01 [a48a8033] (02/77) Accurately ripped
02 [df73e0ce] (02/77) Accurately ripped
03 [f35cb8f8] (02/76) Accurately ripped
04 [6612abf5] (02/77) Accurately ripped
05 [9c4c74dd] (02/77) Accurately ripped
06 [4e4d9bd2] (02/77) Accurately ripped
07 [512c1712] (02/77) Accurately ripped
08 [161be19e] (02/77) Accurately ripped
09 [7089b444] (02/77) Accurately ripped
10 [6ec1acba] (02/77) Accurately ripped
11 [b33c5a0a] (02/77) Accurately ripped
Offsetted by 1328:
01 [505fea6f] (05/77) Accurately ripped
02 [80f6db3e] (05/77) Accurately ripped
03 [336bb980] (05/76) Accurately ripped
04 [7fcc182b] (05/77) Accurately ripped
05 [17633d31] (05/77) Accurately ripped
06 [255b2952] (05/77) Accurately ripped
07 [f6651754] (05/77) Accurately ripped
08 [dad1f9d4] (05/77) Accurately ripped
09 [920c1dd4] (05/77) Accurately ripped
10 [4a6e8eb6] (05/77) Accurately ripped
11 [1f19d546] (05/77) Accurately ripped
Offsetted by 1997:
01 [166ca4a5] (00/77) No match (V2 was not tested)
02 [3af693d6] (00/77) No match (V2 was not tested)
03 [364d1194] (00/76) No match (V2 was not tested)
04 [cb5ca742] (00/77) No match (V2 was not tested)
05 [942532e3] (00/77) No match (V2 was not tested)
06 [d9192f12] (00/77) No match (V2 was not tested)
07 [92b538a9] (00/77) No match (V2 was not tested)
08 [5d9156eb] (00/77) No match (V2 was not tested)
09 [50e83f3c] (00/77) No match (V2 was not tested)
10 [ca75de4c] (00/77) No match (V2 was not tested)
11 [c27591fc] (00/77) No match (V2 was not tested)

Track Peak [ CRC32 ] [W/O NULL] [ LOG ]
-- 91,2 [71D815FE] [DE10A300] CRC32
01 87,2 [089F6881] [94E99089]
02 64,3 [2A2A4729] [F7B0D1B0]
03 91,2 [BFFE4115] [5548CB6B]
04 84,3 [84648EB2] [E06416FD]
05 60,3 [DE6CF094] [0E17950A]
06 83,9 [F330011E] [109D45B1]
07 80,5 [D9ED01A0] [9483234C]
08 63,1 [79C21FFC] [06462824]
09 62,3 [D092B1A3] [4A1F2CA6]
10 88,7 [E40828B7] [CBD3CE13]
11 55,7 [970002EB] [7EBA4C56]

* * * * *

Linda Ronstadt - Simple Dreams

CD02: Linda Ronstadt - Simple Dreams (1977)
EAC | Flac(Image) + Cue + Log & MP3 CBR 320Kbps
Rhino, 8122 798285 | ~ 166 or 82 Mb | Scans(300dpi, jpg) Included
Country / Country Rock / Pop

Featuring a broader array of styles than any previous Linda Ronstadt record, Simple Dreams reconfirms her substantial talents as an interpretive singer. Ronstadt sings Dolly Parton ("I Never Will Marry") with the same conviction as the Rolling Stones ("Tumbling Dice"), and she manages to update Roy Orbison ("Blue Bayou") and direct attention to the caustic, fledgling singer/songwriter Warren Zevon ("Poor Poor Pitiful Me" and "Carmelita"). The consistently adventurous material and Ronstadt's powerful performance makes the record rival Heart Like a Wheel in sheer overall quality.

by Stephen Thomas Erlewine, AMG


Tracklist:

01. It's So Easy
02. Carmelita
03. Simple Man, Simple Dream
04. Sorrow Lives Here
05. I Never Will Marry
06. Blue Bayou
07. Poor Poor Pitiful Me
08. Maybe I'm Right
09. Tumbling Dice
10. Old Paint

EAC Log
Exact Audio Copy V0.99 prebeta 5 from 4. May 2009

EAC extraction logfile from 30. January 2011, 20:10

Linda Ronstadt / Simple Dreams

Used drive : _NEC NR-7800B Adapter: 0 ID: 0

Read mode : Secure
Utilize accurate stream : Yes
Defeat audio cache : Yes
Make use of C2 pointers : No

Read offset correction : 685
Overread into Lead-In and Lead-Out : No
Fill up missing offset samples with silence : Yes
Delete leading and trailing silent blocks : No
Null samples used in CRC calculations : Yes
Used interface : Native Win32 interface for Win NT & 2000

Used output format : User Defined Encoder
Selected bitrate : 1024 kBit/s
Quality : High
Add ID3 tag : No
Command line compressor : C:Program Files (x86)Exact Audio CopyFlacflac.exe
Additional command line options : -8 -V %s -o %d TOC of the extracted CD

Track | Start | Length | Start sector | End sector
---------------------------------------------------------
1 | 0:00.00 | 2:29.68 | 0 | 11242
2 | 2:29.68 | 3:07.42 | 11243 | 25309
3 | 5:37.35 | 3:13.65 | 25310 | 39849
4 | 8:51.25 | 2:57.35 | 39850 | 53159
5 | 11:48.60 | 3:14.70 | 53160 | 67779
6 | 15:03.55 | 4:00.00 | 67780 | 85779
7 | 19:03.55 | 3:44.25 | 85780 | 102604
8 | 22:48.05 | 3:07.48 | 102605 | 116677
9 | 25:55.53 | 3:09.72 | 116678 | 130924
10 | 29:05.50 | 3:04.25 | 130925 | 144749 Range status and errors

Selected range

Filename D:МузыкаEACLinda Ronstadt - Simple Dreams.wav

Peak level 98.0 %
Range quality 100.0 %
Test CRC 67A82501
Copy CRC 67A82501
Copy OK

No errors occurred


AccurateRip summary

Track 1 accurately ripped (confidence 7) [4F755FD5]
Track 2 accurately ripped (confidence 7) [5B41E5D0]
Track 3 accurately ripped (confidence 7) [B6894F88]
Track 4 accurately ripped (confidence 7) [FAE5917C]
Track 5 accurately ripped (confidence 7) [8A2690E1]
Track 6 accurately ripped (confidence 7) [382A477C]
Track 7 accurately ripped (confidence 7) [A4F72289]
Track 8 accurately ripped (confidence 7) [4328B659]
Track 9 accurately ripped (confidence 7) [2B731621]
Track 10 accurately ripped (confidence 7) [ED26C4F4]

All tracks accurately ripped

End of status report

DR Log
foobar2000 1.2.9 / Dynamic Range Meter 1.1.1
log date: 2015-07-07 19:47:26

--------------------------------------------------------------------------------
Analyzed: Linda Ronstadt / Simple Dreams
--------------------------------------------------------------------------------

DR Peak RMS Duration Track
--------------------------------------------------------------------------------
DR13 -0.80 dB -15.80 dB 2:30 01-It's So Easy
DR16 -1.49 dB -20.88 dB 3:08 02-Carmelita
DR14 -2.24 dB -19.75 dB 3:14 03-Simple Man, Simple Dream
DR13 -4.07 dB -22.02 dB 2:57 04-Sorrow Lives Here
DR13 -6.88 dB -23.86 dB 3:15 05-I Never Will Marry
DR15 -1.71 dB -20.63 dB 4:00 06-Blue Bayou
DR12 -0.78 dB -15.30 dB 3:44 07-Poor Poor Pitiful Me
DR12 -8.87 dB -25.30 dB 3:08 08-Maybe I'm Right
DR12 -0.17 dB -14.48 dB 3:10 09-Tumbling Dice
DR15 -4.07 dB -23.71 dB 3:04 10-Old Paint
--------------------------------------------------------------------------------

Number of tracks: 10
Official DR value: DR13

Samplerate: 44100 Hz
Channels: 2
Bits per sample: 16
Bitrate: 673 kbps
Codec: FLAC

CUETools Log
[CUETools log; Date: 07.07.2015 14:10:23; Version: 2.1.4]
[CTDB TOCID: NJJdfMklgFqcE8YjUmlZFWoy9io-] found.
Track | CTDB Status
1 | (58/59) Accurately ripped
2 | (59/59) Accurately ripped
3 | (59/59) Accurately ripped
4 | (58/59) Accurately ripped
5 | (58/59) Accurately ripped
6 | (59/59) Accurately ripped
7 | (59/59) Accurately ripped
8 | (59/59) Accurately ripped
9 | (59/59) Accurately ripped
10 | (59/59) Accurately ripped
[AccurateRip ID: 000bdf61-00602ddf-74078a0a] found.
Track [ CRC | V2 ] Status
01 [4f755fd5|584a9a26] (010+025/133) Accurately ripped
02 [5b41e5d0|dff8b69e] (010+025/130) Accurately ripped
03 [b6894f88|a2cdd381] (010+025/132) Accurately ripped
04 [fae5917c|4b144fe1] (010+025/130) Accurately ripped
05 [8a2690e1|4a4343a2] (010+025/131) Accurately ripped
06 [382a477c|bfcaf185] (010+025/132) Accurately ripped
07 [a4f72289|19efe84e] (010+025/133) Accurately ripped
08 [4328b659|d889d48d] (010+024/130) Accurately ripped
09 [2b731621|59eb4a5c] (010+025/131) Accurately ripped
10 [ed26c4f4|f5386102] (010+026/131) Accurately ripped
Offsetted by -1474:
01 [3439511f] (019/133) Accurately ripped
02 [afcadc28] (019/130) Accurately ripped
03 [1c040560] (020/132) Accurately ripped
04 [172d32d2] (019/130) Accurately ripped
05 [34b52e09] (020/131) Accurately ripped
06 [f5ff60f6] (020/132) Accurately ripped
07 [53aaad0f] (019/133) Accurately ripped
08 [142108e9] (020/130) Accurately ripped
09 [da923919] (020/131) Accurately ripped
10 [d43bcd1b] (018/131) Accurately ripped
Offsetted by 664:
01 [0274fcdd] (003/133) Accurately ripped
02 [b82107b0] (003/130) Accurately ripped
03 [997ed768] (003/132) Accurately ripped
04 [f6d75cf4] (003/130) Accurately ripped
05 [b580e501] (003/131) Accurately ripped
06 [dd17be44] (003/132) Accurately ripped
07 [9f8efbc1] (003/133) Accurately ripped
08 [7f988b99] (003/130) Accurately ripped
09 [35d4e881] (003/131) Accurately ripped
10 [0fd2661d] (003/131) Accurately ripped
Offsetted by 765:
01 [eacae7a4] (003/133) Accurately ripped
02 [257c07d4] (002/130) Accurately ripped
03 [1cc9f8cc] (002/132) Accurately ripped
04 [4792e39d] (002/130) Accurately ripped
05 [f903741d] (002/131) Accurately ripped
06 [f7561493] (002/132) Accurately ripped
07 [bdf70b72] (003/133) Accurately ripped
08 [fd9bad31] (002/130) Accurately ripped
09 [435cd915] (002/131) Accurately ripped
10 [6f50c999] (002/131) Accurately ripped
Offsetted by 1328:
01 [b57499e5] (008/133) Accurately ripped
02 [15002990] (008/130) Accurately ripped
03 [7c745f48] (008/132) Accurately ripped
04 [f2c9286c] (008/130) Accurately ripped
05 [e0db3921] (008/131) Accurately ripped
06 [8205350c] (008/132) Accurately ripped
07 [9a26d4f9] (008/133) Accurately ripped
08 [bc0860d9] (008/130) Accurately ripped
09 [4036bae1] (008/131) Accurately ripped
10 [6273ae53] (008/131) Accurately ripped
Offsetted by 1446:
01 [5cf9ee17] (004/133) Accurately ripped
02 [923a5248] (004/130) Accurately ripped
03 [b8109580] (004/132) Accurately ripped
04 [83cccd5a] (004/130) Accurately ripped
05 [1b73c1e9] (004/131) Accurately ripped
06 [5c3ed42e] (004/132) Accurately ripped
07 [85e9e9d7] (004/133) Accurately ripped
08 [4f4143a9] (004/130) Accurately ripped
09 [8cda9eb9] (004/131) Accurately ripped
10 [f472935f] (004/131) Accurately ripped
Offsetted by 628:
01 [5e890e91] (000/133) No match (V2 was not tested)
02 [b4a2cfe0] (000/130) No match (V2 was not tested)
03 [8ba5f698] (000/132) No match (V2 was not tested)
04 [145cc280] (000/130) No match (V2 was not tested)
05 [b9525bd1] (000/131) No match (V2 was not tested)
06 [91d66f58] (000/132) No match (V2 was not tested)
07 [a164d2ad] (000/133) No match (V2 was not tested)
08 [52ae3db9] (000/130) No match (V2 was not tested)
09 [dd5d7bf1] (000/131) No match (V2 was not tested)
10 [e717d1e3] (000/131) No match (V2 was not tested)

Track Peak [ CRC32 ] [W/O NULL] [ LOG ]
-- 98,0 [67A82501] [634A39AF] CRC32
01 91,1 [E61B8154] [46C599D6]
02 84,2 [7CF656F4] [B63BF247]
03 77,2 [5471AF40] [F0BE1C00]
04 62,5 [BFEED7B8] [7940092D]
05 45,2 [49CF423F] [3F9DFEC5]
06 82,1 [F32D0882] [E048C8F6]
07 91,3 [6E29A605] [5CE514CE]
08 36,0 [832E1E15] [D5AA2072]
09 98,0 [DA95E2AD] [4C70B2DF]
10 62,5 [CA088D7B] [615D223C]

* * * * *

Linda Ronstadt - Living In The U.S.A.

CD03: Linda Ronstadt - Living In The U.S.A. (1978)
EAC | Flac(Image) + Cue + Log & MP3 CBR 320Kbps
Rhino, 8122 798285 | ~ 175 or 89 Mb | Scans(300dpi, jpg) Included
Country / Country Rock / Pop

On Living in the U.S.A., Linda Ronstadt made the ill-advised move to incorporate some current musical trends such as new wave into her successful formula. While some of the record sounds good, the majority of it is poorly executed, particularly her take on Elvis Costello's "Alison."

by Stephen Thomas Erlewine, AMG


Tracklist:

01. Back In The U.S.A.
02. When I Grow Too Old To Dream
03. Just One Look
04. Alison
05. White Rhythm & Blues
06. All That You Dream
07. Ooh Baby Baby
08. Mohammed's Radio
09. Blowing Away
10. Love Me Tender

EAC Log
Exact Audio Copy V0.99 prebeta 5 from 4. May 2009

EAC extraction logfile from 30. January 2011, 20:14

Linda Ronstadt / Living In The U.S.A.

Used drive : _NEC NR-7800B Adapter: 0 ID: 0

Read mode : Secure
Utilize accurate stream : Yes
Defeat audio cache : Yes
Make use of C2 pointers : No

Read offset correction : 685
Overread into Lead-In and Lead-Out : No
Fill up missing offset samples with silence : Yes
Delete leading and trailing silent blocks : No
Null samples used in CRC calculations : Yes
Used interface : Native Win32 interface for Win NT & 2000

Used output format : User Defined Encoder
Selected bitrate : 1024 kBit/s
Quality : High
Add ID3 tag : No
Command line compressor : C:Program Files (x86)Exact Audio CopyFlacflac.exe
Additional command line options : -8 -V %s -o %d TOC of the extracted CD

Track | Start | Length | Start sector | End sector
---------------------------------------------------------
1 | 0:00.32 | 3:04.08 | 32 | 13839
2 | 3:04.40 | 3:48.57 | 13840 | 30996
3 | 6:53.22 | 3:19.33 | 30997 | 45954
4 | 10:12.55 | 3:27.65 | 45955 | 61544
5 | 13:40.45 | 4:17.45 | 61545 | 80864
6 | 17:58.15 | 3:47.17 | 80865 | 97906
7 | 21:45.32 | 3:23.58 | 97907 | 113189
8 | 25:09.15 | 4:21.55 | 113190 | 132819
9 | 29:30.70 | 3:13.60 | 132820 | 147354
10 | 32:44.55 | 2:37.05 | 147355 | 159134 Range status and errors

Selected range

Filename D:МузыкаEACLinda Ronstadt - Living In The U.S.A..wav

Peak level 100.0 %
Range quality 100.0 %
Test CRC 0432BC13
Copy CRC 0432BC13
Copy OK

No errors occurred


AccurateRip summary

Track 1 accurately ripped (confidence 7) [27D5C765]
Track 2 accurately ripped (confidence 7) [2A3F9C8D]
Track 3 accurately ripped (confidence 7) [90D9C2E4]
Track 4 accurately ripped (confidence 7) [ED96FEC2]
Track 5 accurately ripped (confidence 7) [8FF09145]
Track 6 accurately ripped (confidence 7) [0BD0FDE3]
Track 7 accurately ripped (confidence 7) [AAB4558C]
Track 8 accurately ripped (confidence 7) [FD36D2E8]
Track 9 accurately ripped (confidence 7) [A91CDCF4]
Track 10 accurately ripped (confidence 7) [E5611572]

All tracks accurately ripped

End of status report

DR Log
foobar2000 1.2.9 / Dynamic Range Meter 1.1.1
log date: 2015-07-07 19:47:41

--------------------------------------------------------------------------------
Analyzed: Linda Ronstadt / Living In The U.S.A.
--------------------------------------------------------------------------------

DR Peak RMS Duration Track
--------------------------------------------------------------------------------
DR13 -0.48 dB -16.69 dB 3:04 01-Back In The U.S.A.
DR10 -7.89 dB -24.97 dB 3:49 02-When I Grow Too Old To Dream
DR13 -1.01 dB -17.22 dB 3:19 03-Just One Look
DR16 -2.50 dB -23.03 dB 3:28 04-Alison
DR16 -1.70 dB -22.01 dB 4:18 05-White Rhythm & Blues
DR15 0.00 dB -17.70 dB 3:47 06-All That You Dream
DR14 -5.37 dB -22.09 dB 3:24 07-Ooh Baby Baby
DR15 -0.93 dB -19.88 dB 4:22 08-Mohammed's Radio
DR14 -3.08 dB -21.44 dB 3:14 09-Blowing Away
DR13 -10.73 dB -28.10 dB 2:37 10-Love Me Tender
--------------------------------------------------------------------------------

Number of tracks: 10
Official DR value: DR14

Samplerate: 44100 Hz
Channels: 2
Bits per sample: 16
Bitrate: 653 kbps
Codec: FLAC

CUETools Log
[CUETools log; Date: 07.07.2015 14:12:24; Version: 2.1.4]
Pregap length 00:00:32.
[CTDB TOCID: lUFKRuPnLO3i3aDjdErmdXL8uN8-] found.
Track | CTDB Status
1 | (4/4) Accurately ripped
2 | (4/4) Accurately ripped
3 | (4/4) Accurately ripped
4 | (4/4) Accurately ripped
5 | (4/4) Accurately ripped
6 | (4/4) Accurately ripped
7 | (4/4) Accurately ripped
8 | (4/4) Accurately ripped
9 | (4/4) Accurately ripped
10 | (4/4) Accurately ripped
[AccurateRip ID: 000d7bb9-006c748a-7508490a] found.
Track [ CRC | V2 ] Status
01 [27d5c765|8d243473] (11+27/71) Accurately ripped
02 [2a3f9c8d|58543032] (11+27/71) Accurately ripped
03 [90d9c2e4|f458d682] (11+27/71) Accurately ripped
04 [ed96fec2|97981261] (11+27/71) Accurately ripped
05 [8ff09145|8a5377a2] (11+27/71) Accurately ripped
06 [0bd0fde3|c024d08a] (11+27/69) Accurately ripped
07 [aab4558c|920e7a9b] (11+27/70) Accurately ripped
08 [fd36d2e8|ab6eb522] (11+27/71) Accurately ripped
09 [a91cdcf4|2e770e8a] (11+27/70) Accurately ripped
10 [e5611572|9593fd0e] (11+28/71) Accurately ripped
Offsetted by -133:
01 [4f31d610] (02/71) Accurately ripped
02 [ba5ed73d] (02/71) Accurately ripped
03 [dfdba4b0] (02/71) Accurately ripped
04 [b2ea83fd] (02/71) Accurately ripped
05 [efe43ea1] (02/71) Accurately ripped
06 [614e7bb3] (02/69) Accurately ripped
07 [bd407487] (02/70) Accurately ripped
08 [5ad794fe] (02/71) Accurately ripped
09 [efd78943] (02/70) Accurately ripped
10 [53ffe07c] (02/71) Accurately ripped
Offsetted by 18:
01 [46686832] (18/71) Accurately ripped
02 [6db4f03b] (18/71) Accurately ripped
03 [8b290f6a] (18/71) Accurately ripped
04 [5398b601] (18/71) Accurately ripped
05 [9d64384b] (18/71) Accurately ripped
06 [0b11b032] (18/69) Accurately ripped
07 [f4fde3cb] (18/70) Accurately ripped
08 [e445677d] (18/71) Accurately ripped
09 [f67027bd] (18/70) Accurately ripped
10 [c39d0950] (18/71) Accurately ripped

Track Peak [ CRC32 ] [W/O NULL] [ LOG ]
-- 100,0 [0432BC13] [8FA8EC37] CRC32
01 94,6 [2FCE98B2] [FD17A19B]
02 40,3 [63DB091F] [38719566]
03 89,0 [8E0EFD0C] [2B891D17]
04 75,0 [7A4FA44F] [4BA02515]
05 82,2 [A16AEB54] [82B49349]
06 100,0 [5054C1F5] [A1D2B115]
07 53,9 [F99821A1] [52FBB22B]
08 89,8 [43952E66] [2055B2BB]
09 70,1 [BE4266DC] [6B8A2645]
10 29,0 [D8BFE002] [7EC55B7C]

* * * * *

Linda Ronstadt - Mad Love

CD04: Linda Ronstadt - Mad Love (1980)
EAC | Flac(Image) + Cue + Log & MP3 CBR 320Kbps
Rhino, 8122 798285 | ~ 189 or 79 Mb | Scans(300dpi, jpg) Included
Country / Country Rock / Pop

Released in 1980, Mad Love featured Linda Ronstadt taking on new wave with mixed results. At this point, her albums with producer Peter Asher became routine and repetitive. This album's predecessor, Living in the U.S.A., hit the cutout bins, so a change was in order. While many may miss the customary Ronstadt here, most of Mad Love does indeed work. The insinuating "I Can't Let Go" and the playful "How Do I Make You" do help Ronstadt attain a certain cuteness and freshness. The biggest hit, the cover of Little Anthony & the Imperials' "Hurts So Bad," has a great vocal and is made even better by Danny Kortchmar's emotive guitar solos. While the originals and style of guitarist Mark Goldenberg did predominate, Mad Love is mostly known for its three Elvis Costello covers. Although the often pitch-perfect Ronstadt is more than antithetical to Costello's angst, she more than connects with "Party Girl." Costello's "Talking in the Dark" closes the album on an oddly sweet note. The strange thing about Mad Love is that it did include a lot of players from Ronstadt's previous albums. Kortchmar, Russ Kunkel, Andrew Gold, and Nicolette Larson's great backing vocals all appear here. For the most part, Mad Love stood the test of time and is certainly different from the Ronstadt albums that preceded and followed it.

by Jason Elias, AMG


Tracklist:

01. Mad Love
02. Party Girl
03. How Do I Make You
04. I Can't Let Go
05. Hurt So Bad
06. Look Out For My Love
07. Cost Of Love
08. Justine
09. Girls Talk
10. Talking In The Dark

EAC Log
Exact Audio Copy V0.99 prebeta 5 from 4. May 2009

EAC extraction logfile from 30. January 2011, 20:17

Linda Ronstadt / Mad Love

Used drive : _NEC NR-7800B Adapter: 0 ID: 0

Read mode : Secure
Utilize accurate stream : Yes
Defeat audio cache : Yes
Make use of C2 pointers : No

Read offset correction : 685
Overread into Lead-In and Lead-Out : No
Fill up missing offset samples with silence : Yes
Delete leading and trailing silent blocks : No
Null samples used in CRC calculations : Yes
Used interface : Native Win32 interface for Win NT & 2000

Used output format : User Defined Encoder
Selected bitrate : 1024 kBit/s
Quality : High
Add ID3 tag : No
Command line compressor : C:Program Files (x86)Exact Audio CopyFlacflac.exe
Additional command line options : -8 -V %s -o %d TOC of the extracted CD

Track | Start | Length | Start sector | End sector
---------------------------------------------------------
1 | 0:00.00 | 3:41.48 | 0 | 16622
2 | 3:41.48 | 3:23.00 | 16623 | 31847
3 | 7:04.48 | 2:24.22 | 31848 | 42669
4 | 9:28.70 | 2:45.53 | 42670 | 55097
5 | 12:14.48 | 3:15.15 | 55098 | 69737
6 | 15:29.63 | 3:29.20 | 69738 | 85432
7 | 18:59.08 | 2:42.10 | 85433 | 97592
8 | 21:41.18 | 3:58.70 | 97593 | 115512
9 | 25:40.13 | 3:24.60 | 115513 | 130872
10 | 29:04.73 | 2:10.50 | 130873 | 140672 Range status and errors

Selected range

Filename D:МузыкаEACLinda Ronstadt - Mad Love.wav

Peak level 99.9 %
Range quality 100.0 %
Test CRC 177C2C11
Copy CRC 177C2C11
Copy OK

No errors occurred


AccurateRip summary

Track 1 accurately ripped (confidence 7) [28ED0579]
Track 2 accurately ripped (confidence 7) [5C10FB22]
Track 3 accurately ripped (confidence 7) [EE753880]
Track 4 accurately ripped (confidence 7) [35DA129B]
Track 5 accurately ripped (confidence 7) [9302E8B8]
Track 6 accurately ripped (confidence 7) [B2869E77]
Track 7 accurately ripped (confidence 7) [F903AEBF]
Track 8 accurately ripped (confidence 7) [5E99A05B]
Track 9 accurately ripped (confidence 7) [81F9A22F]
Track 10 accurately ripped (confidence 7) [93D73E11]

All tracks accurately ripped

End of status report

DR Log
foobar2000 1.2.9 / Dynamic Range Meter 1.1.1
log date: 2015-07-07 19:48:10

--------------------------------------------------------------------------------
Analyzed: Linda Ronstadt / Mad Love
--------------------------------------------------------------------------------

DR Peak RMS Duration Track
--------------------------------------------------------------------------------
DR14 -1.83 dB -18.15 dB 3:42 01-Mad Love
DR13 0.00 dB -19.01 dB 3:23 02-Party Girl
DR14 -2.10 dB -18.43 dB 2:24 03-How Do I Make You
DR13 -1.66 dB -17.89 dB 2:46 04-I Can't Let Go
DR14 -1.88 dB -19.27 dB 3:15 05-Hurt So Bad
DR15 -1.56 dB -20.01 dB 3:29 06-Look Out For My Love
DR15 -0.54 dB -17.99 dB 2:42 07-Cost Of Love
DR15 -0.50 dB -18.34 dB 3:59 08-Justine
DR14 -2.12 dB -17.86 dB 3:25 09-Girls Talk
DR16 -1.21 dB -19.05 dB 2:11 10-Talking In The Dark
--------------------------------------------------------------------------------

Number of tracks: 10
Official DR value: DR14

Samplerate: 44100 Hz
Channels: 2
Bits per sample: 16
Bitrate: 799 kbps
Codec: FLAC

CUETools Log
[CUETools log; Date: 07.07.2015 14:14:19; Version: 2.1.4]
[CTDB TOCID: yF5GKwOOZiCx.XfyyN3yK07eQ_c-] found.
Track | CTDB Status
1 | (30/30) Accurately ripped
2 | (30/30) Accurately ripped
3 | (30/30) Accurately ripped
4 | (30/30) Accurately ripped
5 | (30/30) Accurately ripped
6 | (30/30) Accurately ripped
7 | (30/30) Accurately ripped
8 | (28/30) Accurately ripped
9 | (30/30) Accurately ripped
10 | (29/30) Accurately ripped
[AccurateRip ID: 000bfe8e-005fa40a-6a07530a] found.
Track [ CRC | V2 ] Status
01 [28ed0579|6cf8be4f] (11+29/64) Accurately ripped
02 [5c10fb22|17eaa6cc] (11+29/64) Accurately ripped
03 [ee753880|33a252e8] (11+29/64) Accurately ripped
04 [35da129b|043c300c] (11+29/64) Accurately ripped
05 [9302e8b8|95e9aeee] (11+29/64) Accurately ripped
06 [b2869e77|bae181cc] (11+29/64) Accurately ripped
07 [f903aebf|7d14c5e9] (11+29/64) Accurately ripped
08 [5e99a05b|b7b5247b] (11+29/64) Accurately ripped
09 [81f9a22f|279652a1] (11+29/64) Accurately ripped
10 [93d73e11|89db45c7] (11+30/65) Accurately ripped
Offsetted by 36:
01 [9df0a161] (04/64) Accurately ripped
02 [b8c3b52a] (04/64) Accurately ripped
03 [94a21a88] (04/64) Accurately ripped
04 [3096b757] (04/64) Accurately ripped
05 [b5071964] (04/64) Accurately ripped
06 [64c955e7] (04/64) Accurately ripped
07 [e752c3db] (04/64) Accurately ripped
08 [945caeb3] (04/64) Accurately ripped
09 [0184767f] (04/64) Accurately ripped
10 [ff4e2ad9] (04/65) Accurately ripped
Offsetted by 42:
01 [31713b5d] (02/64) Accurately ripped
02 [f2e17ed6] (02/64) Accurately ripped
03 [30544034] (02/64) Accurately ripped
04 [2fb62821] (02/64) Accurately ripped
05 [bab276d6] (02/64) Accurately ripped
06 [ad29c9cf] (02/64) Accurately ripped
07 [0f0a9cb5] (02/64) Accurately ripped
08 [487d0326] (02/64) Accurately ripped
09 [c2684528] (02/64) Accurately ripped
10 [e68ca7a5] (02/65) Accurately ripped

Track Peak [ CRC32 ] [W/O NULL] [ LOG ]
-- 99,9 [177C2C11] [1FDBB1AA] CRC32
01 81,0 [02329C22] [E25380F1]
02 99,9 [471E6A4E] [FCF59B05]
03 78,5 [2FEB4552] [294551A0]
04 82,5 [BFF79210] [525D80A9]
05 80,5 [D1D3BF1F] [29E12748]
06 83,5 [ADCD4A1F] [E566AC1F]
07 93,9 [7BF3449E] [0B64E255]
08 94,3 [21282695] [F37BC023]
09 78,3 [E0B2B70D] [0ED93A58]
10 87,0 [604DF851] [31B95F81]

* * * * *

Linda Ronstadt - Cry Like A Rainstorm

CD05: Linda Ronstadt - Cry Like A Rainstorm (1989)
EAC | Flac(Image) + Cue + Log & MP3 CBR 320Kbps
Rhino, 8122 798285 | ~ 260 or 106 Mb | Scans(300dpi, jpg) Included
Soft Rock

On the strength of the hit duet with Aaron Neville, "Don't Know Much," Cry Like a Rainstorm -- Howl Like the Wind returned Linda Ronstadt to the top of the charts. The album was a collection of well-constructed adult contemporary pop, which suits her voice better than the traditional pop she recorded during the mid-'80s. Musically, Cry Like a Rainstorm isn't as adventurous as Canciones de Mi Padre, nor is it as consistent as Trio, the album she recorded with Emmylou Harris and Dolly Parton, but it is her most satisfying mainstream pop album she has made since the late '70s.

by Stephen Thomas Erlewine, AMG


Tracklist:

01. Still Within The Sound Of My Voice
02. Cry Like A Rainstorm
03. All My Life (Featuring Aaron Neville)
04. I Need You (Featuring Aaron Neville)
05. Don't Know Much (Featuring Aaron Neville)
06. Adios
07. Trouble Again
08. I Keep It Hid
09. So Right, So Wrong
10. Shattered
11. When Something Is Wrong With My Baby (Featuring Aaron Neville)
12. Goodbye My Friend

EAC Log
Exact Audio Copy V0.99 prebeta 5 from 4. May 2009

EAC extraction logfile from 30. January 2011, 20:21

Linda Ronstadt / Cry Like A Rainstorm

Used drive : _NEC NR-7800B Adapter: 0 ID: 0

Read mode : Secure
Utilize accurate stream : Yes
Defeat audio cache : Yes
Make use of C2 pointers : No

Read offset correction : 685
Overread into Lead-In and Lead-Out : No
Fill up missing offset samples with silence : Yes
Delete leading and trailing silent blocks : No
Null samples used in CRC calculations : Yes
Used interface : Native Win32 interface for Win NT & 2000

Used output format : User Defined Encoder
Selected bitrate : 1024 kBit/s
Quality : High
Add ID3 tag : No
Command line compressor : C:Program Files (x86)Exact Audio CopyFlacflac.exe
Additional command line options : -8 -V %s -o %d TOC of the extracted CD

Track | Start | Length | Start sector | End sector
---------------------------------------------------------
1 | 0:00.00 | 4:33.05 | 0 | 20479
2 | 4:33.05 | 3:36.28 | 20480 | 36707
3 | 8:09.33 | 3:30.27 | 36708 | 52484
4 | 11:39.60 | 2:52.23 | 52485 | 65407
5 | 14:32.08 | 3:35.05 | 65408 | 81537
6 | 18:07.13 | 3:36.00 | 81538 | 97737
7 | 21:43.13 | 3:19.20 | 97738 | 112682
8 | 25:02.33 | 3:35.32 | 112683 | 128839
9 | 28:37.65 | 3:27.65 | 128840 | 144429
10 | 32:05.55 | 2:53.50 | 144430 | 157454
11 | 34:59.30 | 3:51.58 | 157455 | 174837
12 | 38:51.13 | 3:46.42 | 174838 | 191829 Range status and errors

Selected range

Filename D:МузыкаEACLinda Ronstadt - Cry Like A Rainstorm.wav

Peak level 100.0 %
Range quality 100.0 %
Test CRC 45FD2061
Copy CRC 45FD2061
Copy OK

No errors occurred


AccurateRip summary

Track 1 accurately ripped (confidence 7) [BFCFEB42]
Track 2 accurately ripped (confidence 6) [928ED508]
Track 3 accurately ripped (confidence 6) [D5C1995A]
Track 4 accurately ripped (confidence 6) [0F26428B]
Track 5 accurately ripped (confidence 6) [D8BED9CD]
Track 6 accurately ripped (confidence 6) [F72B680F]
Track 7 accurately ripped (confidence 6) [C41F0C9D]
Track 8 accurately ripped (confidence 6) [1D1D619C]
Track 9 accurately ripped (confidence 6) [7516EB4D]
Track 10 accurately ripped (confidence 6) [87E19341]
Track 11 accurately ripped (confidence 6) [02C7D087]
Track 12 accurately ripped (confidence 6) [F1658BA9]

All tracks accurately ripped

End of status report

DR Log
foobar2000 1.2.9 / Dynamic Range Meter 1.1.1
log date: 2015-07-07 19:46:59

--------------------------------------------------------------------------------
Analyzed: Linda Ronstadt / Cry Like A Rainstorm
--------------------------------------------------------------------------------

DR Peak RMS Duration Track
--------------------------------------------------------------------------------
DR14 -0.41 dB -19.09 dB 4:33 01-Still Within The Sound Of My Voice
DR12 0.00 dB -16.21 dB 3:36 02-Cry Like A Rainstorm
DR14 0.00 dB -17.62 dB 3:30 03-All My Life (Featuring Aaron Neville)
DR14 0.00 dB -16.43 dB 2:52 04-I Need You (Featuring Aaron Neville)
DR14 0.00 dB -18.53 dB 3:35 05-Don't Know Much (Featuring Aaron Neville)
DR13 -3.58 dB -20.25 dB 3:36 06-Adios
DR13 0.00 dB -15.48 dB 3:19 07-Trouble Again
DR12 -1.23 dB -19.89 dB 3:35 08-I Keep It Hid
DR12 -0.07 dB -15.90 dB 3:28 09-So Right, So Wrong
DR13 -3.79 dB -22.27 dB 2:54 10-Shattered
DR14 0.00 dB -17.12 dB 3:52 11-When Something Is Wrong With My Baby (Featuring Aaron Neville)
DR15 -1.19 dB -21.17 dB 3:47 12-Goodbye My Friend
--------------------------------------------------------------------------------

Number of tracks: 12
Official DR value: DR13

Samplerate: 44100 Hz
Channels: 2
Bits per sample: 16
Bitrate: 795 kbps
Codec: FLAC

CUETools Log
[CUETools log; Date: 07.07.2015 14:16:13; Version: 2.1.4]
[CTDB TOCID: yrq6dyCHKO9daLGzC_mKJIgMq04-] found.
Track | CTDB Status
1 | (65/66) Accurately ripped
2 | (65/66) Accurately ripped
3 | (65/66) Accurately ripped
4 | (65/66) Accurately ripped
5 | (65/66) Accurately ripped
6 | (64/66) Accurately ripped
7 | (65/66) Accurately ripped
8 | (64/66) Accurately ripped
9 | (65/66) Accurately ripped
10 | (65/66) Accurately ripped
11 | (63/66) Accurately ripped
12 | (63/66) Accurately ripped, or (2/66) differs in 74 samples @02:59:45,03:01:27
[AccurateRip ID: 00134b31-00b2628a-9209fd0c] found.
Track [ CRC | V2 ] Status
01 [bfcfeb42|afc65d1b] (011+027/206) Accurately ripped
02 [928ed508|851d693c] (010+027/211) Accurately ripped
03 [d5c1995a|544f0836] (010+028/210) Accurately ripped
04 [0f26428b|9291aacf] (010+028/206) Accurately ripped
05 [d8bed9cd|7f960b82] (010+027/209) Accurately ripped
06 [f72b680f|e384c98c] (010+027/207) Accurately ripped
07 [c41f0c9d|3276a76e] (009+027/205) Accurately ripped
08 [1d1d619c|fafdd8b3] (010+027/207) Accurately ripped
09 [7516eb4d|ab4944dd] (010+027/207) Accurately ripped
10 [87e19341|7b586f1d] (010+027/207) Accurately ripped
11 [02c7d087|ebb15d7a] (010+027/206) Accurately ripped
12 [f1658ba9|b95368ae] (010+028/205) Accurately ripped
Offsetted by 700:
01 [d47206c9] (007/206) Accurately ripped
02 [e06ac110] (007/211) Accurately ripped
03 [e3db3d38] (007/210) Accurately ripped
04 [22ffd0a9] (007/206) Accurately ripped
05 [1732d268] (007/209) Accurately ripped
06 [19a80892] (007/207) Accurately ripped
07 [63e1d530] (007/205) Accurately ripped
08 [242f0c77] (007/207) Accurately ripped
09 [b0f6befa] (007/207) Accurately ripped
10 [dda7319c] (007/207) Accurately ripped
11 [99534849] (007/206) Accurately ripped
12 [b4de15cb] (007/205) Accurately ripped
Offsetted by 1359:
01 [772eda4f] (073/206) Accurately ripped
02 [54558298] (077/211) Accurately ripped
03 [29c5a27f] (076/210) Accurately ripped
04 [b8c39bf6] (071/206) Accurately ripped
05 [0b1f088d] (076/209) Accurately ripped
06 [30197712] (075/207) Accurately ripped
07 [b96429f8] (075/205) Accurately ripped
08 [fcf342db] (075/207) Accurately ripped
09 [a755544f] (075/207) Accurately ripped
10 [d5fd3b70] (075/207) Accurately ripped
11 [48cdd494] (076/206) Accurately ripped
12 [8d699e0a] (073/205) Accurately ripped
Offsetted by 1293:
01 [073f8fd5] (000/206) No match (V2 was not tested)
02 [cc08e683] (000/211) No match (V2 was not tested)
03 [e80c60ca] (000/210) No match (V2 was not tested)
04 [7057d751] (000/206) No match
05 [f19921ac] (000/209) No match (V2 was not tested)
06 [c042fd3a] (000/207) No match (V2 was not tested)
07 [03359d51] (000/205) No match (V2 was not tested)
08 [bb671c98] (000/207) No match (V2 was not tested)
09 [11b25ce3] (000/207) No match (V2 was not tested)
10 [6ba000fd] (000/207) No match (V2 was not tested)
11 [de6fe281] (000/206) No match (V2 was not tested)
12 [ac5d0660] (000/205) No match (V2 was not tested)

Track Peak [ CRC32 ] [W/O NULL] [ LOG ]
-- 100,0 [45FD2061] [47D9144A] CRC32
01 95,3 [8EC36AF6] [A10B9190]
02 100,0 [268AB2A7] [C4D0B4E7]
03 100,0 [E51906BC] [7E6C60E1]
04 100,0 [D514E389] [64CA01A2]
05 100,0 [732E5F99] [59691B00]
06 66,2 [7D702CAD] [7701DC82]
07 100,0 [4FFB51FD] [FF962CAF]
08 86,7 [DFFD0E7D] [96D2F28A]
09 99,1 [38E079F8] [7F0136D6]
10 64,6 [5224F6F0] [30735284]
11 100,0 [D29ECA77] [91659DA2]
12 87,2 [80A9907E] [2AD703F2]

Original Album Series: Linda Ronstadt (2009) back

All thanks go to modest_suetsky

Original Album Series in my Blog

Download Original Album Series: Linda Ronstadt (2009):





Star Trek The Original Series | Linda Ronstadt | Star Trek Original Series 3 | Linda Ronstadt The Stone Poneys | Star Trek The Original Series 720P | Doctor Who Original Series | Linda Ronstadt Aaron Neville | Original Album Series Flac | Original Album 320 | Original Album Classics
Free Full Download Original Album Series: Linda Ronstadt form MediaFire link RapidShare, ifile.it, Uploaded.to, Zippyshare, FileSonic, turbobit, ul.to, ORON, DepositFiles,rapidgator.net, extabit.com, filefactory.com. Original Album Series: Linda Ronstadt Torrent Download with keygen, crack, serial, cdkey,password,1080P,hd, 2015, 2016
Dear visitor, you went to the site as unregistered user.
We encourage you to register .

Add comment

Name:*
E-Mail:*
Comment:
  • bowtiesmilelaughingblushsmileyrelaxedsmirk
    heart_eyeskissing_heartkissing_closed_eyesflushedrelievedsatisfiedgrin
    winkstuck_out_tongue_winking_eyestuck_out_tongue_closed_eyesgrinningkissingstuck_out_tonguesleeping
    worriedfrowninganguishedopen_mouthgrimacingconfusedhushed
    expressionlessunamusedsweat_smilesweatdisappointed_relievedwearypensive
    disappointedconfoundedfearfulcold_sweatperseverecrysob
    joyastonishedscreamtired_faceangryragetriumph
    sleepyyummasksunglassesdizzy_faceimpsmiling_imp
    neutral_faceno_mouthinnocent
Enter the two words shown in the image:

Sitemap We don't Store Any File In Server. The Search and free download links all published by our users.if You Have Any Doubts About Legality Of Content, plz contact us.
  • count 88x31px