James Last - Traumschiff Melodien (198_ Polydor # 831 129-2 Y)

jone Category: music

James Last - Traumschiff Melodien
EAC+LOG+CUE | FLAC: 213 MB | Full Artwork: 28 MB | 5% Recovery Info
Label/Cat#: Polydor # 831 129-2 Y | Country/Year: Germany 198_
Genre: Pop, Stage & Screen | Style: Easy Listening, Instrumental, Soundtrack

MD5 [X] CUE [X] LOG [X] INFO TEXT [X] ARTWORK [X]

my rip [X] not my rip [ ]



EAC LOG
Exact Audio Copy V1.0 beta 3 from 29. August 2011

EAC extraction logfile from 13. September 2013, 10:26

James Last / Traumschiff Melodien

Used drive : PIONEER BD-RW BDR-206 Adapter: 0 ID: 2

Read mode : Secure
Utilize accurate stream : Yes
Defeat audio cache : Yes
Make use of C2 pointers : No

Read offset correction : 667
Overread into Lead-In and Lead-Out : No
Fill up missing offset samples with silence : Yes
Delete leading and trailing silent blocks : No
Null samples used in CRC calculations : Yes
Used interface : Native Win32 interface for Win NT & 2000

Used output format : User Defined Encoder
Selected bitrate : 1024 kBit/s
Quality : High
Add ID3 tag : Yes
Command line compressor : C:Program FilesFLACflac.exe
Additional command line options : -5 -T "Artist=%artist%" -T "Title=%title%" -T "Album=%albumtitle%" -T "Date=%year%" -T "Tracknumber=%tracknr%" -T "Genre=%genre%" %source% -o %dest% TOC of the extracted CD

Track | Start | Length | Start sector | End sector
---------------------------------------------------------
1 | 0:00.33 | 2:41.15 | 33 | 12122
2 | 2:41.48 | 3:56.50 | 12123 | 29872
3 | 6:38.23 | 4:23.40 | 29873 | 49637
4 | 11:01.63 | 2:52.27 | 49638 | 62564
5 | 13:54.15 | 4:41.23 | 62565 | 83662
6 | 18:35.38 | 0:58.42 | 83663 | 88054
7 | 19:34.05 | 3:24.68 | 88055 | 103422
8 | 22:58.73 | 3:44.05 | 103423 | 120227
9 | 26:43.03 | 3:11.47 | 120228 | 134599
10 | 29:54.50 | 2:56.30 | 134600 | 147829
11 | 32:51.05 | 3:44.70 | 147830 | 164699
12 | 36:36.00 | 3:23.20 | 164700 | 179944 Range status and errors

Selected range

Filename F:=== VINYL RIPS ====== EAC===X FRESH RIPJames Last - Traumschiff Melodien.wav

Peak level 85.0 %
Extraction speed 6.6 X
Range quality 100.0 %
Test CRC 5B7485C5
Copy CRC 5B7485C5
Copy OK

No errors occurred


AccurateRip summary

Track 1 not present in database
Track 2 not present in database
Track 3 not present in database
Track 4 not present in database
Track 5 not present in database
Track 6 not present in database
Track 7 not present in database
Track 8 not present in database
Track 9 not present in database
Track 10 not present in database
Track 11 not present in database
Track 12 not present in database

None of the tracks are present in the AccurateRip database

End of status report

---- CUETools DB Plugin V2.1.3

[CTDB TOCID: cAa9ZzAE.ShW_.2WmjcyGZx6z9w-] disk not present in database, Submit result: discs with pregaps not supported in this protocol version ==== Log checksum 8948D244E1DD3077002D1075ED270B320F7B33CE8F187EA7005DFB2DC8EF025F ====

Dynamic Range LOG
foobar2000 1.1.14a / Dynamic Range Meter 1.1.1
log date: 2013-09-16 09:06:11

--------------------------------------------------------------------------------
Analyzed: James Last / Traumschiff Melodien
--------------------------------------------------------------------------------

DR Peak RMS Duration Track
--------------------------------------------------------------------------------
DR12 -2.76 dB -17.77 dB 2:41 01-Traumschiff Thema
DR14 -1.61 dB -18.15 dB 3:57 02-Brasilien
DR13 -1.49 dB -18.82 dB 4:24 03-Liebeserklarung
DR13 -1.94 dB -16.96 dB 2:52 04-Heidelinde
DR12 -1.41 dB -16.94 dB 4:41 05-Bali
DR13 -1.87 dB -16.91 dB 0:59 06-Dinner-Marsch
DR10 -3.00 dB -16.17 dB 3:25 07-Thailand
DR14 -2.98 dB -18.48 dB 3:44 08-Mexico
DR13 -1.65 dB -17.34 dB 3:12 09-Love Theme
DR11 -4.63 dB -18.60 dB 2:56 10-Gestatten Sie
DR13 -3.75 dB -17.85 dB 3:45 11-Ich Habe Das Leben Gelebt
DR12 -2.44 dB -17.31 dB 3:23 12-Sadness
--------------------------------------------------------------------------------

Number of tracks: 12
Official DR value: DR13

Samplerate: 44100 Hz
Channels: 2
Bits per sample: 16
Bitrate: 747 kbps
Codec: FLAC
================================================================================



CD Info:

James Last - Traumschiff Melodien

Label: Polydor
Catalog#: 831 129-2 Y
Format: CD, Album
Country: Germany
Released: 198_
Genre: Pop, Stage & Screen
Style: Easy Listening, Instrumental, Soundtrack

Tracklist:

1 Traumschiff Thema 2:41
2 Brasilien 3:57
3 Liebeserklarung 4:24
4 Heidelinde 2:52
5 Bali 4:41
6 Dinner-Marsch 0:59
7 Thailand 3:25
8 Mexico 3:44
9 Love Theme 3:12
10 Gestatten Sie 2:56
11 Ich Habe Das Leben Gelebt 3:45
12 Sadness 3:23

Artist Biography by Stephen Thomas Erlewine

James Last is a German big band leader with a large fan base in Europe, although he has never had a comparable following in the United States. Last's trademark is arranging pop hits in a big-band style; his series of "party albums" is equally well-known. Over the course of his career, he has sold well over 50 million albums.

Last learned how to play piano as child, switching to bass as a teenager. He joined Hans-Gunther Oesterreich's Radio Bremen Dance Orchestra in 1946, when he was 17 years old. In 1948, he became the leader of the Becker-Last Ensemble, which performed for seven years. During that time, he was voted as the best bassist in the country by a German jazz poll for three consecutive years, from 1950-1952. After the disbandment of the Becker-Last Ensemble, he became the in-house arranger for Polydor Records, as well as for a number of European radio stations. For the next decade, he helped arrange hits for artists like Helmut Zacharias and Caterina Valente.

Last released his first album, Non-Stop Dancing, in 1965. The record of brief renditions of popular songs, all tied together by an insistent dance beat and joyous crowd noises. It was a hit and helped make him a major European star. Over the next two decades, Last released over 50 records, including several more volumes of Non-Stop Dancing. On these records, he varied his formula by adding different songs from different countries and genres, as well as guest performers like Richard Clayderman and Astrud Gilberto.

Though his concerts and albums were consistently successful -- especially in England, where he had 52 hit albums between 1967-1986, which made him second to Elvis Presley in terms of number of charting records -- he only had one hit single with "The Seduction," the theme from American Gigolo (1980). ~allmusicguide


Das Traumschiff ("The Dream Ship") is a West German-German television series by ZDF. The series, about a cruise ship that travels to places around the world, debuted in 1981 and became one of the most-watched television shows in Germany. A total of 69 episodes have been produced as of 2013. A 2007 Variety article described the series as a '"Love Boat"-like cruise liner skein.'






James Last died on 9 June 2015 in Florida at the age of 86.

all of my uploads in my blog

________________

NITROFLARE

Music Pt. 1 | | Music Pt. 2

Artwork

________________



James | James 05 19 | James The Best Of James | Pan And James | 007 James Die Another Day | Cee Cee James | The Spy Who James | James May Man Lab | James May S Man Lab | James E L
Free Full Download James Last - Traumschiff Melodien (198_ form MediaFire link RapidShare, ifile.it, Uploaded.to, Zippyshare, FileSonic, turbobit, ul.to, ORON, DepositFiles,rapidgator.net, extabit.com, filefactory.com. James Last - Traumschiff Melodien (198_ Torrent Download with keygen, crack, serial, cdkey,password,1080P,hd, 2015, 2016
Dear visitor, you went to the site as unregistered user.
We encourage you to register .

Add comment

Name:*
E-Mail:*
Comment:
  • bowtiesmilelaughingblushsmileyrelaxedsmirk
    heart_eyeskissing_heartkissing_closed_eyesflushedrelievedsatisfiedgrin
    winkstuck_out_tongue_winking_eyestuck_out_tongue_closed_eyesgrinningkissingstuck_out_tonguesleeping
    worriedfrowninganguishedopen_mouthgrimacingconfusedhushed
    expressionlessunamusedsweat_smilesweatdisappointed_relievedwearypensive
    disappointedconfoundedfearfulcold_sweatperseverecrysob
    joyastonishedscreamtired_faceangryragetriumph
    sleepyyummasksunglassesdizzy_faceimpsmiling_imp
    neutral_faceno_mouthinnocent
Enter the two words shown in the image:

Sitemap We don't Store Any File In Server. The Search and free download links all published by our users.if You Have Any Doubts About Legality Of Content, plz contact us.
  • count 88x31px