Stevie Ray Vaughan And Double Trouble - The Complete Epic Recordings Collection (2014)

peter Category: music

Stevie Ray Vaughan And Double Trouble - The Complete Epic Recordings Collection (2014)
EAC Rip | Flac (Tracks + cue + log) | 4.13 GB | 12 CDs | Full Scans
Genre: Blues | Label: Epic | Catalog Number: 309142

To celebrate what would have been the 60th birthday of Stevie Ray Vaughan (1954-1990), Epic Records/Legacy Recordings will issue Stevie Ray Vaughan and Double Trouble: The Complete Epic Recordings Collection, collecting the trailblazing blues guitarist s most scintillating studio and live works. Stevie Ray Vaughan and Double Trouble: The Complete Epic Recordings Collection includes the group s original four studio albums, five electrifying live releases (including the commercial debut of A Legend In The Making Live At The El Mocambo, a rare Canadian radio promo album) and a double-disc set of killer studio outtakes from throughout Stevie Ray Vaughan s incredible career, including recordings from previous reissues, box sets and posthumous compilations.


Reviews: Music fans will have a chance to amass nearly every Stevie Ray Vaughan recording in one place with the Oct. 28 release of ‘Stevie Ray Vaughan and Double Trouble: The Complete Epic Recordings Collection.’

Spanning 12 discs, this new set features every Double Trouble studio album, from 1983's ‘Texas Flood‘ through 1989's ‘In Step.’ Also of note are a series of live and rarities discs, highlighted by the first CD release of a 1983 performance at the El Mocambo club in Toronto that had previously been available only on video. Other live offerings include July 17, 1982, and July 15, 1985, performances at Montreux; an Oct. 4, 1984, stop at New York City’s Carnegie Hall; and a ‘Live Alive’ compilation of music from Montreux, Austin and Dallas from 1985 and 1986.

Before his tragic death in a 1990 helicopter crash, Vaughan was in the middle of a short but widely celebrated seven-year career. Every one of his studio projects went at least platinum, and he claimed six Grammy awards along the way.

Absent from ‘Stevie Ray Vaughan and Double Trouble: The Complete Epic Recordings Collection,’ however, is the 1991 posthumous album ‘The Sky Is Crying’ — though many of that project’s best moments are included on the two discs devoted to archival music. ‘Family Style,’ a 1990 release in which Stevie Ray collaborated with his brother Jimmie Vaughan, is missing, too.


Tracklisting:

CD 1: In The Beginning (40:00) (KLBJ-FM radio broadcast produced by Wayne Bell
Recorded April 1, 1980; Austin, Texas

01-In The Open (5:56)
02-Slide Thing (3:18)
03-They Call Me Guitar Hurricane (3:06)
04-All Your Love I Miss Loving (6:23)
05-Tin Pan Alley (aka Roughest Place In Town) (7:40)
06-Love Struck Baby (2:56)
07-Tell Me (2:48)
08-Shake For Me (4:04)
09-Live Another Day (3:49)

Originally released as Epic 53168, 1992 / Peak chart position: #58

EAC LOG
Exact Audio Copy V1.0 beta 3 from 29. August 2011

EAC extraction logfile from 29. October 2014, 11:40

Stevie Ray Vaughan / In The Beginning

Used drive : TSSTcorpCDDVDW SH-S223Q Adapter: 1 ID: 0

Read mode : Secure
Utilize accurate stream : Yes
Defeat audio cache : Yes
Make use of C2 pointers : No

Read offset correction : 6
Overread into Lead-In and Lead-Out : No
Fill up missing offset samples with silence : Yes
Delete leading and trailing silent blocks : No
Null samples used in CRC calculations : Yes
Used interface : Native Win32 interface for Win NT & 2000
Gap handling : Appended to previous track

Used output format : User Defined Encoder
Selected bitrate : 1024 kBit/s
Quality : Low
Add ID3 tag : No
Command line compressor : C:Program FilesExact Audio CopyFLACFLAC.EXE
Additional command line options : -8 -V -T "ARTIST=%artist%" -T "TITLE=%title%" -T "ALBUM=%albumtitle%" -T "DATE=%year%" -T "TRACKNUMBER=%tracknr%" -T "GENRE=%genre%" -T "COMMENT=%comment%" -T "BAND=%albuminterpret%" -T "ALBUMARTIST=%albuminterpret%" -T "COMPOSER=%composer%" %haslyrics%--tag-from-file=LYRICS="%lyricsfile%"%haslyrics% -T "DISCNUMBER=%cdnumber%" -T "TOTALDISCS=%totalcds%" -T "TOTALTRACKS=%numtracks%" %hascover%--picture="%coverfile%"%hascover% %source% -o %dest% TOC of the extracted CD

Track | Start | Length | Start sector | End sector
---------------------------------------------------------
1 | 0:00.00 | 5:56.65 | 0 | 26764
2 | 5:56.65 | 3:18.18 | 26765 | 41632
3 | 9:15.08 | 3:06.56 | 41633 | 55638
4 | 12:21.64 | 6:23.02 | 55639 | 84365
5 | 18:44.66 | 7:40.51 | 84366 | 118916
6 | 26:25.42 | 2:56.14 | 118917 | 132130
7 | 29:21.56 | 2:48.48 | 132131 | 144778
8 | 32:10.29 | 4:04.49 | 144779 | 163127
9 | 36:15.03 | 3:49.01 | 163128 | 180303 Track 1

Filename C:Documents and SettingsJamesMy DocumentsMy Torrentssrv2014-complete_epic_recordings-12cd.flac16CD01-In The Beginning 19801 Track01.wav

Pre-gap length 0:00:02.00

Peak level 98.3 %
Extraction speed 4.5 X
Track quality 99.9 %
Test CRC D1A5F730
Copy CRC D1A5F730
Track not present in AccurateRip database
Copy OK

Track 2

Filename C:Documents and SettingsJamesMy DocumentsMy Torrentssrv2014-complete_epic_recordings-12cd.flac16CD01-In The Beginning 19802 Track02.wav

Peak level 98.9 %
Extraction speed 5.2 X
Track quality 100.0 %
Test CRC 1C8B07D3
Copy CRC 1C8B07D3
Track not present in AccurateRip database
Copy OK

Track 3

Filename C:Documents and SettingsJamesMy DocumentsMy Torrentssrv2014-complete_epic_recordings-12cd.flac16CD01-In The Beginning 19803 Track03.wav

Peak level 98.6 %
Extraction speed 5.4 X
Track quality 100.0 %
Test CRC BDACF54F
Copy CRC BDACF54F
Track not present in AccurateRip database
Copy OK

Track 4

Filename C:Documents and SettingsJamesMy DocumentsMy Torrentssrv2014-complete_epic_recordings-12cd.flac16CD01-In The Beginning 19804 Track04.wav

Peak level 100.0 %
Extraction speed 6.4 X
Track quality 100.0 %
Test CRC 28C85CC9
Copy CRC 28C85CC9
Track not present in AccurateRip database
Copy OK

Track 5

Filename C:Documents and SettingsJamesMy DocumentsMy Torrentssrv2014-complete_epic_recordings-12cd.flac16CD01-In The Beginning 19805 Track05.wav

Peak level 100.0 %
Extraction speed 7.1 X
Track quality 100.0 %
Test CRC 73E0DFA3
Copy CRC 73E0DFA3
Track not present in AccurateRip database
Copy OK

Track 6

Filename C:Documents and SettingsJamesMy DocumentsMy Torrentssrv2014-complete_epic_recordings-12cd.flac16CD01-In The Beginning 19806 Track06.wav

Peak level 99.2 %
Extraction speed 6.7 X
Track quality 100.0 %
Test CRC 2F773597
Copy CRC 2F773597
Track not present in AccurateRip database
Copy OK

Track 7

Filename C:Documents and SettingsJamesMy DocumentsMy Torrentssrv2014-complete_epic_recordings-12cd.flac16CD01-In The Beginning 19807 Track07.wav

Peak level 98.6 %
Extraction speed 5.1 X
Track quality 99.9 %
Test CRC 96D0E509
Copy CRC 96D0E509
Track not present in AccurateRip database
Copy OK

Track 8

Filename C:Documents and SettingsJamesMy DocumentsMy Torrentssrv2014-complete_epic_recordings-12cd.flac16CD01-In The Beginning 19808 Track08.wav

Peak level 99.2 %
Extraction speed 6.0 X
Track quality 99.9 %
Test CRC 418B5FFD
Copy CRC 418B5FFD
Track not present in AccurateRip database
Copy OK

Track 9

Filename C:Documents and SettingsJamesMy DocumentsMy Torrentssrv2014-complete_epic_recordings-12cd.flac16CD01-In The Beginning 19809 Track09.wav

Peak level 100.0 %
Extraction speed 7.6 X
Track quality 100.0 %
Test CRC 2D34CA53
Copy CRC 2D34CA53
Track not present in AccurateRip database
Copy OK None of the tracks are present in the AccurateRip database

No errors occurred

End of status report

==== Log checksum FFE1F2A675F91110E6F3B63C51AF4FFF277BD9E8752F706AF7F1568D1A6FA571 ====


CD 2: Live At Montreux 1982 (42:08) (July 17, 1982; Montreux International Jazz Festival)

01-Hide Away (3:18)
02-Rude Mood (4:54)
03-Pride And Joy (4:00)
04-Texas Flood (10:27)
05-Love Struck Baby (2:53)
06-Dirty Pool (8:16)
07-Give Me Back My Wig (3:30)
08-Collins Shuffle (4:50)

Originally released as Epic/Legacy 86151, 2001 / Peak chart position: #178

EAC LOG
Exact Audio Copy V1.0 beta 3 from 29. August 2011

EAC extraction logfile from 29. October 2014, 12:11

Stevie Ray Vaughan / Live At Montreux 1982

Used drive : TSSTcorpCDDVDW SH-S223Q Adapter: 1 ID: 0

Read mode : Secure
Utilize accurate stream : Yes
Defeat audio cache : Yes
Make use of C2 pointers : No

Read offset correction : 6
Overread into Lead-In and Lead-Out : No
Fill up missing offset samples with silence : Yes
Delete leading and trailing silent blocks : No
Null samples used in CRC calculations : Yes
Used interface : Native Win32 interface for Win NT & 2000
Gap handling : Appended to previous track

Used output format : User Defined Encoder
Selected bitrate : 1024 kBit/s
Quality : Low
Add ID3 tag : No
Command line compressor : C:Program FilesExact Audio CopyFLACFLAC.EXE
Additional command line options : -8 -V -T "ARTIST=%artist%" -T "TITLE=%title%" -T "ALBUM=%albumtitle%" -T "DATE=%year%" -T "TRACKNUMBER=%tracknr%" -T "GENRE=%genre%" -T "COMMENT=%comment%" -T "BAND=%albuminterpret%" -T "ALBUMARTIST=%albuminterpret%" -T "COMPOSER=%composer%" %haslyrics%--tag-from-file=LYRICS="%lyricsfile%"%haslyrics% -T "DISCNUMBER=%cdnumber%" -T "TOTALDISCS=%totalcds%" -T "TOTALTRACKS=%numtracks%" %hascover%--picture="%coverfile%"%hascover% %source% -o %dest% TOC of the extracted CD

Track | Start | Length | Start sector | End sector
---------------------------------------------------------
1 | 0:00.00 | 3:18.67 | 0 | 14916
2 | 3:18.67 | 4:54.38 | 14917 | 37004
3 | 8:13.30 | 4:00.50 | 37005 | 55054
4 | 12:14.05 | 10:27.30 | 55055 | 102109
5 | 22:41.35 | 2:53.17 | 102110 | 115101
6 | 25:34.52 | 8:16.55 | 115102 | 152356
7 | 33:51.32 | 3:30.20 | 152357 | 168126
8 | 37:21.52 | 4:50.43 | 168127 | 189919 Track 1

Filename C:Documents and SettingsJamesMy DocumentsMy Torrentssrv2014-complete_epic_recordings-12cd.flac16CD02-Live At Montreux 19821 Track01.wav

Pre-gap length 0:00:02.00

Peak level 99.8 %
Extraction speed 3.7 X
Track quality 99.9 %
Test CRC BDA98C79
Copy CRC BDA98C79
Track not present in AccurateRip database
Copy OK

Track 2

Filename C:Documents and SettingsJamesMy DocumentsMy Torrentssrv2014-complete_epic_recordings-12cd.flac16CD02-Live At Montreux 19822 Track02.wav

Peak level 99.8 %
Extraction speed 5.3 X
Track quality 100.0 %
Test CRC F01ACB9A
Copy CRC F01ACB9A
Track not present in AccurateRip database
Copy OK

Track 3

Filename C:Documents and SettingsJamesMy DocumentsMy Torrentssrv2014-complete_epic_recordings-12cd.flac16CD02-Live At Montreux 19823 Track03.wav

Peak level 99.8 %
Extraction speed 4.6 X
Track quality 99.9 %
Test CRC A1C796F4
Copy CRC A1C796F4
Track not present in AccurateRip database
Copy OK

Track 4

Filename C:Documents and SettingsJamesMy DocumentsMy Torrentssrv2014-complete_epic_recordings-12cd.flac16CD02-Live At Montreux 19824 Track04.wav

Peak level 99.8 %
Extraction speed 6.9 X
Track quality 100.0 %
Test CRC 7CC49957
Copy CRC 7CC49957
Track not present in AccurateRip database
Copy OK

Track 5

Filename C:Documents and SettingsJamesMy DocumentsMy Torrentssrv2014-complete_epic_recordings-12cd.flac16CD02-Live At Montreux 19825 Track05.wav

Peak level 99.8 %
Extraction speed 6.4 X
Track quality 100.0 %
Test CRC 61129E29
Copy CRC 61129E29
Track not present in AccurateRip database
Copy OK

Track 6

Filename C:Documents and SettingsJamesMy DocumentsMy Torrentssrv2014-complete_epic_recordings-12cd.flac16CD02-Live At Montreux 19826 Track06.wav

Peak level 99.8 %
Extraction speed 7.7 X
Track quality 100.0 %
Test CRC C9DCDD9E
Copy CRC C9DCDD9E
Track not present in AccurateRip database
Copy OK

Track 7

Filename C:Documents and SettingsJamesMy DocumentsMy Torrentssrv2014-complete_epic_recordings-12cd.flac16CD02-Live At Montreux 19827 Track07.wav

Peak level 99.8 %
Extraction speed 7.4 X
Track quality 100.0 %
Test CRC 5BE07C29
Copy CRC 5BE07C29
Track not present in AccurateRip database
Copy OK

Track 8

Filename C:Documents and SettingsJamesMy DocumentsMy Torrentssrv2014-complete_epic_recordings-12cd.flac16CD02-Live At Montreux 19828 Track08.wav

Peak level 99.8 %
Extraction speed 8.0 X
Track quality 100.0 %
Test CRC BE0CD6CE
Copy CRC BE0CD6CE
Track not present in AccurateRip database
Copy OK None of the tracks are present in the AccurateRip database

No errors occurred

End of status report

==== Log checksum BA6E7D7FCBF95A0DCBECB6026F1B26EBE8D2A945BB9BFF05D42BD6EC59F162FA ====


CD 3: Live At Montreux 1985 (76:07) (July 15, 1985; Montreux International Jazz Festival)

01-Scuttle Buttin' (3:14)
02-Say What! (4:44)
03-Ain't Gone 'N' Give Up On Love (6:24)
04-Pride And Joy (5:09)
05-Mary Had A Little Lamb (4:27)
06-Tin Pan Alley (aka Roughest Place In Town) (13:18)
07-Voodoo Chile (Slight Return) (10:50)
08-Texas Flood (7:37)
09-Life Without You (9:03)
10-Gone Home (3:53)
11-Couldn't Stand The Weather (7:28)

Originally released as Epic/Legacy 86151, 2001 / Peak chart position: #178

EAC LOG
Exact Audio Copy V1.0 beta 3 from 29. August 2011

EAC extraction logfile from 29. October 2014, 12:54

Stevie Ray Vaughan / Live At Montreux 1985

Used drive : TSSTcorpCDDVDW SH-S223Q Adapter: 1 ID: 0

Read mode : Secure
Utilize accurate stream : Yes
Defeat audio cache : Yes
Make use of C2 pointers : No

Read offset correction : 6
Overread into Lead-In and Lead-Out : No
Fill up missing offset samples with silence : Yes
Delete leading and trailing silent blocks : No
Null samples used in CRC calculations : Yes
Used interface : Native Win32 interface for Win NT & 2000
Gap handling : Appended to previous track

Used output format : User Defined Encoder
Selected bitrate : 1024 kBit/s
Quality : Low
Add ID3 tag : No
Command line compressor : C:Program FilesExact Audio CopyFLACFLAC.EXE
Additional command line options : -8 -V -T "ARTIST=%artist%" -T "TITLE=%title%" -T "ALBUM=%albumtitle%" -T "DATE=%year%" -T "TRACKNUMBER=%tracknr%" -T "GENRE=%genre%" -T "COMMENT=%comment%" -T "BAND=%albuminterpret%" -T "ALBUMARTIST=%albuminterpret%" -T "COMPOSER=%composer%" %haslyrics%--tag-from-file=LYRICS="%lyricsfile%"%haslyrics% -T "DISCNUMBER=%cdnumber%" -T "TOTALDISCS=%totalcds%" -T "TOTALTRACKS=%numtracks%" %hascover%--picture="%coverfile%"%hascover% %source% -o %dest% TOC of the extracted CD

Track | Start | Length | Start sector | End sector
---------------------------------------------------------
1 | 0:00.00 | 3:14.27 | 0 | 14576
2 | 3:14.27 | 4:44.50 | 14577 | 35926
3 | 7:59.02 | 6:24.38 | 35927 | 64764
4 | 14:23.40 | 5:09.62 | 64765 | 88001
5 | 19:33.27 | 4:27.13 | 88002 | 108039
6 | 24:00.40 | 13:18.35 | 108040 | 167924
7 | 37:19.00 | 10:50.60 | 167925 | 216734
8 | 48:09.60 | 7:37.00 | 216735 | 251009
9 | 55:46.60 | 9:03.12 | 251010 | 291746
10 | 64:49.72 | 3:53.15 | 291747 | 309236
11 | 68:43.12 | 7:28.58 | 309237 | 342894 Track 1

Filename C:Documents and SettingsJamesMy DocumentsMy Torrentssrv2014-complete_epic_recordings-12cd.flac16CD03-Live At Montreux 19851 Track01.wav

Pre-gap length 0:00:02.00

Peak level 97.8 %
Extraction speed 2.8 X
Track quality 100.0 %
Test CRC C3D99BDE
Copy CRC C3D99BDE
Track not present in AccurateRip database
Copy OK

Track 2

Filename C:Documents and SettingsJamesMy DocumentsMy Torrentssrv2014-complete_epic_recordings-12cd.flac16CD03-Live At Montreux 19852 Track02.wav

Peak level 97.8 %
Extraction speed 3.2 X
Track quality 100.0 %
Test CRC 7F8E3C5E
Copy CRC 7F8E3C5E
Track not present in AccurateRip database
Copy OK

Track 3

Filename C:Documents and SettingsJamesMy DocumentsMy Torrentssrv2014-complete_epic_recordings-12cd.flac16CD03-Live At Montreux 19853 Track03.wav

Peak level 99.8 %
Extraction speed 3.7 X
Track quality 100.0 %
Test CRC 95BEA12D
Copy CRC 95BEA12D
Track not present in AccurateRip database
Copy OK

Track 4

Filename C:Documents and SettingsJamesMy DocumentsMy Torrentssrv2014-complete_epic_recordings-12cd.flac16CD03-Live At Montreux 19854 Track04.wav

Peak level 99.8 %
Extraction speed 3.9 X
Track quality 100.0 %
Test CRC CCED8F4C
Copy CRC CCED8F4C
Track not present in AccurateRip database
Copy OK

Track 5

Filename C:Documents and SettingsJamesMy DocumentsMy Torrentssrv2014-complete_epic_recordings-12cd.flac16CD03-Live At Montreux 19855 Track05.wav

Peak level 96.7 %
Extraction speed 4.1 X
Track quality 100.0 %
Test CRC BB90EBDA
Copy CRC BB90EBDA
Track not present in AccurateRip database
Copy OK

Track 6

Filename C:Documents and SettingsJamesMy DocumentsMy Torrentssrv2014-complete_epic_recordings-12cd.flac16CD03-Live At Montreux 19856 Track06.wav

Peak level 100.0 %
Extraction speed 4.5 X
Track quality 99.9 %
Test CRC D3BB33E6
Copy CRC D3BB33E6
Track not present in AccurateRip database
Copy OK

Track 7

Filename C:Documents and SettingsJamesMy DocumentsMy Torrentssrv2014-complete_epic_recordings-12cd.flac16CD03-Live At Montreux 19857 Track07.wav

Peak level 99.8 %
Extraction speed 5.3 X
Track quality 100.0 %
Test CRC AF51D8DF
Copy CRC AF51D8DF
Track not present in AccurateRip database
Copy OK

Track 8

Filename C:Documents and SettingsJamesMy DocumentsMy Torrentssrv2014-complete_epic_recordings-12cd.flac16CD03-Live At Montreux 19858 Track08.wav

Peak level 100.0 %
Extraction speed 5.5 X
Track quality 100.0 %
Test CRC E25F8777
Copy CRC E25F8777
Track not present in AccurateRip database
Copy OK

Track 9

Filename C:Documents and SettingsJamesMy DocumentsMy Torrentssrv2014-complete_epic_recordings-12cd.flac16CD03-Live At Montreux 19859 Track09.wav

Peak level 99.8 %
Extraction speed 3.9 X
Track quality 99.9 %
Test CRC 3B929BD1
Copy CRC 3B929BD1
Track not present in AccurateRip database
Copy OK

Track 10

Filename C:Documents and SettingsJamesMy DocumentsMy Torrentssrv2014-complete_epic_recordings-12cd.flac16CD03-Live At Montreux 198510 Track10.wav

Peak level 99.8 %
Extraction speed 2.1 X
Track quality 99.8 %
Test CRC 6F671009
Copy CRC 6F671009
Track not present in AccurateRip database
Copy OK

Track 11

Filename C:Documents and SettingsJamesMy DocumentsMy Torrentssrv2014-complete_epic_recordings-12cd.flac16CD03-Live At Montreux 198511 Track11.wav

Peak level 99.8 %
Extraction speed 4.0 X
Track quality 100.0 %
Test CRC E8FECBFC
Copy CRC E8FECBFC
Track not present in AccurateRip database
Copy OK None of the tracks are present in the AccurateRip database

No errors occurred

End of status report

==== Log checksum 5A1DB0E59D08A3C3BE3A89F4378516D983D2A56C56689E5D5330CF3F182730BB ====


CD 4: Texas Flood (1983) (38:52)

01-Love Struck Baby (2:24)
02-Pride And Joy (3:40)
03-Texas Flood (5:22)
04-Tell Me (2:49)
05-Testify (3:23)
06-Rude Mood (4:40)
07-Mary Had A Little Lamb (2:47)
08-Dirty Pool (5:03)
09-I'm Cryin' (3:47)
10-Lenny (4:57)

Produced by Stevie Ray Vaughan, Richard Mullen and Double Trouble / Executive Producer John Hammond
Originally released as Epic 38734, 1983 / Peak chart position: #38

EAC LOG
Exact Audio Copy V1.0 beta 3 from 29. August 2011

EAC extraction logfile from 29. October 2014, 13:19

Stevie Ray Vaughan / Texas Flood

Used drive : TSSTcorpCDDVDW SH-S223Q Adapter: 1 ID: 0

Read mode : Secure
Utilize accurate stream : Yes
Defeat audio cache : Yes
Make use of C2 pointers : No

Read offset correction : 6
Overread into Lead-In and Lead-Out : No
Fill up missing offset samples with silence : Yes
Delete leading and trailing silent blocks : No
Null samples used in CRC calculations : Yes
Used interface : Native Win32 interface for Win NT & 2000
Gap handling : Appended to previous track

Used output format : User Defined Encoder
Selected bitrate : 1024 kBit/s
Quality : Low
Add ID3 tag : No
Command line compressor : C:Program FilesExact Audio CopyFLACFLAC.EXE
Additional command line options : -8 -V -T "ARTIST=%artist%" -T "TITLE=%title%" -T "ALBUM=%albumtitle%" -T "DATE=%year%" -T "TRACKNUMBER=%tracknr%" -T "GENRE=%genre%" -T "COMMENT=%comment%" -T "BAND=%albuminterpret%" -T "ALBUMARTIST=%albuminterpret%" -T "COMPOSER=%composer%" %haslyrics%--tag-from-file=LYRICS="%lyricsfile%"%haslyrics% -T "DISCNUMBER=%cdnumber%" -T "TOTALDISCS=%totalcds%" -T "TOTALTRACKS=%numtracks%" %hascover%--picture="%coverfile%"%hascover% %source% -o %dest% TOC of the extracted CD

Track | Start | Length | Start sector | End sector
---------------------------------------------------------
1 | 0:00.00 | 2:24.00 | 0 | 10799
2 | 2:24.00 | 3:40.45 | 10800 | 27344
3 | 6:04.45 | 5:22.00 | 27345 | 51494
4 | 11:26.45 | 2:49.13 | 51495 | 64182
5 | 14:15.58 | 3:23.01 | 64183 | 79408
6 | 17:38.59 | 4:40.43 | 79409 | 100451
7 | 22:19.27 | 2:47.43 | 100452 | 113019
8 | 25:06.70 | 5:03.04 | 113020 | 135748
9 | 30:09.74 | 3:47.42 | 135749 | 152815
10 | 33:57.41 | 4:57.22 | 152816 | 175112 Track 1

Filename C:Documents and SettingsJamesMy DocumentsMy Torrentssrv2014-complete_epic_recordings-12cd.flac16CD04-Texas Flood 19831 Track01.wav

Pre-gap length 0:00:02.00

Peak level 85.4 %
Extraction speed 4.3 X
Track quality 100.0 %
Test CRC B8B806B6
Copy CRC B8B806B6
Track not present in AccurateRip database
Copy OK

Track 2

Filename C:Documents and SettingsJamesMy DocumentsMy Torrentssrv2014-complete_epic_recordings-12cd.flac16CD04-Texas Flood 19832 Track02.wav

Peak level 72.4 %
Extraction speed 5.0 X
Track quality 100.0 %
Test CRC A76CCC8C
Copy CRC A76CCC8C
Track not present in AccurateRip database
Copy OK

Track 3

Filename C:Documents and SettingsJamesMy DocumentsMy Torrentssrv2014-complete_epic_recordings-12cd.flac16CD04-Texas Flood 19833 Track03.wav

Peak level 85.8 %
Extraction speed 4.9 X
Track quality 99.9 %
Test CRC BDD9EDC2
Copy CRC BDD9EDC2
Track not present in AccurateRip database
Copy OK

Track 4

Filename C:Documents and SettingsJamesMy DocumentsMy Torrentssrv2014-complete_epic_recordings-12cd.flac16CD04-Texas Flood 19834 Track04.wav

Peak level 78.3 %
Extraction speed 5.5 X
Track quality 100.0 %
Test CRC 144064DB
Copy CRC 144064DB
Track not present in AccurateRip database
Copy OK

Track 5

Filename C:Documents and SettingsJamesMy DocumentsMy Torrentssrv2014-complete_epic_recordings-12cd.flac16CD04-Texas Flood 19835 Track05.wav

Peak level 70.2 %
Extraction speed 6.0 X
Track quality 100.0 %
Test CRC C6F82E5D
Copy CRC C6F82E5D
Track not present in AccurateRip database
Copy OK

Track 6

Filename C:Documents and SettingsJamesMy DocumentsMy Torrentssrv2014-complete_epic_recordings-12cd.flac16CD04-Texas Flood 19836 Track06.wav

Peak level 85.9 %
Extraction speed 6.6 X
Track quality 100.0 %
Test CRC 13DB4507
Copy CRC 13DB4507
Track not present in AccurateRip database
Copy OK

Track 7

Filename C:Documents and SettingsJamesMy DocumentsMy Torrentssrv2014-complete_epic_recordings-12cd.flac16CD04-Texas Flood 19837 Track07.wav

Peak level 90.1 %
Extraction speed 6.3 X
Track quality 100.0 %
Test CRC 2926B432
Copy CRC 2926B432
Track not present in AccurateRip database
Copy OK

Track 8

Filename C:Documents and SettingsJamesMy DocumentsMy Torrentssrv2014-complete_epic_recordings-12cd.flac16CD04-Texas Flood 19838 Track08.wav

Peak level 77.4 %
Extraction speed 7.2 X
Track quality 100.0 %
Test CRC C5E0744D
Copy CRC C5E0744D
Track not present in AccurateRip database
Copy OK

Track 9

Filename C:Documents and SettingsJamesMy DocumentsMy Torrentssrv2014-complete_epic_recordings-12cd.flac16CD04-Texas Flood 19839 Track09.wav

Peak level 86.1 %
Extraction speed 7.3 X
Track quality 100.0 %
Test CRC E60CB088
Copy CRC E60CB088
Track not present in AccurateRip database
Copy OK

Track 10

Filename C:Documents and SettingsJamesMy DocumentsMy Torrentssrv2014-complete_epic_recordings-12cd.flac16CD04-Texas Flood 198310 Track10.wav

Peak level 74.2 %
Extraction speed 7.8 X
Track quality 100.0 %
Test CRC A87F0ADB
Copy CRC A87F0ADB
Track not present in AccurateRip database
Copy OK None of the tracks are present in the AccurateRip database

No errors occurred

End of status report

==== Log checksum 0D637EC411CA3085B0695EF37AF60F36128270F20A48CA30A941F9551D0EEDCD ====


CD 5: A Legend In The Making—Live At The El Mocambo (76:23)
(recorded Toronto, Canada, July 20, 1983, originally released for radio broadcast only)

01-Testify (3:27)
02-So Excited (4:08)
03-Voodoo Child (Slight Return) (6:44)
04-Pride And Joy (4:27)
05-Tell Me (3:04)
06-Mary Had A Little Lamb (3:15)
07-Texas Flood (9:49)
08-Love Struck Baby (2:46)
09-You'll Be Mine (4:12)
10-Hug You, Squeeze You (3:49)
11-Little Wing/Third Stone From The Sun (14:21)
12-Lenny (8:54)
13-Wham! (3:31)
14-Rude Mood (3:56)

Originally released for radio broadcast only in 1983

EAC LOG
Exact Audio Copy V1.0 beta 3 from 29. August 2011

EAC extraction logfile from 29. October 2014, 21:19

Stevie Ray Vaughan / A Legend In The Making

Used drive : TSSTcorpCDDVDW SH-S223Q Adapter: 1 ID: 0

Read mode : Secure
Utilize accurate stream : Yes
Defeat audio cache : Yes
Make use of C2 pointers : No

Read offset correction : 6
Overread into Lead-In and Lead-Out : No
Fill up missing offset samples with silence : Yes
Delete leading and trailing silent blocks : No
Null samples used in CRC calculations : Yes
Used interface : Native Win32 interface for Win NT & 2000
Gap handling : Appended to previous track

Used output format : User Defined Encoder
Selected bitrate : 1024 kBit/s
Quality : Low
Add ID3 tag : No
Command line compressor : C:Program FilesExact Audio CopyFLACFLAC.EXE
Additional command line options : -8 -V -T "ARTIST=%artist%" -T "TITLE=%title%" -T "ALBUM=%albumtitle%" -T "DATE=%year%" -T "TRACKNUMBER=%tracknr%" -T "GENRE=%genre%" -T "COMMENT=%comment%" -T "BAND=%albuminterpret%" -T "ALBUMARTIST=%albuminterpret%" -T "COMPOSER=%composer%" %haslyrics%--tag-from-file=LYRICS="%lyricsfile%"%haslyrics% -T "DISCNUMBER=%cdnumber%" -T "TOTALDISCS=%totalcds%" -T "TOTALTRACKS=%numtracks%" %hascover%--picture="%coverfile%"%hascover% %source% -o %dest% TOC of the extracted CD

Track | Start | Length | Start sector | End sector
---------------------------------------------------------
1 | 0:00.00 | 3:27.69 | 0 | 15593
2 | 3:27.69 | 4:08.33 | 15594 | 34226
3 | 7:36.27 | 6:44.02 | 34227 | 64528
4 | 14:20.29 | 4:27.30 | 64529 | 84583
5 | 18:47.59 | 3:04.33 | 84584 | 98416
6 | 21:52.17 | 3:15.32 | 98417 | 113073
7 | 25:07.49 | 9:49.02 | 113074 | 157250
8 | 34:56.51 | 2:46.44 | 157251 | 169744
9 | 37:43.20 | 4:12.51 | 169745 | 188695
10 | 41:55.71 | 3:49.36 | 188696 | 205906
11 | 45:45.32 | 14:21.23 | 205907 | 270504
12 | 60:06.55 | 8:54.23 | 270505 | 310577
13 | 69:01.03 | 3:31.12 | 310578 | 326414
14 | 72:32.15 | 3:56.07 | 326415 | 344121 Track 1

Filename C:Documents and SettingsJamesMy DocumentsMy Torrentssrv2014-complete_epic_recordings-12cd.flac16CD05-A Legend In The Making-Live At The El Mocambo 19831 Track01.wav

Pre-gap length 0:00:02.00

Peak level 94.7 %
Extraction speed 4.7 X
Track quality 100.0 %
Test CRC 907C78A5
Copy CRC 907C78A5
Track not present in AccurateRip database
Copy OK

Track 2

Filename C:Documents and SettingsJamesMy DocumentsMy Torrentssrv2014-complete_epic_recordings-12cd.flac16CD05-A Legend In The Making-Live At The El Mocambo 19832 Track02.wav

Peak level 96.0 %
Extraction speed 5.2 X
Track quality 100.0 %
Test CRC BE3C527A
Copy CRC BE3C527A
Track not present in AccurateRip database
Copy OK

Track 3

Filename C:Documents and SettingsJamesMy DocumentsMy Torrentssrv2014-complete_epic_recordings-12cd.flac16CD05-A Legend In The Making-Live At The El Mocambo 19833 Track03.wav

Peak level 98.6 %
Extraction speed 5.3 X
Track quality 99.9 %
Test CRC 6DCD0E53
Copy CRC 6DCD0E53
Track not present in AccurateRip database
Copy OK

Track 4

Filename C:Documents and SettingsJamesMy DocumentsMy Torrentssrv2014-complete_epic_recordings-12cd.flac16CD05-A Legend In The Making-Live At The El Mocambo 19834 Track04.wav

Peak level 91.9 %
Extraction speed 6.3 X
Track quality 100.0 %
Test CRC 214ED828
Copy CRC 214ED828
Track not present in AccurateRip database
Copy OK

Track 5

Filename C:Documents and SettingsJamesMy DocumentsMy Torrentssrv2014-complete_epic_recordings-12cd.flac16CD05-A Legend In The Making-Live At The El Mocambo 19835 Track05.wav

Peak level 94.9 %
Extraction speed 6.2 X
Track quality 100.0 %
Test CRC 4C786D5B
Copy CRC 4C786D5B
Track not present in AccurateRip database
Copy OK

Track 6

Filename C:Documents and SettingsJamesMy DocumentsMy Torrentssrv2014-complete_epic_recordings-12cd.flac16CD05-A Legend In The Making-Live At The El Mocambo 19836 Track06.wav

Peak level 95.1 %
Extraction speed 6.5 X
Track quality 100.0 %
Test CRC C328BD27
Copy CRC C328BD27
Track not present in AccurateRip database
Copy OK

Track 7

Filename C:Documents and SettingsJamesMy DocumentsMy Torrentssrv2014-complete_epic_recordings-12cd.flac16CD05-A Legend In The Making-Live At The El Mocambo 19837 Track07.wav

Peak level 98.0 %
Extraction speed 7.8 X
Track quality 100.0 %
Test CRC 4B2970C7
Copy CRC 4B2970C7
Track not present in AccurateRip database
Copy OK

Track 8

Filename C:Documents and SettingsJamesMy DocumentsMy Torrentssrv2014-complete_epic_recordings-12cd.flac16CD05-A Legend In The Making-Live At The El Mocambo 19838 Track08.wav

Peak level 94.8 %
Extraction speed 7.0 X
Track quality 100.0 %
Test CRC 813BB04D
Copy CRC 813BB04D
Track not present in AccurateRip database
Copy OK

Track 9

Filename C:Documents and SettingsJamesMy DocumentsMy Torrentssrv2014-complete_epic_recordings-12cd.flac16CD05-A Legend In The Making-Live At The El Mocambo 19839 Track09.wav

Peak level 89.8 %
Extraction speed 6.3 X
Track quality 99.9 %
Test CRC FC6F8038
Copy CRC FC6F8038
Track not present in AccurateRip database
Copy OK

Track 10

Filename C:Documents and SettingsJamesMy DocumentsMy Torrentssrv2014-complete_epic_recordings-12cd.flac16CD05-A Legend In The Making-Live At The El Mocambo 198310 Track10.wav

Peak level 86.0 %
Extraction speed 7.9 X
Track quality 100.0 %
Test CRC D6189EA7
Copy CRC D6189EA7
Track not present in AccurateRip database
Copy OK

Track 11

Filename C:Documents and SettingsJamesMy DocumentsMy Torrentssrv2014-complete_epic_recordings-12cd.flac16CD05-A Legend In The Making-Live At The El Mocambo 198311 Track11.wav

Peak level 95.9 %
Extraction speed 9.1 X
Track quality 100.0 %
Test CRC EE35EEBD
Copy CRC EE35EEBD
Track not present in AccurateRip database
Copy OK

Track 12

Filename C:Documents and SettingsJamesMy DocumentsMy Torrentssrv2014-complete_epic_recordings-12cd.flac16CD05-A Legend In The Making-Live At The El Mocambo 198312 Track12.wav

Peak level 84.3 %
Extraction speed 9.8 X
Track quality 100.0 %
Test CRC 62A017EC
Copy CRC 62A017EC
Track not present in AccurateRip database
Copy OK

Track 13

Filename C:Documents and SettingsJamesMy DocumentsMy Torrentssrv2014-complete_epic_recordings-12cd.flac16CD05-A Legend In The Making-Live At The El Mocambo 198313 Track13.wav

Peak level 94.6 %
Extraction speed 7.1 X
Track quality 99.9 %
Test CRC BDE7C439
Copy CRC BDE7C439
Track not present in AccurateRip database
Copy OK

Track 14

Filename C:Documents and SettingsJamesMy DocumentsMy Torrentssrv2014-complete_epic_recordings-12cd.flac16CD05-A Legend In The Making-Live At The El Mocambo 198314 Track14.wav

Peak level 94.9 %
Extraction speed 9.5 X
Track quality 100.0 %
Test CRC 3FF07F66
Copy CRC 3FF07F66
Track not present in AccurateRip database
Copy OK None of the tracks are present in the AccurateRip database

No errors occurred

End of status report

==== Log checksum D88A064D10D611C676D059A6E7879C1F1A06EF47EAAE49E0ED9F27E5ADD41FB8 ====


CD 6: Couldn't Stand The Weather (1984) (38:07)

01-Scuttle Buttin' (1:51)
02-Couldn't Stand The Weather (4:41)
03-The Things (That) I Used To Do (4:55)
04-Voodoo Child (Slight Return) (7:59)
05-Cold Shot (4:01)
06-Tin Pan Alley (aka Roughest Place In Town) (9:12)
07-Honey Bee (2:43)
08-Stang's Swang (2:45)

Produced by Stevie Ray Vaughan, Chris Layton, Tommy Shannon, Richard Mullen, and Jim Capfer
Executive Producer: John Hammond
Originally released as Epic 39304, 1984 / Peak chart position: #31

EAC LOG
Exact Audio Copy V1.0 beta 3 from 29. August 2011

EAC extraction logfile from 29. October 2014, 21:35

Stevie Ray Vaughan / Couldn't Stand The Weather

Used drive : TSSTcorpCDDVDW SH-S223Q Adapter: 1 ID: 0

Read mode : Secure
Utilize accurate stream : Yes
Defeat audio cache : Yes
Make use of C2 pointers : No

Read offset correction : 6
Overread into Lead-In and Lead-Out : No
Fill up missing offset samples with silence : Yes
Delete leading and trailing silent blocks : No
Null samples used in CRC calculations : Yes
Used interface : Native Win32 interface for Win NT & 2000
Gap handling : Appended to previous track

Used output format : User Defined Encoder
Selected bitrate : 1024 kBit/s
Quality : Low
Add ID3 tag : No
Command line compressor : C:Program FilesExact Audio CopyFLACFLAC.EXE
Additional command line options : -8 -V -T "ARTIST=%artist%" -T "TITLE=%title%" -T "ALBUM=%albumtitle%" -T "DATE=%year%" -T "TRACKNUMBER=%tracknr%" -T "GENRE=%genre%" -T "COMMENT=%comment%" -T "BAND=%albuminterpret%" -T "ALBUMARTIST=%albuminterpret%" -T "COMPOSER=%composer%" %haslyrics%--tag-from-file=LYRICS="%lyricsfile%"%haslyrics% -T "DISCNUMBER=%cdnumber%" -T "TOTALDISCS=%totalcds%" -T "TOTALTRACKS=%numtracks%" %hascover%--picture="%coverfile%"%hascover% %source% -o %dest% TOC of the extracted CD

Track | Start | Length | Start sector | End sector
---------------------------------------------------------
1 | 0:00.00 | 1:51.02 | 0 | 8326
2 | 1:51.02 | 4:41.44 | 8327 | 29445
3 | 6:32.46 | 4:55.65 | 29446 | 51635
4 | 11:28.36 | 7:59.73 | 51636 | 87633
5 | 19:28.34 | 4:01.53 | 87634 | 105761
6 | 23:30.12 | 9:12.35 | 105762 | 147196
7 | 32:42.47 | 2:43.24 | 147197 | 159445
8 | 35:25.71 | 2:45.29 | 159446 | 171849 Track 1

Filename C:Documents and SettingsJamesMy DocumentsMy Torrentssrv2014-complete_epic_recordings-12cd.flac16CD06-Couldn't Stand The Weather 19841 Track01.wav

Pre-gap length 0:00:02.00

Peak level 89.3 %
Extraction speed 4.1 X
Track quality 100.0 %
Test CRC CBC1B23A
Copy CRC CBC1B23A
Track not present in AccurateRip database
Copy OK

Track 2

Filename C:Documents and SettingsJamesMy DocumentsMy Torrentssrv2014-complete_epic_recordings-12cd.flac16CD06-Couldn't Stand The Weather 19842 Track02.wav

Peak level 92.0 %
Extraction speed 5.2 X
Track quality 100.0 %
Test CRC 987C6273
Copy CRC 987C6273
Track not present in AccurateRip database
Copy OK

Track 3

Filename C:Documents and SettingsJamesMy DocumentsMy Torrentssrv2014-complete_epic_recordings-12cd.flac16CD06-Couldn't Stand The Weather 19843 Track03.wav

Peak level 83.5 %
Extraction speed 5.7 X
Track quality 100.0 %
Test CRC 57901910
Copy CRC 57901910
Track not present in AccurateRip database
Copy OK

Track 4

Filename C:Documents and SettingsJamesMy DocumentsMy Torrentssrv2014-complete_epic_recordings-12cd.flac16CD06-Couldn't Stand The Weather 19844 Track04.wav

Peak level 79.6 %
Extraction speed 6.5 X
Track quality 100.0 %
Test CRC C4EF8F8B
Copy CRC C4EF8F8B
Track not present in AccurateRip database
Copy OK

Track 5

Filename C:Documents and SettingsJamesMy DocumentsMy Torrentssrv2014-complete_epic_recordings-12cd.flac16CD06-Couldn't Stand The Weather 19845 Track05.wav

Peak level 74.7 %
Extraction speed 5.3 X
Track quality 99.9 %
Test CRC 00C9D279
Copy CRC 00C9D279
Track not present in AccurateRip database
Copy OK

Track 6

Filename C:Documents and SettingsJamesMy DocumentsMy Torrentssrv2014-complete_epic_recordings-12cd.flac16CD06-Couldn't Stand The Weather 19846 Track06.wav

Peak level 75.8 %
Extraction speed 7.6 X
Track quality 100.0 %
Test CRC A8A90E36
Copy CRC A8A90E36
Track not present in AccurateRip database
Copy OK

Track 7

Filename C:Documents and SettingsJamesMy DocumentsMy Torrentssrv2014-complete_epic_recordings-12cd.flac16CD06-Couldn't Stand The Weather 19847 Track07.wav

Peak level 78.3 %
Extraction speed 5.2 X
Track quality 99.9 %
Test CRC C89D0D24
Copy CRC C89D0D24
Track not present in AccurateRip database
Copy OK

Track 8

Filename C:Documents and SettingsJamesMy DocumentsMy Torrentssrv2014-complete_epic_recordings-12cd.flac16CD06-Couldn't Stand The Weather 19848 Track08.wav

Peak level 69.5 %
Extraction speed 7.1 X
Track quality 100.0 %
Test CRC 88EA46D2
Copy CRC 88EA46D2
Track not present in AccurateRip database
Copy OK None of the tracks are present in the AccurateRip database

No errors occurred

End of status report

==== Log checksum DAEFA48DA2F5134BA06126CC8EA23BF24FB68D48C66F0F4100823D9D02F36744 ====


CD 7: Live At Carnegie Hall (61:28)
(Recorded October 4, 1984; New York City)

01-Intro--Ken Dashow/John Hammond (2:09)
02-Scuttle Buttin' (2:43)
03-Testify (5:20)
04-Love Struck Baby (3:05)
05-Honey Bee (3:05)
06-Cold Shot (4:45)
07-Letter To My Girlfriend (3:08)
08-Dirty Pool (6:40)
09-Pride And Joy (4:48)
10-The Things That I Used To Do (5:26)
11-C.O.D. (5:32)
12-Iced Over (5:11)
13-Lenny (7:14)
14-Rude Mood (2:22)

Produced by Stevie Ray Vaughan
Originally released as Epic 68163, 1997 / Peak chart position: #40

EAC LOG
Exact Audio Copy V1.0 beta 3 from 29. August 2011

EAC extraction logfile from 29. October 2014, 21:35

Stevie Ray Vaughan / Couldn't Stand The Weather

Used drive : TSSTcorpCDDVDW SH-S223Q Adapter: 1 ID: 0

Read mode : Secure
Utilize accurate stream : Yes
Defeat audio cache : Yes
Make use of C2 pointers : No

Read offset correction : 6
Overread into Lead-In and Lead-Out : No
Fill up missing offset samples with silence : Yes
Delete leading and trailing silent blocks : No
Null samples used in CRC calculations : Yes
Used interface : Native Win32 interface for Win NT & 2000
Gap handling : Appended to previous track

Used output format : User Defined Encoder
Selected bitrate : 1024 kBit/s
Quality : Low
Add ID3 tag : No
Command line compressor : C:Program FilesExact Audio CopyFLACFLAC.EXE
Additional command line options : -8 -V -T "ARTIST=%artist%" -T "TITLE=%title%" -T "ALBUM=%albumtitle%" -T "DATE=%year%" -T "TRACKNUMBER=%tracknr%" -T "GENRE=%genre%" -T "COMMENT=%comment%" -T "BAND=%albuminterpret%" -T "ALBUMARTIST=%albuminterpret%" -T "COMPOSER=%composer%" %haslyrics%--tag-from-file=LYRICS="%lyricsfile%"%haslyrics% -T "DISCNUMBER=%cdnumber%" -T "TOTALDISCS=%totalcds%" -T "TOTALTRACKS=%numtracks%" %hascover%--picture="%coverfile%"%hascover% %source% -o %dest% TOC of the extracted CD

Track | Start | Length | Start sector | End sector
---------------------------------------------------------
1 | 0:00.00 | 1:51.02 | 0 | 8326
2 | 1:51.02 | 4:41.44 | 8327 | 29445
3 | 6:32.46 | 4:55.65 | 29446 | 51635
4 | 11:28.36 | 7:59.73 | 51636 | 87633
5 | 19:28.34 | 4:01.53 | 87634 | 105761
6 | 23:30.12 | 9:12.35 | 105762 | 147196
7 | 32:42.47 | 2:43.24 | 147197 | 159445
8 | 35:25.71 | 2:45.29 | 159446 | 171849 Track 1

Filename C:Documents and SettingsJamesMy DocumentsMy Torrentssrv2014-complete_epic_recordings-12cd.flac16CD06-Couldn't Stand The Weather 19841 Track01.wav

Pre-gap length 0:00:02.00

Peak level 89.3 %
Extraction speed 4.1 X
Track quality 100.0 %
Test CRC CBC1B23A
Copy CRC CBC1B23A
Track not present in AccurateRip database
Copy OK

Track 2

Filename C:Documents and SettingsJamesMy DocumentsMy Torrentssrv2014-complete_epic_recordings-12cd.flac16CD06-Couldn't Stand The Weather 19842 Track02.wav

Peak level 92.0 %
Extraction speed 5.2 X
Track quality 100.0 %
Test CRC 987C6273
Copy CRC 987C6273
Track not present in AccurateRip database
Copy OK

Track 3

Filename C:Documents and SettingsJamesMy DocumentsMy Torrentssrv2014-complete_epic_recordings-12cd.flac16CD06-Couldn't Stand The Weather 19843 Track03.wav

Peak level 83.5 %
Extraction speed 5.7 X
Track quality 100.0 %
Test CRC 57901910
Copy CRC 57901910
Track not present in AccurateRip database
Copy OK

Track 4

Filename C:Documents and SettingsJamesMy DocumentsMy Torrentssrv2014-complete_epic_recordings-12cd.flac16CD06-Couldn't Stand The Weather 19844 Track04.wav

Peak level 79.6 %
Extraction speed 6.5 X
Track quality 100.0 %
Test CRC C4EF8F8B
Copy CRC C4EF8F8B
Track not present in AccurateRip database
Copy OK

Track 5

Filename C:Documents and SettingsJamesMy DocumentsMy Torrentssrv2014-complete_epic_recordings-12cd.flac16CD06-Couldn't Stand The Weather 19845 Track05.wav

Peak level 74.7 %
Extraction speed 5.3 X
Track quality 99.9 %
Test CRC 00C9D279
Copy CRC 00C9D279
Track not present in AccurateRip database
Copy OK

Track 6

Filename C:Documents and SettingsJamesMy DocumentsMy Torrentssrv2014-complete_epic_recordings-12cd.flac16CD06-Couldn't Stand The Weather 19846 Track06.wav

Peak level 75.8 %
Extraction speed 7.6 X
Track quality 100.0 %
Test CRC A8A90E36
Copy CRC A8A90E36
Track not present in AccurateRip database
Copy OK

Track 7

Filename C:Documents and SettingsJamesMy DocumentsMy Torrentssrv2014-complete_epic_recordings-12cd.flac16CD06-Couldn't Stand The Weather 19847 Track07.wav

Peak level 78.3 %
Extraction speed 5.2 X
Track quality 99.9 %
Test CRC C89D0D24
Copy CRC C89D0D24
Track not present in AccurateRip database
Copy OK

Track 8

Filename C:Documents and SettingsJamesMy DocumentsMy Torrentssrv2014-complete_epic_recordings-12cd.flac16CD06-Couldn't Stand The Weather 19848 Track08.wav

Peak level 69.5 %
Extraction speed 7.1 X
Track quality 100.0 %
Test CRC 88EA46D2
Copy CRC 88EA46D2
Track not present in AccurateRip database
Copy OK None of the tracks are present in the AccurateRip database

No errors occurred

End of status report

==== Log checksum DAEFA48DA2F5134BA06126CC8EA23BF24FB68D48C66F0F4100823D9D02F36744 ====


CD 8: Soul To Soul (1985) (40:02)

01-Say What! (5:23)
02-Lookin' Out The Window (2:47)
03-Look At Little Sister (3:07)
04-Ain't Gone 'N' Give Up On Love (6:07)
05-Gone Home (3:06)
06-Change It (3:57)
07-You'll Be Mine (3:44)
08-Empty Arms (3:02)
09-Come On (Part III) (4:31)
10-Life Without You (4:18)

Produced by Stevie Ray Vaughan, Double Trouble and Richard Mullen
Executive Producer: John Hammond
Originally released as Epic 40036, 1985 / Peak chart position: #34

EAC LOG
Exact Audio Copy V1.0 beta 3 from 29. August 2011

EAC extraction logfile from 29. October 2014, 22:06

Stevie Ray Vaughan / Live At Carnegie Hall

Used drive : TSSTcorpCDDVDW SH-S223Q Adapter: 1 ID: 0

Read mode : Secure
Utilize accurate stream : Yes
Defeat audio cache : Yes
Make use of C2 pointers : No

Read offset correction : 6
Overread into Lead-In and Lead-Out : No
Fill up missing offset samples with silence : Yes
Delete leading and trailing silent blocks : No
Null samples used in CRC calculations : Yes
Used interface : Native Win32 interface for Win NT & 2000
Gap handling : Appended to previous track

Used output format : User Defined Encoder
Selected bitrate : 1024 kBit/s
Quality : Low
Add ID3 tag : No
Command line compressor : C:Program FilesExact Audio CopyFLACFLAC.EXE
Additional command line options : -8 -V -T "ARTIST=%artist%" -T "TITLE=%title%" -T "ALBUM=%albumtitle%" -T "DATE=%year%" -T "TRACKNUMBER=%tracknr%" -T "GENRE=%genre%" -T "COMMENT=%comment%" -T "BAND=%albuminterpret%" -T "ALBUMARTIST=%albuminterpret%" -T "COMPOSER=%composer%" %haslyrics%--tag-from-file=LYRICS="%lyricsfile%"%haslyrics% -T "DISCNUMBER=%cdnumber%" -T "TOTALDISCS=%totalcds%" -T "TOTALTRACKS=%numtracks%" %hascover%--picture="%coverfile%"%hascover% %source% -o %dest% TOC of the extracted CD

Track | Start | Length | Start sector | End sector
---------------------------------------------------------
1 | 0:00.00 | 2:09.62 | 0 | 9736
2 | 2:09.62 | 2:43.50 | 9737 | 22011
3 | 4:53.37 | 5:20.48 | 22012 | 46059
4 | 10:14.10 | 3:05.30 | 46060 | 59964
5 | 13:19.40 | 3:05.20 | 59965 | 73859
6 | 16:24.60 | 4:45.12 | 73860 | 95246
7 | 21:09.72 | 3:08.40 | 95247 | 109386
8 | 24:18.37 | 6:40.50 | 109387 | 139436
9 | 30:59.12 | 4:48.28 | 139437 | 161064
10 | 35:47.40 | 5:26.22 | 161065 | 185536
11 | 41:13.62 | 5:32.63 | 185537 | 210499
12 | 46:46.50 | 5:11.15 | 210500 | 233839
13 | 51:57.65 | 7:14.20 | 233840 | 266409
14 | 59:12.10 | 2:22.12 | 266410 | 277071 Track 1

Filename C:Documents and SettingsJamesMy DocumentsMy Torrentssrv2014-complete_epic_recordings-12cd.flac16CD07-Live At Carnegie Hall 19841 Track01.wav

Pre-gap length 0:00:02.00

Peak level 48.5 %
Extraction speed 2.4 X
Track quality 99.9 %
Test CRC 97AE63DE
Copy CRC 97AE63DE
Track not present in AccurateRip database
Copy OK

Track 2

Filename C:Documents and SettingsJamesMy DocumentsMy Torrentssrv2014-complete_epic_recordings-12cd.flac16CD07-Live At Carnegie Hall 19842 Track02.wav

Peak level 97.9 %
Extraction speed 2.8 X
Track quality 99.9 %
Test CRC 8E5216E5
Copy CRC 8E5216E5
Track not present in AccurateRip database
Copy OK

Track 3

Filename C:Documents and SettingsJamesMy DocumentsMy Torrentssrv2014-complete_epic_recordings-12cd.flac16CD07-Live At Carnegie Hall 19843 Track03.wav

Peak level 97.9 %
Extraction speed 4.4 X
Track quality 100.0 %
Test CRC 90169CD3
Copy CRC 90169CD3
Track not present in AccurateRip database
Copy OK

Track 4

Filename C:Documents and SettingsJamesMy DocumentsMy Torrentssrv2014-complete_epic_recordings-12cd.flac16CD07-Live At Carnegie Hall 19844 Track04.wav

Peak level 99.4 %
Extraction speed 4.4 X
Track quality 100.0 %
Test CRC 76A67123
Copy CRC 76A67123
Track not present in AccurateRip database
Copy OK

Track 5

Filename C:Documents and SettingsJamesMy DocumentsMy Torrentssrv2014-complete_epic_recordings-12cd.flac16CD07-Live At Carnegie Hall 19845 Track05.wav

Peak level 97.9 %
Extraction speed 3.5 X
Track quality 99.9 %
Test CRC CC89E2C0
Copy CRC CC89E2C0
Track not present in AccurateRip database
Copy OK

Track 6

Filename C:Documents and SettingsJamesMy DocumentsMy Torrentssrv2014-complete_epic_recordings-12cd.flac16CD07-Live At Carnegie Hall 19846 Track06.wav

Peak level 97.9 %
Extraction speed 4.3 X
Track quality 99.9 %
Test CRC EE5BA872
Copy CRC EE5BA872
Track not present in AccurateRip database
Copy OK

Track 7

Filename C:Documents and SettingsJamesMy DocumentsMy Torrentssrv2014-complete_epic_recordings-12cd.flac16CD07-Live At Carnegie Hall 19847 Track07.wav

Pre-gap length 0:00:01.40

Peak level 97.9 %
Extraction speed 3.9 X
Track quality 99.9 %
Test CRC 9A7F02F7
Copy CRC 9A7F02F7
Track not present in AccurateRip database
Copy OK

Track 8

Filename C:Documents and SettingsJamesMy DocumentsMy Torrentssrv2014-complete_epic_recordings-12cd.flac16CD07-Live At Carnegie Hall 19848 Track08.wav

Peak level 97.9 %
Extraction speed 5.9 X
Track quality 100.0 %
Test CRC 999B9136
Copy CRC 999B9136
Track not present in AccurateRip database
Copy OK

Track 9

Filename C:Documents and SettingsJamesMy DocumentsMy Torrentssrv2014-complete_epic_recordings-12cd.flac16CD07-Live At Carnegie Hall 19849 Track09.wav

Peak level 97.9 %
Extraction speed 6.0 X
Track quality 100.0 %
Test CRC 93874528
Copy CRC 93874528
Track not present in AccurateRip database
Copy OK

Track 10

Filename C:Documents and SettingsJamesMy DocumentsMy Torrentssrv2014-complete_epic_recordings-12cd.flac16CD07-Live At Carnegie Hall 198410 Track10.wav

Peak level 97.9 %
Extraction speed 6.4 X
Track quality 100.0 %
Test CRC CECD34AE
Copy CRC CECD34AE
Track not present in AccurateRip database
Copy OK

Track 11

Filename C:Documents and SettingsJamesMy DocumentsMy Torrentssrv2014-complete_epic_recordings-12cd.flac16CD07-Live At Carnegie Hall 198411 Track11.wav

Peak level 97.9 %
Extraction speed 6.7 X
Track quality 100.0 %
Test CRC 3B1D9BC6
Copy CRC 3B1D9BC6
Track not present in AccurateRip database
Copy OK

Track 12

Filename C:Documents and SettingsJamesMy DocumentsMy Torrentssrv2014-complete_epic_recordings-12cd.flac16CD07-Live At Carnegie Hall 198412 Track12.wav

Peak level 97.9 %
Extraction speed 6.9 X
Track quality 100.0 %
Test CRC BF918DCA
Copy CRC BF918DCA
Track not present in AccurateRip database
Copy OK

Track 13

Filename C:Documents and SettingsJamesMy DocumentsMy Torrentssrv2014-complete_epic_recordings-12cd.flac16CD07-Live At Carnegie Hall 198413 Track13.wav

Peak level 91.3 %
Extraction speed 6.4 X
Track quality 99.9 %
Test CRC 49E0EAB8
Copy CRC 49E0EAB8
Track not present in AccurateRip database
Copy OK

Track 14

Filename C:Documents and SettingsJamesMy DocumentsMy Torrentssrv2014-complete_epic_recordings-12cd.flac16CD07-Live At Carnegie Hall 198414 Track14.wav

Peak level 84.3 %
Extraction speed 5.8 X
Track quality 100.0 %
Test CRC D47E21B3
Copy CRC D47E21B3
Track not present in AccurateRip database
Copy OK None of the tracks are present in the AccurateRip database

No errors occurred

End of status report

==== Log checksum 0FFA216DBC41ED410B801787640499146486F2F917CEB8FB84B1B7CE39A30B51 ====


CD 9: Live Alive (1986) (79:29)
(Recorded July 16, 1985, Montreux International Jazz Festival; July 17-18, 1986,
Austin, Texas; July 19, 1986, Dallas, Texas)

01-Say What! (4:50)
02-Ain't Gone 'N' Give Up On Love (6:24)
03-Pride And Joy (5:04)
04-Mary Had A Little Lamb (4:17)
05-Superstition (4:42)
06-I'm Leaving You (Commit A Crime) (5:34)
07-Cold Shot (5:40)
08-Willie The Wimp (4:39)
09-Look At Little Sister (4:14)
10-Texas Flood (6:29)
11-Voodoo Child (Slight Return) (9:37)
12-Love Struck Baby (3:46)
13-Change It (5:03)
14-Life Without You (9:10)

Produced by Stevie Ray Vaughan and Double Trouble
Originally released as Epic 40511, 1986 / Peak chart position: #52

EAC LOG
Exact Audio Copy V1.0 beta 3 from 29. August 2011

EAC extraction logfile from 29. October 2014, 22:35

Stevie Ray Vaughan / Soul To Soul

Used drive : TSSTcorpCDDVDW SH-S223Q Adapter: 1 ID: 0

Read mode : Secure
Utilize accurate stream : Yes
Defeat audio cache : Yes
Make use of C2 pointers : No

Read offset correction : 6
Overread into Lead-In and Lead-Out : No
Fill up missing offset samples with silence : Yes
Delete leading and trailing silent blocks : No
Null samples used in CRC calculations : Yes
Used interface : Native Win32 interface for Win NT & 2000
Gap handling : Appended to previous track

Used output format : User Defined Encoder
Selected bitrate : 1024 kBit/s
Quality : Low
Add ID3 tag : No
Command line compressor : C:Program FilesExact Audio CopyFLACFLAC.EXE
Additional command line options : -8 -V -T "ARTIST=%artist%" -T "TITLE=%title%" -T "ALBUM=%albumtitle%" -T "DATE=%year%" -T "TRACKNUMBER=%tracknr%" -T "GENRE=%genre%" -T "COMMENT=%comment%" -T "BAND=%albuminterpret%" -T "ALBUMARTIST=%albuminterpret%" -T "COMPOSER=%composer%" %haslyrics%--tag-from-file=LYRICS="%lyricsfile%"%haslyrics% -T "DISCNUMBER=%cdnumber%" -T "TOTALDISCS=%totalcds%" -T "TOTALTRACKS=%numtracks%" %hascover%--picture="%coverfile%"%hascover% %source% -o %dest% TOC of the extracted CD

Track | Start | Length | Start sector | End sector
---------------------------------------------------------
1 | 0:00.00 | 5:23.46 | 0 | 24270
2 | 5:23.46 | 2:47.48 | 24271 | 36843
3 | 8:11.19 | 3:07.20 | 36844 | 50888
4 | 11:18.39 | 6:07.37 | 50889 | 78450
5 | 17:26.01 | 3:06.17 | 78451 | 92417
6 | 20:32.18 | 3:57.48 | 92418 | 110240
7 | 24:29.66 | 3:44.37 | 110241 | 127077
8 | 28:14.28 | 3:02.71 | 127078 | 140798
9 | 31:17.24 | 4:31.17 | 140799 | 161140
10 | 35:48.41 | 4:18.39 | 161141 | 180529 Track 1

Filename C:Documents and SettingsJamesMy DocumentsMy Torrentssrv2014-complete_epic_recordings-12cd.flac16CD08-Soul To Soul 19851 Track01.wav

Pre-gap length 0:00:02.00

Peak level 95.0 %
Extraction speed 5.1 X
Track quality 100.0 %
Test CRC A1A6BBF0
Copy CRC A1A6BBF0
Track not present in AccurateRip database
Copy OK

Track 2

Filename C:Documents and SettingsJamesMy DocumentsMy Torrentssrv2014-complete_epic_recordings-12cd.flac16CD08-Soul To Soul 19852 Track02.wav

Peak level 94.9 %
Extraction speed 3.8 X
Track quality 99.9 %
Test CRC CA94BE04
Copy CRC CA94BE04
Track not present in AccurateRip database
Copy OK

Track 3

Filename C:Documents and SettingsJamesMy DocumentsMy Torrentssrv2014-complete_epic_recordings-12cd.flac16CD08-Soul To Soul 19853 Track03.wav

Peak level 98.0 %
Extraction speed 5.3 X
Track quality 100.0 %
Test CRC 5CD1F269
Copy CRC 5CD1F269
Track not present in AccurateRip database
Copy OK

Track 4

Filename C:Documents and SettingsJamesMy DocumentsMy Torrentssrv2014-complete_epic_recordings-12cd.flac16CD08-Soul To Soul 19854 Track04.wav

Peak level 99.6 %
Extraction speed 5.4 X
Track quality 99.9 %
Test CRC 0AD40F68
Copy CRC 0AD40F68
Track not present in AccurateRip database
Copy OK

Track 5

Filename C:Documents and SettingsJamesMy DocumentsMy Torrentssrv2014-complete_epic_recordings-12cd.flac16CD08-Soul To Soul 19855 Track05.wav

Pre-gap length 0:00:00.72

Peak level 89.2 %
Extraction speed 4.7 X
Track quality 99.9 %
Test CRC EDC2F884
Copy CRC EDC2F884
Track not present in AccurateRip database
Copy OK

Track 6

Filename C:Documents and SettingsJamesMy DocumentsMy Torrentssrv2014-complete_epic_recordings-12cd.flac16CD08-Soul To Soul 19856 Track06.wav

Pre-gap length 0:00:00.21

Peak level 98.1 %
Extraction speed 6.7 X
Track quality 100.0 %
Test CRC 621F923C
Copy CRC 621F923C
Track not present in AccurateRip database
Copy OK

Track 7

Filename C:Documents and SettingsJamesMy DocumentsMy Torrentssrv2014-complete_epic_recordings-12cd.flac16CD08-Soul To Soul 19857 Track07.wav

Pre-gap length 0:00:00.58

Peak level 98.0 %
Extraction speed 6.9 X
Track quality 100.0 %
Test CRC DF25EAA5
Copy CRC DF25EAA5
Track not present in AccurateRip data



Stevie Ray Vaughan Albert King | Movie Double Trouble | Double Trouble 2014 | Stevie Ray Vaughan Boxed | Stevie Ray Vaughan Couldn T Stand The Weather Mp3 | Stevie Ray Vaughan Unp | Stevie Ray Vaughan Jeff | Double Trouble 1984 | Stevie Ray Vaughan El Mocambo | Stevie Ray Vaughan Little
Free Full Download Stevie Ray Vaughan And Double Trouble - form MediaFire link RapidShare, ifile.it, Uploaded.to, Zippyshare, FileSonic, turbobit, ul.to, ORON, DepositFiles,rapidgator.net, extabit.com, filefactory.com. Stevie Ray Vaughan And Double Trouble - Torrent Download with keygen, crack, serial, cdkey,password,1080P,hd, 2015, 2016
Dear visitor, you went to the site as unregistered user.
We encourage you to register .

Add comment

Name:*
E-Mail:*
Comment:
  • bowtiesmilelaughingblushsmileyrelaxedsmirk
    heart_eyeskissing_heartkissing_closed_eyesflushedrelievedsatisfiedgrin
    winkstuck_out_tongue_winking_eyestuck_out_tongue_closed_eyesgrinningkissingstuck_out_tonguesleeping
    worriedfrowninganguishedopen_mouthgrimacingconfusedhushed
    expressionlessunamusedsweat_smilesweatdisappointed_relievedwearypensive
    disappointedconfoundedfearfulcold_sweatperseverecrysob
    joyastonishedscreamtired_faceangryragetriumph
    sleepyyummasksunglassesdizzy_faceimpsmiling_imp
    neutral_faceno_mouthinnocent
Enter the two words shown in the image:

Sitemap We don't Store Any File In Server. The Search and free download links all published by our users.if You Have Any Doubts About Legality Of Content, plz contact us.
  • count 88x31px