The Hoax - Recession Blues: A Tribute To B.B. King (2014)

jone Category: music

The Hoax - Recession Blues: A Tribute To B.B. King (2014)
EAC Rip | FLAC (Img) + Cue + Log ~ 286 Mb | MP3 CBR320 ~ 106 Mb
Scans Included (JPG, 600 dpi) | RAR 5% Recovery
Blues | Credible Records #CRCD BB01

Not just a great tribute, but one of the best blues releases in years. England's premier blues band, The Hoax, follow up last year's fantastic album, "Big City Blues" with this great 'tribute' to B.B. King.
The twin guitars of Jesse Davey and Jon Amor are absolutely on fire throughout the entire set, singer Hugh Coltman's voice has never sounded better, and the rhythm section of Robin Davey on bass & Mark Barrett on drums are rock solid.
Complemented by a smokin' horn section and keyboards for this recording, the band really gives the listener the impression that they all really love these songs, and their idol that they pay tribute to with each and every note played.
Not only one of the best 'tribute' albums I have ever heard, but one of the finest blues albums I have had the pleasure of listening to in years. ~ Stephen G. Headrickon, Amazon

***************
British blues-rock group the Hoax consisted of Jon Amor on guitar, Hugh Coltman on vocals and harmonica, Jess Davey on guitar, Robin Davey on bass, and Dave Raeburn on drums. The members were all young students of the blues and had played together since they were in their teens; songwriting and arrangements were worked out together by all five members. the Hoax began to attract attention while on tour with the Smokin' Joe Kubek Band around England, and Code Blue Records label chief Mike Vernon signed them to a deal. Vernon, a veteran producer who had worked with John Mayall, Eric Clapton, Ten Years After, Savoy Brown, and David Bowie, was impressed by the maturity in the band's playing. Critics in England were also impressed with the band's prowess and heaped praise on the Hoax, comparing them to the Yardbirds, John Mayall's Bluesbreakers, and the Rolling Stones. Their debut album, Sound Like This, was released in 1995 on the Code Blue/Atlantic label (although Code Blue was later jettisoned by Atlantic), and the recording is a good reflection of their live shows. On it, the band pays tribute to its influences, such as Albert Collins, Albert King, the Fabulous Thunderbirds, Robben Ford, and Stevie Ray Vaughan.
~ Richard Skelly, All Music Guide


***************


Track List:

01. Ten Long Years [03:32]
02. Crying Won't Help You [03:10]
03. I Want To Get Married [02:53]
04. Dark Is The Night [03:06]
05. Troubles, Troubles, Troubles [03:48]
06. Blind Love [03:10]
07. It's My Own My Fault Baby [04:17]
08. You Upset Me Baby [02:16]
09. I've Got A Good Mind To Give Up Living [03:35]
10. Please Love Me [03:05]
11. Recession Blues [02:32]

EAC Log
Exact Audio Copy V1.0 beta 6 from 9. April 2015

EAC extraction logfile from 26. May 2015, 16:40

The Hoax / Recession Blues - A Tribute To B.B. King

Used drive : Optiarc DVD RW AD-7283S Adapter: 1 ID: 0

Read mode : Secure
Utilize accurate stream : Yes
Defeat audio cache : Yes
Make use of C2 pointers : No

Read offset correction : 48
Overread into Lead-In and Lead-Out : No
Fill up missing offset samples with silence : Yes
Delete leading and trailing silent blocks : No
Null samples used in CRC calculations : Yes
Used interface : Native Win32 interface for Win NT & 2000

Used output format : User Defined Encoder
Selected bitrate : 128 kBit/s
Quality : High
Add ID3 tag : No
Command line compressor : C:Program Files (x86)Exact Audio CopyFlacflac.exe
Additional command line options : -V -8 -T "Date=%year%" -T "Genre=%genre%" %source% TOC of the extracted CD

Track | Start | Length | Start sector | End sector
---------------------------------------------------------
1 | 0:00.00 | 3:31.05 | 0 | 15829
2 | 3:31.05 | 3:09.57 | 15830 | 30061
3 | 6:40.62 | 2:52.74 | 30062 | 43035
4 | 9:33.61 | 3:05.42 | 43036 | 56952
5 | 12:39.28 | 3:47.49 | 56953 | 74026
6 | 16:27.02 | 3:09.01 | 74027 | 88202
7 | 19:36.03 | 4:16.31 | 88203 | 107433
8 | 23:52.34 | 2:15.43 | 107434 | 117601
9 | 26:08.02 | 3:34.13 | 117602 | 133664
10 | 29:42.15 | 3:04.44 | 133665 | 147508
11 | 32:46.59 | 2:31.05 | 147509 | 158838 Range status and errors

Selected range

Filename I:The Hoax ОстальноеThe Hoax - 2014 - Recession Blues - A Tribute To B.B. KingThe Hoax - Recession Blues - A Tribute To B.B. King.wav

Peak level 100.0 %
Extraction speed 3.5 X
Range quality 99.9 %
Test CRC E191CEED
Copy CRC E191CEED
Copy OK

No errors occurred


AccurateRip summary

Track 1 cannot be verified as accurate (confidence 1) [178044DA], AccurateRip returned [7C63A935] (AR v2)
Track 2 cannot be verified as accurate (confidence 1) [7CFF7160], AccurateRip returned [1AFD6275] (AR v2)
Track 3 cannot be verified as accurate (confidence 1) [BCB14A01], AccurateRip returned [BA0ED028] (AR v2)
Track 4 cannot be verified as accurate (confidence 1) [70AF48BE], AccurateRip returned [3A5AE438] (AR v2)
Track 5 cannot be verified as accurate (confidence 1) [014A94DF], AccurateRip returned [027F7729] (AR v2)
Track 6 cannot be verified as accurate (confidence 1) [AC3E9563], AccurateRip returned [8F86F17D] (AR v2)
Track 7 cannot be verified as accurate (confidence 1) [49609755], AccurateRip returned [292F1B47] (AR v2)
Track 8 cannot be verified as accurate (confidence 1) [F587F252], AccurateRip returned [195D256E] (AR v2)
Track 9 cannot be verified as accurate (confidence 1) [6E1DA122], AccurateRip returned [F6379ABD] (AR v2)
Track 10 cannot be verified as accurate (confidence 1) [EB0984B3], AccurateRip returned [05CF5CF2] (AR v2)
Track 11 cannot be verified as accurate (confidence 1) [E25FE277], AccurateRip returned [B7B3735E] (AR v2)

No tracks could be verified as accurate
You may have a different pressing from the one(s) in the database

End of status report

---- CUETools DB Plugin V2.1.6

[CTDB TOCID: FzHx9VW3o8aIIpqfjOoPBIDPpj4-] found
Submit result: FzHx9VW3o8aIIpqfjOoPBIDPpj4- has been uploaded
Track | CTDB Status
1 | (1/1) Differs in 300 samples @00:29:47-00:29:48,03:03:69-03:03:70
2 | (1/1) Accurately ripped
3 | (1/1) Differs in 180 samples @01:23:40-01:23:41
4 | (1/1) Accurately ripped
5 | (1/1) Differs in 179 samples @00:25:31-00:25:32
6 | (1/1) Differs in 180 samples @01:38:15-01:38:16
7 | (1/1) Differs in 180 samples @03:29:47-03:29:48
8 | (1/1) Accurately ripped
9 | (1/1) Differs in 333 samples @01:58:06-01:58:07,02:36:44-02:36:45
10 | (1/1) Accurately ripped
11 | (1/1) Differs in 122 samples @00:19:57-00:19:58
If you are sure that your rip contains errors, you can use CUETools to repair it. ==== Log checksum 37364D0AE2B8DFAFAE78CF19FB3409AA15CAE3C300D01267D39AC2CF85D7E613 ====

DR Log
foobar2000 1.2.6 / Dynamic Range Meter 1.1.1
log date: 2015-05-30 20:59:31

--------------------------------------------------------------------------------
Analyzed: The Hoax / Recession Blues - A Tribute To B.B. King
--------------------------------------------------------------------------------

DR Peak RMS Duration Track
--------------------------------------------------------------------------------
DR4 0.00 dB -5.08 dB 3:31 01-Ten Long Years
DR4 0.00 dB -5.19 dB 3:10 02-Crying Won't Help You
DR4 0.00 dB -4.81 dB 2:53 03-I Want To Get Married
DR4 0.00 dB -4.98 dB 3:06 04-Dark Is The Night
DR4 0.00 dB -5.28 dB 3:48 05-Troubles, Troubles, Troubles
DR4 0.00 dB -4.89 dB 3:09 06-Blind Love
DR5 0.00 dB -5.88 dB 4:16 07-It's My Own My Fault Baby
DR4 0.00 dB -5.13 dB 2:16 08-You Upset Me Baby
DR5 0.00 dB -6.44 dB 3:34 09-I've Got A Good Mind To Give Up Living
DR5 0.00 dB -5.58 dB 3:05 10-Please Love Me
DR4 0.00 dB -4.54 dB 2:31 11-Recession Blues
--------------------------------------------------------------------------------

Number of tracks: 11
Official DR value: DR4

Samplerate: 44100 Hz
Channels: 2
Bits per sample: 16
Bitrate: 995 kbps
Codec: FLAC
================================================================================

CUETools Log
[CUETools log; Date: 30.05.2015 20:55:16; Version: 2.1.5]
[CTDB TOCID: FzHx9VW3o8aIIpqfjOoPBIDPpj4-] found.
Track | CTDB Status
1 | (1/2) Accurately ripped, or (1/2) differs in 300 samples @00:29:47-00:29:48,03:03:69-03:03:70
2 | (2/2) Accurately ripped
3 | (1/2) Accurately ripped, or (1/2) differs in 180 samples @01:23:40-01:23:41
4 | (2/2) Accurately ripped
5 | (1/2) Accurately ripped, or (1/2) differs in 179 samples @00:25:31-00:25:32
6 | (1/2) Accurately ripped, or (1/2) differs in 180 samples @01:38:15-01:38:16
7 | (1/2) Accurately ripped, or (1/2) differs in 180 samples @03:29:47-03:29:48
8 | (2/2) Accurately ripped
9 | (1/2) Accurately ripped, or (1/2) differs in 333 samples @01:58:06-01:58:07,02:36:44-02:36:45
10 | (2/2) Accurately ripped
11 | (1/2) Accurately ripped, or (1/2) differs in 122 samples @00:19:57-00:19:58
[AccurateRip ID: 000ed968-0080887a-9d08450b] found.
Track [ CRC | V2 ] Status
01 [8e9791e2|178044da] (0+0/1) No match
02 [abe00715|7cff7160] (0+0/1) No match
03 [e6ecc574|bcb14a01] (0+0/1) No match
04 [fe17fe4d|70af48be] (0+0/1) No match
05 [88585794|014a94df] (0+0/1) No match
06 [42ba75ec|ac3e9563] (0+0/1) No match
07 [2526b4e9|49609755] (0+0/1) No match
08 [0b73efc9|f587f252] (0+0/1) No match
09 [7a44829e|6e1da122] (0+0/1) No match
10 [bad8c525|eb0984b3] (0+0/1) No match
11 [334d1f2c|e25fe277] (0+0/1) No match
Offsetted by -811:
01 [3dccde6e] (0/1) No match (V2 was not tested)
02 [1afd6275] (1/1) Accurately ripped
03 [7c3584f6] (0/1) No match (V2 was not tested)
04 [3a5ae438] (1/1) Accurately ripped
05 [8143e1f5] (0/1) No match (V2 was not tested)
06 [f043c622] (0/1) No match (V2 was not tested)
07 [a2e34ae4] (0/1) No match (V2 was not tested)
08 [195d256e] (1/1) Accurately ripped
09 [1887af2d] (0/1) No match (V2 was not tested)
10 [05cf5cf2] (1/1) Accurately ripped
11 [833cd8d6] (0/1) No match (V2 was not tested)

Track Peak [ CRC32 ] [W/O NULL] [ LOG ]
-- 100,0 [E191CEED] [C617262D] CRC32
01 100,0 [FDF45FF6] [22792272]
02 100,0 [99FF4F4D] [68F5446A]
03 100,0 [0754AC9E] [36475CA9]
04 100,0 [EA3F42AE] [438EE121]
05 100,0 [9DBD7C1A] [F5A0F088]
06 100,0 [F310531B] [A21C5182]
07 100,0 [61451C44] [74CD91BA]
08 100,0 [4DCE6889] [A3A40A03]
09 100,0 [BCB5E615] [2CF687EB]
10 100,0 [7C93B216] [5AD8CD7A]
11 100,0 [48408F7C] [DB61188D]


All thanks go to Badeny
Download:

Uploadable: FLAC | mp3

Hitfile: FLAC | mp3



B B King Piazza Blues Festival | King Delta Blues | The Blues King 2006 | B B King Piazza Blues Festival | King Of The Blues 1989 | The King Blues Save The World | Blind Lemon Jefferson King Of The Country Blues | Albert King King Of The Blues Guitar | King Blues Under The Fog | A Blues Tribute
Free Full Download The Hoax - Recession Blues: A Tribute form MediaFire link RapidShare, ifile.it, Uploaded.to, Zippyshare, FileSonic, turbobit, ul.to, ORON, DepositFiles,rapidgator.net, extabit.com, filefactory.com. The Hoax - Recession Blues: A Tribute Torrent Download with keygen, crack, serial, cdkey,password,1080P,hd, 2015, 2016
Dear visitor, you went to the site as unregistered user.
We encourage you to register .

Add comment

Name:*
E-Mail:*
Comment:
  • bowtiesmilelaughingblushsmileyrelaxedsmirk
    heart_eyeskissing_heartkissing_closed_eyesflushedrelievedsatisfiedgrin
    winkstuck_out_tongue_winking_eyestuck_out_tongue_closed_eyesgrinningkissingstuck_out_tonguesleeping
    worriedfrowninganguishedopen_mouthgrimacingconfusedhushed
    expressionlessunamusedsweat_smilesweatdisappointed_relievedwearypensive
    disappointedconfoundedfearfulcold_sweatperseverecrysob
    joyastonishedscreamtired_faceangryragetriumph
    sleepyyummasksunglassesdizzy_faceimpsmiling_imp
    neutral_faceno_mouthinnocent
Enter the two words shown in the image:

Sitemap We don't Store Any File In Server. The Search and free download links all published by our users.if You Have Any Doubts About Legality Of Content, plz contact us.
  • count 88x31px