Ry Cooder - Get Rhythm (1987)

peter Category: music

Ry Cooder - Get Rhythm (1987)
EAC | FLAC | Image (Cue&Log) ~ 290 Mb (incl 5%) | Mp3 (CBR320) ~ 135 Mb (incl 5%) | Scans included
Genre: Roots Rock, Blues, Country Rock, Folk, Tex-Mex | Label: Warner Bros. | # 7599-25639-2 | Time: 00:40:53

"The Musician's Musician". "The Master of the Eclectic". There are probably a dozen more titles by which this "guitar player" is known. To even refer to him as a guitar player is probably a gross mislabeling of this musician. He defies any sort of categorization; this is his greatest strength and for some his weakness. The theme for these nine cuts is rhythm of all different ilk. I won't even give the parameters because he seems to have none. I wondered how many different instruments he played on this album (I thought I counted five different types of guitar); it only says guitar and vocal for his credits. Listen to his version of "All Shook Up," more bop and rhythm than Elvis could put into four of his songs. It seems musicians line up to play with him, and they feel he did them a favor by letting them play on his albums. He always gives them plenty of space to do what they do. This CD will make the dead start tapping their toes.

Review by Bob Gottlieb, Allmusic.com


Ry Cooder at Allmusic
Ry Cooder at Wiki

Tracklist:

01. Get Rhythm (03:17)
02. Low-Commotion (03:09)
03. Going Back To Okinawa (04:42)
04. 13 Question Method (03:39)
05. Women Will Rule The World (05:51)
06. All Shook Up (03:30)
07. I Can Tell By The Way You Smell (04:33)
08. Across The Borderline (06:17)
09. Let's Have A Ball (05:50)


EAC log
Exact Audio Copy V1.0 beta 3 from 29. August 2011

EAC extraction logfile from 20. January 2015, 19:51

Ry Cooder / Get Rhythm

Used drive : PLEXTOR DVDR PX-891SA Adapter: 0 ID: 2

Read mode : Secure
Utilize accurate stream : Yes
Defeat audio cache : Yes
Make use of C2 pointers : No

Read offset correction : 6
Overread into Lead-In and Lead-Out : No
Fill up missing offset samples with silence : Yes
Delete leading and trailing silent blocks : No
Null samples used in CRC calculations : Yes
Used interface : Installed external ASPI interface

Used output format : User Defined Encoder
Selected bitrate : 320 kBit/s
Quality : High
Add ID3 tag : No
Command line compressor : C:Program FilesExact Audio Copy 1.0Flacflac.exe
Additional command line options : -V -8 -T "Date=%year%" -T "Genre=%genre%" %source% TOC of the extracted CD

Track | Start | Length | Start sector | End sector
---------------------------------------------------------
1 | 0:00.00 | 3:17.52 | 0 | 14826
2 | 3:17.52 | 3:09.60 | 14827 | 29061
3 | 6:27.37 | 4:42.03 | 29062 | 50214
4 | 11:09.40 | 3:39.30 | 50215 | 66669
5 | 14:48.70 | 5:51.62 | 66670 | 93056
6 | 20:40.57 | 3:30.60 | 93057 | 108866
7 | 24:11.42 | 4:33.40 | 108867 | 129381
8 | 28:45.07 | 6:17.60 | 129382 | 157716
9 | 35:02.67 | 5:50.20 | 157717 | 183986 Range status and errors

Selected range

Filename L:Lossless TempRy CooderRy Cooder - Get Rhythm - 1987 (Warner Bros Records, 7599-25639-2, Germany)Ry Cooder - Get Rhythm.wav

Peak level 96.7 %
Extraction speed 7.6 X
Range quality 99.9 %
Test CRC 871FE0A7
Copy CRC 871FE0A7
Copy OK

No errors occurred


AccurateRip summary

Track 1 accurately ripped (confidence 26) [01AE9309] (AR v2)
Track 2 accurately ripped (confidence 24) [BDFD3449] (AR v2)
Track 3 accurately ripped (confidence 24) [07158DF0] (AR v2)
Track 4 accurately ripped (confidence 25) [A96C7EF3] (AR v2)
Track 5 accurately ripped (confidence 26) [021E69A2] (AR v2)
Track 6 accurately ripped (confidence 26) [766D5E2C] (AR v2)
Track 7 accurately ripped (confidence 25) [D9F645EF] (AR v2)
Track 8 accurately ripped (confidence 26) [E89A23B1] (AR v2)
Track 9 accurately ripped (confidence 24) [A410E4EF] (AR v2)

All tracks accurately ripped

End of status report

==== Log checksum 9EF2890AD516C153B1A810A859B87147F4F42B0E448472BCA0E905195CB207D9 ====

DR log
foobar2000 1.3.8 / Dynamic Range Meter 1.1.1
log date: 2015-05-24 16:16:54

--------------------------------------------------------------------------------
Analyzed: Ry Cooder / Get Rhythm
--------------------------------------------------------------------------------

DR Peak RMS Duration Track
--------------------------------------------------------------------------------
DR13 -4.07 dB -19.65 dB 3:18 01-Get Rhythm
DR16 -0.29 dB -19.20 dB 3:10 02-Low--Commotion
DR13 -2.78 dB -17.49 dB 4:42 03-Going Back To Okinawa
DR16 -5.88 dB -26.29 dB 3:39 04-13 Question Method
DR13 -5.12 dB -21.21 dB 5:52 05-Women Will Rule The World
DR13 -1.79 dB -17.75 dB 3:31 06-All Shook Up
DR13 -2.20 dB -17.91 dB 4:34 07-I Can Tell By The Way You Smell
DR14 -4.85 dB -21.70 dB 6:18 08-Across The Borderline
DR12 -4.01 dB -18.88 dB 5:50 09-Let's Have A Ball
--------------------------------------------------------------------------------

Number of tracks: 9
Official DR value: DR14

Samplerate: 44100 Hz
Channels: 2
Bits per sample: 16
Bitrate: 825 kbps
Codec: FLAC
================================================================================








Ry Cooder Paris Texas Is Safe 1 | Rhythm | Ali Farka Toure Ry Cooder | Ry Cooder River | Ry Cooder Crossroads | Ry Cooder 2013 | Ry Cooder 320 | The Rhythm Vol | Ry Cooder Paris Texas Is Safe 1 | Buena Vista Social Club Ry Cooder
Free Full Download Ry Cooder - Get Rhythm (1987) form MediaFire link RapidShare, ifile.it, Uploaded.to, Zippyshare, FileSonic, turbobit, ul.to, ORON, DepositFiles,rapidgator.net, extabit.com, filefactory.com. Ry Cooder - Get Rhythm (1987) Torrent Download with keygen, crack, serial, cdkey,password,1080P,hd, 2015, 2016
Dear visitor, you went to the site as unregistered user.
We encourage you to register .

Add comment

Name:*
E-Mail:*
Comment:
  • bowtiesmilelaughingblushsmileyrelaxedsmirk
    heart_eyeskissing_heartkissing_closed_eyesflushedrelievedsatisfiedgrin
    winkstuck_out_tongue_winking_eyestuck_out_tongue_closed_eyesgrinningkissingstuck_out_tonguesleeping
    worriedfrowninganguishedopen_mouthgrimacingconfusedhushed
    expressionlessunamusedsweat_smilesweatdisappointed_relievedwearypensive
    disappointedconfoundedfearfulcold_sweatperseverecrysob
    joyastonishedscreamtired_faceangryragetriumph
    sleepyyummasksunglassesdizzy_faceimpsmiling_imp
    neutral_faceno_mouthinnocent
Enter the two words shown in the image:

Sitemap We don't Store Any File In Server. The Search and free download links all published by our users.if You Have Any Doubts About Legality Of Content, plz contact us.
  • count 88x31px