Richard Wagner - Karl Böhm - Der Ring Des Nibelungen Philips # 446 057-2 Germany 1967 2006 14xCD Box

jone Category: music

Richard Wagner - Der Ring Des Nibelungen
Chor und Orchester der Bayreuther Festspiele / Karl Böhm
14xCD | EAC+LOG+CUE | FLAC: 3,84 GB | Artwork | 5% Recovery Info
Label/Cat#: Philips # 446 057-2 | Country/Year: Germany 1967, 2006
Genre: Classical | Style: Opera, Romantic

MD5 [X] CUE [X] LOG [X] INFO TEXT [X] ARTWORK [X]

my rip [ ] not my rip [X]


EAC LOGs
Exact Audio Copy V0.99 prebeta 5 from 4. May 2009

EAC extraction logfile from 24. August 2010, 21:26

Wagner / Das Rheingold (Karl Bohm, Orchester der Bayreuther Festspiele) [CD 1-2]

Used drive : ASUS DRW-1814BLT Adapter: 2 ID: 2

Read mode : Secure
Utilize accurate stream : Yes
Defeat audio cache : Yes
Make use of C2 pointers : No

Read offset correction : 6
Overread into Lead-In and Lead-Out : No
Fill up missing offset samples with silence : Yes
Delete leading and trailing silent blocks : No
Null samples used in CRC calculations : Yes
Used interface : Native Win32 interface for Win NT & 2000

Used output format : Internal WAV Routines
Sample format : 44.100 Hz; 16 Bit; Stereo TOC of the extracted CD

Track | Start | Length | Start sector | End sector
---------------------------------------------------------
1 | 0:00.33 | 3:33.20 | 33 | 16027
2 | 3:33.53 | 2:17.02 | 16028 | 26304
3 | 5:50.55 | 4:45.58 | 26305 | 47737
4 | 10:36.38 | 2:15.35 | 47738 | 57897
5 | 12:51.73 | 6:03.65 | 57898 | 85187
6 | 18:55.63 | 1:33.17 | 85188 | 92179
7 | 20:29.05 | 2:22.40 | 92180 | 102869
8 | 22:51.45 | 3:29.70 | 102870 | 118614
9 | 26:21.40 | 5:43.63 | 118615 | 144402
10 | 32:05.28 | 6:55.37 | 144403 | 175564
11 | 39:00.65 | 1:29.48 | 175565 | 182287
12 | 40:30.38 | 3:40.00 | 182288 | 198787
13 | 44:10.38 | 5:55.62 | 198788 | 225474
14 | 50:06.25 | 4:18.45 | 225475 | 244869
15 | 54:24.70 | 4:35.25 | 244870 | 265519
16 | 59:00.20 | 4:53.00 | 265520 | 287494
17 | 63:53.20 | 1:44.28 | 287495 | 295322
18 | 65:37.48 | 3:50.60 | 295323 | 312632 Range status and errors

Selected range

Filename K:EACDas Rheingold CD1.wav

Peak level 97.2 %
Range quality 100.0 %
Copy CRC A0F32B8A
Copy OK

No errors occurred


AccurateRip summary

Track 1 accurately ripped (confidence 28) [B3364B24]
Track 2 accurately ripped (confidence 27) [72CB0AB5]
Track 3 accurately ripped (confidence 29) [33BE5443]
Track 4 accurately ripped (confidence 29) [C9D8CF40]
Track 5 accurately ripped (confidence 29) [1BF2A6FC]
Track 6 accurately ripped (confidence 29) [02CAB46A]
Track 7 accurately ripped (confidence 29) [C6C21420]
Track 8 accurately ripped (confidence 29) [CC90C01C]
Track 9 accurately ripped (confidence 29) [658B96D8]
Track 10 accurately ripped (confidence 29) [5E48BD74]
Track 11 accurately ripped (confidence 29) [80354D32]
Track 12 accurately ripped (confidence 29) [A5248B6D]
Track 13 accurately ripped (confidence 29) [4D252C86]
Track 14 accurately ripped (confidence 29) [29A661CC]
Track 15 accurately ripped (confidence 29) [DE25B736]
Track 16 accurately ripped (confidence 29) [6C729291]
Track 17 accurately ripped (confidence 29) [95BF408C]
Track 18 accurately ripped (confidence 29) [F7EC7BB5]

All tracks accurately ripped

End of status report
Exact Audio Copy V0.99 prebeta 5 from 4. May 2009

EAC extraction logfile from 24. August 2010, 21:51

Wagner / Das Rheingold (Karl Böhm, Orchester der Bayreuther Festspiele) [CD 2-2]

Used drive : ASUS DRW-1814BLT Adapter: 2 ID: 2

Read mode : Secure
Utilize accurate stream : Yes
Defeat audio cache : Yes
Make use of C2 pointers : No

Read offset correction : 6
Overread into Lead-In and Lead-Out : No
Fill up missing offset samples with silence : Yes
Delete leading and trailing silent blocks : No
Null samples used in CRC calculations : Yes
Used interface : Native Win32 interface for Win NT & 2000

Used output format : Internal WAV Routines
Sample format : 44.100 Hz; 16 Bit; Stereo TOC of the extracted CD

Track | Start | Length | Start sector | End sector
---------------------------------------------------------
1 | 0:00.33 | 4:03.65 | 33 | 18322
2 | 4:04.23 | 2:25.12 | 18323 | 29209
3 | 6:29.35 | 4:35.30 | 29210 | 49864
4 | 11:04.65 | 4:44.48 | 49865 | 71212
5 | 15:49.38 | 3:08.35 | 71213 | 85347
6 | 18:57.73 | 3:31.37 | 85348 | 101209
7 | 22:29.35 | 2:25.33 | 101210 | 112117
8 | 24:54.68 | 3:27.62 | 112118 | 127704
9 | 28:22.55 | 4:04.00 | 127705 | 146004
10 | 32:26.55 | 3:19.20 | 146005 | 160949
11 | 35:46.00 | 2:39.28 | 160950 | 172902
12 | 38:25.28 | 2:44.00 | 172903 | 185202
13 | 41:09.28 | 2:17.65 | 185203 | 195542
14 | 43:27.18 | 2:20.47 | 195543 | 206089
15 | 45:47.65 | 4:52.65 | 206090 | 228054
16 | 50:40.55 | 3:17.03 | 228055 | 242832
17 | 53:57.58 | 2:31.55 | 242833 | 254212
18 | 56:29.38 | 2:21.62 | 254213 | 264849
19 | 58:51.25 | 5:05.38 | 264850 | 287762
20 | 63:56.63 | 3:21.60 | 287763 | 302897 Range status and errors

Selected range

Filename K:EACDas Rheingold CD2.wav

Peak level 91.1 %
Range quality 100.0 %
Copy CRC 0B02D526
Copy OK

No errors occurred


AccurateRip summary

Track 1 accurately ripped (confidence 29) [6DB8BC7E]
Track 2 accurately ripped (confidence 29) [1BE34C08]
Track 3 accurately ripped (confidence 29) [1ABD596C]
Track 4 accurately ripped (confidence 29) [29BEDA86]
Track 5 accurately ripped (confidence 29) [75EDC432]
Track 6 accurately ripped (confidence 29) [A4DF59EB]
Track 7 accurately ripped (confidence 29) [BC8ACD7A]
Track 8 accurately ripped (confidence 29) [EC586819]
Track 9 accurately ripped (confidence 29) [02F91DD2]
Track 10 accurately ripped (confidence 29) [7B46205E]
Track 11 accurately ripped (confidence 29) [A35AF898]
Track 12 accurately ripped (confidence 29) [083B654F]
Track 13 accurately ripped (confidence 29) [BA8A1772]
Track 14 accurately ripped (confidence 29) [54166F29]
Track 15 accurately ripped (confidence 29) [7BB4E203]
Track 16 accurately ripped (confidence 29) [66973DC1]
Track 17 accurately ripped (confidence 29) [BF80D6E3]
Track 18 accurately ripped (confidence 29) [95E65643]
Track 19 accurately ripped (confidence 29) [DC1487B4]
Track 20 accurately ripped (confidence 29) [CF7FFC02]

All tracks accurately ripped

End of status report
Exact Audio Copy V0.99 prebeta 5 from 4. May 2009

EAC extraction logfile from 25. August 2010, 20:16

Wagner / Die Walküre (Karl Böhm, Orchester der Bayreuther Festspiele) [CD 1-4]

Used drive : ASUS DRW-1814BLT Adapter: 2 ID: 2

Read mode : Secure
Utilize accurate stream : Yes
Defeat audio cache : Yes
Make use of C2 pointers : No

Read offset correction : 6
Overread into Lead-In and Lead-Out : No
Fill up missing offset samples with silence : Yes
Delete leading and trailing silent blocks : No
Null samples used in CRC calculations : Yes
Used interface : Native Win32 interface for Win NT & 2000

Used output format : Internal WAV Routines
Sample format : 44.100 Hz; 16 Bit; Stereo TOC of the extracted CD

Track | Start | Length | Start sector | End sector
---------------------------------------------------------
1 | 0:00.33 | 3:50.00 | 33 | 17282
2 | 3:50.33 | 2:40.42 | 17283 | 29324
3 | 6:31.00 | 9:15.08 | 29325 | 70957
4 | 15:46.08 | 4:49.52 | 70958 | 92684
5 | 20:35.60 | 4:00.58 | 92685 | 110742
6 | 24:36.43 | 5:42.00 | 110743 | 136392
7 | 30:18.43 | 5:06.22 | 136393 | 159364
8 | 35:24.65 | 6:49.25 | 159365 | 190064
9 | 42:14.15 | 5:33.18 | 190065 | 215057
10 | 47:47.33 | 9:13.72 | 215058 | 256604
11 | 57:01.30 | 5:00.03 | 256605 | 279107 Range status and errors

Selected range

Filename K:EACDie Walkure CD1.wav

Peak level 94.8 %
Range quality 99.9 %
Copy CRC BBA50302
Copy OK

No errors occurred


AccurateRip summary

Track 1 accurately ripped (confidence 30) [1EBACFED]
Track 2 accurately ripped (confidence 30) [1DFEA300]
Track 3 accurately ripped (confidence 31) [C68585CA]
Track 4 accurately ripped (confidence 30) [6BF1A725]
Track 5 accurately ripped (confidence 30) [2FB0E4B0]
Track 6 accurately ripped (confidence 31) [CB278D62]
Track 7 accurately ripped (confidence 31) [9D8B4CEF]
Track 8 accurately ripped (confidence 31) [EE023462]
Track 9 accurately ripped (confidence 31) [597C60B0]
Track 10 accurately ripped (confidence 30) [02C23DC6]
Track 11 accurately ripped (confidence 31) [5DF56D79]

All tracks accurately ripped

End of status report
Exact Audio Copy V0.99 prebeta 5 from 4. May 2009

EAC extraction logfile from 25. August 2010, 20:41

Wagner / Die Walküre (Karl Böhm, Orchester der Bayreuther Festspiele) [CD 2-4]

Used drive : ASUS DRW-1814BLT Adapter: 2 ID: 2

Read mode : Secure
Utilize accurate stream : Yes
Defeat audio cache : Yes
Make use of C2 pointers : No

Read offset correction : 6
Overread into Lead-In and Lead-Out : No
Fill up missing offset samples with silence : Yes
Delete leading and trailing silent blocks : No
Null samples used in CRC calculations : Yes
Used interface : Native Win32 interface for Win NT & 2000

Used output format : Internal WAV Routines
Sample format : 44.100 Hz; 16 Bit; Stereo TOC of the extracted CD

Track | Start | Length | Start sector | End sector
---------------------------------------------------------
1 | 0:00.33 | 4:55.05 | 33 | 22162
2 | 4:55.38 | 3:20.67 | 22163 | 37229
3 | 8:16.30 | 9:03.20 | 37230 | 77974
4 | 17:19.50 | 4:54.63 | 77975 | 100087
5 | 22:14.38 | 3:15.35 | 100088 | 114747
6 | 25:29.73 | 6:16.37 | 114748 | 142984
7 | 31:46.35 | 13:02.20 | 142985 | 201654
8 | 44:48.55 | 6:01.45 | 201655 | 228774
9 | 50:50.25 | 6:35.58 | 228775 | 258457 Range status and errors

Selected range

Filename K:EACDie Walkure CD2.wav

Peak level 98.2 %
Range quality 100.0 %
Copy CRC 095E2E6E
Copy OK

No errors occurred


AccurateRip summary

Track 1 accurately ripped (confidence 31) [3C0D3D19]
Track 2 accurately ripped (confidence 31) [8443AD31]
Track 3 accurately ripped (confidence 32) [54E6E0D8]
Track 4 accurately ripped (confidence 32) [5953F809]
Track 5 accurately ripped (confidence 32) [6AE419CC]
Track 6 accurately ripped (confidence 32) [3E2D232F]
Track 7 accurately ripped (confidence 32) [B2640CF6]
Track 8 accurately ripped (confidence 32) [52E293CA]
Track 9 accurately ripped (confidence 31) [58A47A8C]

All tracks accurately ripped

End of status report
Exact Audio Copy V0.99 prebeta 5 from 4. May 2009

EAC extraction logfile from 25. August 2010, 21:07

Wagner / Die Walküre (Karl Böhm, Orchester der Bayreuther Festspiele) [CD 3-4]

Used drive : ASUS DRW-1814BLT Adapter: 2 ID: 2

Read mode : Secure
Utilize accurate stream : Yes
Defeat audio cache : Yes
Make use of C2 pointers : No

Read offset correction : 6
Overread into Lead-In and Lead-Out : No
Fill up missing offset samples with silence : Yes
Delete leading and trailing silent blocks : No
Null samples used in CRC calculations : Yes
Used interface : Native Win32 interface for Win NT & 2000

Used output format : Internal WAV Routines
Sample format : 44.100 Hz; 16 Bit; Stereo TOC of the extracted CD

Track | Start | Length | Start sector | End sector
---------------------------------------------------------
1 | 0:00.32 | 9:43.48 | 32 | 43804
2 | 9:44.05 | 7:36.10 | 43805 | 78014
3 | 17:20.15 | 9:17.42 | 78015 | 119831
4 | 26:37.57 | 8:21.68 | 119832 | 157474
5 | 34:59.50 | 3:05.35 | 157475 | 171384
6 | 38:05.10 | 9:39.22 | 171385 | 214831 Range status and errors

Selected range

Filename K:EACDie Walkure CD3.wav

Peak level 96.6 %
Range quality 100.0 %
Copy CRC 72A77EC7
Copy OK

No errors occurred


AccurateRip summary

Track 1 accurately ripped (confidence 26) [C54CFB96]
Track 2 accurately ripped (confidence 28) [801727FA]
Track 3 accurately ripped (confidence 27) [D192DF17]
Track 4 accurately ripped (confidence 28) [572E8D92]
Track 5 accurately ripped (confidence 28) [6FC2274C]
Track 6 accurately ripped (confidence 28) [898A7E31]

All tracks accurately ripped

End of status report
Exact Audio Copy V0.99 prebeta 5 from 4. May 2009

EAC extraction logfile from 25. August 2010, 21:36

Wagner / Die Walküre (Karl Böhm, Orchester der Bayreuther Festspiele) [CD 4-4]

Used drive : ASUS DRW-1814BLT Adapter: 2 ID: 2

Read mode : Secure
Utilize accurate stream : Yes
Defeat audio cache : Yes
Make use of C2 pointers : No

Read offset correction : 6
Overread into Lead-In and Lead-Out : No
Fill up missing offset samples with silence : Yes
Delete leading and trailing silent blocks : No
Null samples used in CRC calculations : Yes
Used interface : Native Win32 interface for Win NT & 2000

Used output format : Internal WAV Routines
Sample format : 44.100 Hz; 16 Bit; Stereo TOC of the extracted CD

Track | Start | Length | Start sector | End sector
---------------------------------------------------------
1 | 0:00.32 | 9:43.30 | 32 | 43786
2 | 9:43.62 | 10:14.53 | 43787 | 89889
3 | 19:58.40 | 3:29.62 | 89890 | 105626
4 | 23:28.27 | 5:11.33 | 105627 | 128984
5 | 28:39.60 | 10:17.30 | 128985 | 175289
6 | 38:57.15 | 4:17.12 | 175290 | 194576 Range status and errors

Selected range

Filename K:EACDie Walkure CD4.wav

Peak level 96.2 %
Range quality 100.0 %
Copy CRC A58A4DBA
Copy OK

No errors occurred


AccurateRip summary

Track 1 accurately ripped (confidence 30) [52A23155]
Track 2 accurately ripped (confidence 31) [1DA909FE]
Track 3 accurately ripped (confidence 31) [0C2EA4C1]
Track 4 accurately ripped (confidence 31) [DC11FC9D]
Track 5 accurately ripped (confidence 31) [AC74939F]
Track 6 accurately ripped (confidence 31) [8A5647EA]

All tracks accurately ripped

End of status report
Exact Audio Copy V0.99 prebeta 5 from 4. May 2009

EAC extraction logfile from 26. August 2010, 20:19

Wagner / Götterdämmerung (Karl Böhm, Chor und Orchester der Bayreuther Festspiele)

Used drive : ASUS DRW-1814BLT Adapter: 2 ID: 2

Read mode : Secure
Utilize accurate stream : Yes
Defeat audio cache : Yes
Make use of C2 pointers : No

Read offset correction : 6
Overread into Lead-In and Lead-Out : No
Fill up missing offset samples with silence : Yes
Delete leading and trailing silent blocks : No
Null samples used in CRC calculations : Yes
Used interface : Native Win32 interface for Win NT & 2000

Used output format : Internal WAV Routines
Sample format : 44.100 Hz; 16 Bit; Stereo TOC of the extracted CD

Track | Start | Length | Start sector | End sector
---------------------------------------------------------
1 | 0:00.33 | 9:31.45 | 33 | 42902
2 | 9:32.03 | 6:14.22 | 42903 | 70974
3 | 15:46.25 | 2:52.43 | 70975 | 83917
4 | 18:38.68 | 8:48.02 | 83918 | 123519
5 | 27:26.70 | 2:34.18 | 123520 | 135087
6 | 30:01.13 | 5:24.60 | 135088 | 159447
7 | 35:25.73 | 6:14.00 | 159448 | 187497
8 | 41:39.73 | 6:41.55 | 187498 | 217627
9 | 48:21.53 | 6:23.57 | 217628 | 246409
10 | 54:45.35 | 3:25.48 | 246410 | 261832 Range status and errors

Selected range

Filename K:EACGotterdammerung CD1.wav

Peak level 88.3 %
Range quality 100.0 %
Copy CRC C587CA3F
Copy OK

No errors occurred


AccurateRip summary

Track 1 accurately ripped (confidence 5) [C8E9BCD3]
Track 2 accurately ripped (confidence 5) [9D10D3F3]
Track 3 accurately ripped (confidence 6) [9C6603EA]
Track 4 accurately ripped (confidence 6) [18A0F8E4]
Track 5 accurately ripped (confidence 6) [A449DE3F]
Track 6 accurately ripped (confidence 6) [1BF77338]
Track 7 accurately ripped (confidence 6) [BB286402]
Track 8 accurately ripped (confidence 6) [2B1064DA]
Track 9 accurately ripped (confidence 5) [A6B6B242]
Track 10 accurately ripped (confidence 6) [D320B3F7]

All tracks accurately ripped

End of status report
Exact Audio Copy V0.99 prebeta 5 from 4. May 2009

EAC extraction logfile from 26. August 2010, 21:07

Wagner / Götterdämmerung (Karl Böhm, Chor und Orchester der Bayreuther Festspiele) [CD 2-4]

Used drive : ASUS DRW-1814BLT Adapter: 2 ID: 2

Read mode : Secure
Utilize accurate stream : Yes
Defeat audio cache : Yes
Make use of C2 pointers : No

Read offset correction : 6
Overread into Lead-In and Lead-Out : No
Fill up missing offset samples with silence : Yes
Delete leading and trailing silent blocks : No
Null samples used in CRC calculations : Yes
Used interface : Native Win32 interface for Win NT & 2000

Used output format : Internal WAV Routines
Sample format : 44.100 Hz; 16 Bit; Stereo TOC of the extracted CD

Track | Start | Length | Start sector | End sector
---------------------------------------------------------
1 | 0:00.33 | 4:19.40 | 33 | 19497
2 | 4:19.73 | 6:01.70 | 19498 | 46642
3 | 10:21.68 | 3:47.65 | 46643 | 63732
4 | 14:09.58 | 5:47.25 | 63733 | 89782
5 | 19:57.08 | 7:27.67 | 89783 | 123374
6 | 27:25.00 | 10:24.08 | 123375 | 170182
7 | 37:49.08 | 8:34.20 | 170183 | 208752
8 | 46:23.28 | 8:42.05 | 208753 | 247907 Range status and errors

Selected range

Filename K:EACGotterdammerung CD2.wav

Peak level 90.9 %
Range quality 100.0 %
Copy CRC 5FFCCBA7
Copy OK

No errors occurred


AccurateRip summary

Track 1 accurately ripped (confidence 5) [4D838D20]
Track 2 accurately ripped (confidence 5) [07A45617]
Track 3 accurately ripped (confidence 5) [55D112FB]
Track 4 accurately ripped (confidence 5) [AE30EEEB]
Track 5 accurately ripped (confidence 5) [3905DD48]
Track 6 accurately ripped (confidence 5) [80EB4FB6]
Track 7 accurately ripped (confidence 5) [94EE115B]
Track 8 accurately ripped (confidence 5) [E74B14A2]

All tracks accurately ripped

End of status report
Exact Audio Copy V0.99 prebeta 5 from 4. May 2009

EAC extraction logfile from 26. August 2010, 21:41

Wagner / Götterdämmerung (Karl Böhm, Chor und Orchester der Bayreuther Festspiele) [CD 3-4]

Used drive : ASUS DRW-1814BLT Adapter: 2 ID: 2

Read mode : Secure
Utilize accurate stream : Yes
Defeat audio cache : Yes
Make use of C2 pointers : No

Read offset correction : 6
Overread into Lead-In and Lead-Out : No
Fill up missing offset samples with silence : Yes
Delete leading and trailing silent blocks : No
Null samples used in CRC calculations : Yes
Used interface : Native Win32 interface for Win NT & 2000

Used output format : Internal WAV Routines
Sample format : 44.100 Hz; 16 Bit; Stereo TOC of the extracted CD

Track | Start | Length | Start sector | End sector
---------------------------------------------------------
1 | 0:00.32 | 2:48.68 | 32 | 12699
2 | 2:49.25 | 7:28.37 | 12700 | 46336
3 | 10:17.62 | 1:58.73 | 46337 | 55259
4 | 12:16.60 | 4:21.60 | 55260 | 74894
5 | 16:38.45 | 9:01.50 | 74895 | 115519
6 | 25:40.20 | 1:10.12 | 115520 | 120781
7 | 26:50.32 | 3:38.50 | 120782 | 137181
8 | 30:29.07 | 3:15.35 | 137182 | 151841
9 | 33:44.42 | 7:16.65 | 151842 | 184606
10 | 41:01.32 | 6:57.08 | 184607 | 215889
11 | 47:58.40 | 7:19.67 | 215890 | 248881
12 | 55:18.32 | 6:23.00 | 248882 | 277606
13 | 61:41.32 | 6:56.30 | 277607 | 308836 Range status and errors

Selected range

Filename K:EACGotterdammerung CD3.wav

Peak level 95.5 %
Range quality 100.0 %
Copy CRC 1C8DAD1C
Copy OK

No errors occurred


AccurateRip summary

Track 1 accurately ripped (confidence 12) [F6A88801]
Track 2 accurately ripped (confidence 12) [52E75514]
Track 3 accurately ripped (confidence 12) [5B743099]
Track 4 accurately ripped (confidence 12) [40D0E781]
Track 5 accurately ripped (confidence 12) [49AA0B2A]
Track 6 accurately ripped (confidence 12) [E2720AE7]
Track 7 accurately ripped (confidence 12) [F8B6B891]
Track 8 accurately ripped (confidence 11) [F7194855]
Track 9 accurately ripped (confidence 12) [7D2F1C4B]
Track 10 accurately ripped (confidence 12) [DD865AA4]
Track 11 accurately ripped (confidence 12) [E5760D54]
Track 12 accurately ripped (confidence 12) [DC5BE309]
Track 13 accurately ripped (confidence 11) [2E457574]

All tracks accurately ripped

End of status report
Exact Audio Copy V0.99 prebeta 5 from 4. May 2009

EAC extraction logfile from 26. August 2010, 22:28

Wagner / Götterdämmerung (Karl Böhm, Chor und Orchester der Bayreuther Festspiele) [CD 4-4]

Used drive : ASUS DRW-1814BLT Adapter: 2 ID: 2

Read mode : Secure
Utilize accurate stream : Yes
Defeat audio cache : Yes
Make use of C2 pointers : No

Read offset correction : 6
Overread into Lead-In and Lead-Out : No
Fill up missing offset samples with silence : Yes
Delete leading and trailing silent blocks : No
Null samples used in CRC calculations : Yes
Used interface : Native Win32 interface for Win NT & 2000

Used output format : Internal WAV Routines
Sample format : 44.100 Hz; 16 Bit; Stereo TOC of the extracted CD

Track | Start | Length | Start sector | End sector
---------------------------------------------------------
1 | 0:00.32 | 6:20.30 | 32 | 28561
2 | 6:20.62 | 6:04.13 | 28562 | 55874
3 | 12:25.00 | 4:16.27 | 55875 | 75101
4 | 16:41.27 | 2:26.73 | 75102 | 86124
5 | 19:08.25 | 9:33.45 | 86125 | 129144
6 | 28:41.70 | 3:37.47 | 129145 | 145466
7 | 32:19.42 | 6:48.03 | 145467 | 176069
8 | 39:07.45 | 7:18.07 | 176070 | 208926
9 | 46:25.52 | 3:19.63 | 208927 | 223914
10 | 49:45.40 | 7:19.57 | 223915 | 256896
11 | 57:05.22 | 3:34.08 | 256897 | 272954
12 | 60:39.30 | 2:02.37 | 272955 | 282141
13 | 62:41.67 | 3:59.65 | 282142 | 300131 Range status and errors

Selected range

Filename K:EACGotterdammerung CD4.wav

Peak level 92.2 %
Range quality 100.0 %
Copy CRC 5BC6C468
Copy OK

No errors occurred


AccurateRip summary

Track 1 accurately ripped (confidence 28) [62A0750B]
Track 2 accurately ripped (confidence 29) [BBECA56D]
Track 3 accurately ripped (confidence 30) [C2FDA74F]
Track 4 accurately ripped (confidence 30) [AC509D40]
Track 5 accurately ripped (confidence 29) [6A75C04F]
Track 6 accurately ripped (confidence 30) [7CA5B522]
Track 7 accurately ripped (confidence 30) [8D5724EC]
Track 8 accurately ripped (confidence 30) [C59D96D4]
Track 9 accurately ripped (confidence 30) [AA62050C]
Track 10 accurately ripped (confidence 30) [23C81B49]
Track 11 accurately ripped (confidence 30) [6D93369D]
Track 12 accurately ripped (confidence 30) [1A2792A1]
Track 13 accurately ripped (confidence 30) [EE9DC4DD]

All tracks accurately ripped

End of status report
Exact Audio Copy V0.99 prebeta 5 from 4. May 2009

EAC extraction logfile from 25. August 2010, 21:58

Wagner / Siegfried (Karl Böhm, Orchester der Bayreuther Festspiele) [CD 1-4]

Used drive : ASUS DRW-1814BLT Adapter: 2 ID: 2

Read mode : Secure
Utilize accurate stream : Yes
Defeat audio cache : Yes
Make use of C2 pointers : No

Read offset correction : 6
Overread into Lead-In and Lead-Out : No
Fill up missing offset samples with silence : Yes
Delete leading and trailing silent blocks : No
Null samples used in CRC calculations : Yes
Used interface : Native Win32 interface for Win NT & 2000

Used output format : Internal WAV Routines
Sample format : 44.100 Hz; 16 Bit; Stereo TOC of the extracted CD

Track | Start | Length | Start sector | End sector
---------------------------------------------------------
1 | 0:00.33 | 3:59.50 | 33 | 18007
2 | 4:00.08 | 6:11.07 | 18008 | 45839
3 | 10:11.15 | 2:54.25 | 45840 | 58914
4 | 13:05.40 | 5:18.03 | 58915 | 82767
5 | 18:23.43 | 5:01.62 | 82768 | 105404
6 | 23:25.30 | 2:44.45 | 105405 | 117749
7 | 26:10.00 | 3:41.68 | 117750 | 134392
8 | 29:51.68 | 3:37.57 | 134393 | 150724
9 | 33:29.50 | 6:01.20 | 150725 | 177819
10 | 39:30.70 | 3:57.63 | 177820 | 195657
11 | 43:28.58 | 5:31.12 | 195658 | 220494
12 | 48:59.70 | 2:13.38 | 220495 | 230507 Range status and errors

Selected range

Filename K:EACSiegfried CD1.wav

Peak level 94.3 %
Range quality 100.0 %
Copy CRC E2DE4172
Copy OK

No errors occurred


AccurateRip summary

Track 1 accurately ripped (confidence 9) [485BD155]
Track 2 accurately ripped (confidence 9) [6B3D6F40]
Track 3 accurately ripped (confidence 9) [DAFC156F]
Track 4 accurately ripped (confidence 9) [C9AF7CAF]
Track 5 accurately ripped (confidence 9) [FAB2E44F]
Track 6 accurately ripped (confidence 9) [F6D5C736]
Track 7 accurately ripped (confidence 9) [2CE682C1]
Track 8 accurately ripped (confidence 9) [9A6B633B]
Track 9 accurately ripped (confidence 9) [3EDBFB32]
Track 10 accurately ripped (confidence 9) [CE73A15E]
Track 11 accurately ripped (confidence 9) [1A99AB5B]
Track 12 accurately ripped (confidence 9) [84F4471F]

All tracks accurately ripped

End of status report
Exact Audio Copy V0.99 prebeta 5 from 4. May 2009

EAC extraction logfile from 25. August 2010, 22:22

Wagner / Siegfried (Karl Böhm, Orchester der Bayreuther Festspiele) [CD 2-4]

Used drive : ASUS DRW-1814BLT Adapter: 2 ID: 2

Read mode : Secure
Utilize accurate stream : Yes
Defeat audio cache : Yes
Make use of C2 pointers : No

Read offset correction : 6
Overread into Lead-In and Lead-Out : No
Fill up missing offset samples with silence : Yes
Delete leading and trailing silent blocks : No
Null samples used in CRC calculations : Yes
Used interface : Native Win32 interface for Win NT & 2000

Used output format : Internal WAV Routines
Sample format : 44.100 Hz; 16 Bit; Stereo TOC of the extracted CD

Track | Start | Length | Start sector | End sector
---------------------------------------------------------
1 | 0:00.33 | 1:53.72 | 33 | 8579
2 | 1:54.30 | 4:11.03 | 8580 | 27407
3 | 6:05.33 | 4:34.55 | 27408 | 48012
4 | 10:40.13 | 3:25.12 | 48013 | 63399
5 | 14:05.25 | 7:37.70 | 63400 | 97744
6 | 21:43.20 | 2:50.03 | 97745 | 110497
7 | 24:33.23 | 3:07.10 | 110498 | 124532
8 | 27:40.33 | 4:49.57 | 124533 | 146264
9 | 32:30.15 | 4:46.43 | 146265 | 167757
10 | 37:16.58 | 5:23.65 | 167758 | 192047
11 | 42:40.48 | 2:03.27 | 192048 | 201299
12 | 44:44.00 | 3:35.40 | 201300 | 217464
13 | 48:19.40 | 3:24.60 | 217465 | 232824
14 | 51:44.25 | 2:24.68 | 232825 | 243692
15 | 54:09.18 | 1:44.15 | 243693 | 251507 Range status and errors

Selected range

Filename K:EACSiegfried CD2.wav

Peak level 83.8 %
Range quality 100.0 %
Copy CRC 65D566CA
Copy OK

No errors occurred


AccurateRip summary

Track 1 accurately ripped (confidence 5) [EA5ACADD]
Track 2 accurately ripped (confidence 5) [CCAC7389]
Track 3 accurately ripped (confidence 6) [1724B0A3]
Track 4 accurately ripped (confidence 6) [2F8870A3]
Track 5 accurately ripped (confidence 6) [34F5F4AA]
Track 6 accurately ripped (confidence 6) [6ED822B7]
Track 7 accurately ripped (confidence 6) [ABA21E6F]
Track 8 accurately ripped (confidence 6) [51600319]
Track 9 accurately ripped (confidence 6) [7BBAF486]
Track 10 accurately ripped (confidence 6) [8C3AC323]
Track 11 accurately ripped (confidence 6) [F9E4476E]
Track 12 accurately ripped (confidence 6) [EECDF114]
Track 13 accurately ripped (confidence 6) [F5A0150F]
Track 14 accurately ripped (confidence 6) [D8A0F737]
Track 15 accurately ripped (confidence 6) [2FF3E6A6]

All tracks accurately ripped

End of status report
Exact Audio Copy V0.99 prebeta 5 from 4. May 2009

EAC extraction logfile from 25. August 2010, 23:05

Wagner / Siegfried (Karl Böhm, Orchester der Bayreuther Festspiele) [CD 3-4]

Used drive : ASUS DRW-1814BLT Adapter: 2 ID: 2

Read mode : Secure
Utilize accurate stream : Yes
Defeat audio cache : Yes
Make use of C2 pointers : No

Read offset correction : 6
Overread into Lead-In and Lead-Out : No
Fill up missing offset samples with silence : Yes
Delete leading and trailing silent blocks : No
Null samples used in CRC calculations : Yes
Used interface : Native Win32 interface for Win NT & 2000

Used output format : Internal WAV Routines
Sample format : 44.100 Hz; 16 Bit; Stereo TOC of the extracted CD

Track | Start | Length | Start sector | End sector
---------------------------------------------------------
1 | 0:00.33 | 2:43.50 | 33 | 12307
2 | 2:44.08 | 3:01.05 | 12308 | 25887
3 | 5:45.13 | 2:32.27 | 25888 | 37314
4 | 8:17.40 | 1:35.03 | 37315 | 44442
5 | 9:52.43 | 2:15.17 | 44443 | 54584
6 | 12:07.60 | 5:10.70 | 54585 | 77904
7 | 17:18.55 | 1:58.58 | 77905 | 86812
8 | 19:17.38 | 4:49.22 | 86813 | 108509
9 | 24:06.60 | 3:01.25 | 108510 | 122109
10 | 27:08.10 | 3:48.00 | 122110 | 139209
11 | 30:56.10 | 6:04.40 | 139210 | 166549
12 | 37:00.50 | 3:50.58 | 166550 | 183857
13 | 40:51.33 | 2:10.15 | 183858 | 193622
14 | 43:01.48 | 2:02.15 | 193623 | 202787
15 | 45:03.63 | 9:30.00 | 202788 | 245537
16 | 54:33.63 | 3:31.50 | 245538 | 261412
17 | 58:05.38 | 0:57.70 | 261413 | 265757 Range status and errors

Selected range

Filename K:EACSiegfried CD3.wav

Peak level 90.0 %
Range quality 99.9 %
Copy CRC 8777D5C8
Copy OK

No errors occurred


AccurateRip summary

Track 1 accurately ripped (confidence 30) [0D44DF3F]
Track 2 accurately ripped (confidence 30) [490D9B9E]
Track 3 accurately ripped (confidence 31) [8EA9B5C7]
Track 4 accurately ripped (confidence 31) [5D90D0E3]
Track 5 accurately ripped (confidence 31) [4FCBB8A6]
Track 6 accurately ripped (confidence 31) [8B2861FA]
Track 7 accurately ripped (confidence 31) [C2E132CC]
Track 8 accurately ripped (confidence 31) [CB785F83]
Track 9 accurately ripped (confidence 31) [61BB564A]
Track 10 accurately ripped (confidence 31) [F6ED9852]
Track 11 accurately ripped (confidence 31) [3C57D672]
Track 12 accurately ripped (confidence 31) [92AFE8FE]
Track 13 accurately ripped (confidence 31) [9D69F489]
Track 14 accurately ripped (confidence 31) [13F5FD0C]
Track 15 accurately ripped (confidence 31) [77362FBB]
Track 16 accurately ripped (confidence 31) [D4A828B4]
Track 17 accurately ripped (confidence 31) [6CBAB0A0]

All tracks accurately ripped

End of status report
Exact Audio Copy V0.99 prebeta 5 from 4. May 2009

EAC extraction logfile from 25. August 2010, 23:31

Wagner / Siegfried (Karl Böhm, Orchester der Bayreuther Festspiele) [CD 4-4]

Used drive : ASUS DRW-1814BLT Adapter: 2 ID: 2

Read mode : Secure
Utilize accurate stream : Yes
Defeat audio cache : Yes
Make use of C2 pointers : No

Read offset correction : 6
Overread into Lead-In and Lead-Out : No
Fill up missing offset samples with silence : Yes
Delete leading and trailing silent blocks : No
Null samples used in CRC calculations : Yes
Used interface : Native Win32 interface for Win NT & 2000

Used output format : Internal WAV Routines
Sample format : 44.100 Hz; 16 Bit; Stereo TOC of the extracted CD

Track | Start | Length | Start sector | End sector
---------------------------------------------------------
1 | 0:00.33 | 5:43.15 | 33 | 25772
2 | 5:43.48 | 5:31.62 | 25773 | 50659
3 | 11:15.35 | 2:43.40 | 50660 | 62924
4 | 13:59.00 | 2:27.18 | 62925 | 73967
5 | 16:26.18 | 3:54.45 | 73968 | 91562
6 | 20:20.63 | 7:10.02 | 91563 | 123814
7 | 27:30.65 | 5:31.35 | 123815 | 148674
8 | 33:02.25 | 5:52.50 | 148675 | 175124
9 | 38:55.00 | 7:46.33 | 175125 | 210107
10 | 46:41.33 | 10:53.00 | 210108 | 259082 Range status and errors

Selected range

Filename K:EACSiegfried CD4.wav

Peak level 99.1 %
Range quality 99.9 %
Copy CRC 2B0951F4
Copy OK

No errors occurred


AccurateRip summary

Track 1 accurately ripped (confidence 27) [4928F33C]
Track 2 accurately ripped (confidence 27) [753CE926]
Track 3 accurately ripped (confidence 27) [078A2181]
Track 4 accurately ripped (confidence 26) [2C701690]
Track 5 accurately ripped (confidence 27) [20A50279]
Track 6 accurately ripped (confidence 26) [4BCE1A75]
Track 7 accurately ripped (confidence 27) [3C291589]
Track 8 accurately ripped (confidence 27) [1CC054B0]
Track 9 accurately ripped (confidence 27) [BF9966F1]
Track 10 accurately ripped (confidence 4) [45E6F673]

All tracks accurately ripped

End of status report

Dynamic Range LOGs
foobar2000 1.1.14a / Dynamic Range Meter 1.1.1
log date: 2014-12-02 17:02:46

--------------------------------------------------------------------------------
Analyzed: Wagner / Das Rheingold (Karl Bohm, Orchester der Bayreuther Festspiele) [CD 1-2]
--------------------------------------------------------------------------------

DR Peak RMS Duration Track
--------------------------------------------------------------------------------
DR13 -7.10 dB -25.97 dB 3:33 01-Prelude [Das Rheingold - Bayreuth - 1971]
DR13 -5.99 dB -23.94 dB 2:17 02-Scene 1 - Weia ! Waga ! Woge, du Welle !
DR14 -1.95 dB -23.07 dB 4:46 03-Scene 1 - Garstig glatter glitschiger Glimmer!
DR14 -4.83 dB -24.43 dB 2:15 04-Scene 1 - Wallala! Lalaleia! Leialalei!
DR12 -0.24 dB -20.23 dB 6:04 05-Scene 1 - Lugt, Schwestern! Die Weckerin lacht in den Grund!
DR11 -1.18 dB -19.92 dB 1:33 06-Scene 1 - Der Welt Erbe gewänn' ich zu eigen durch dich
DR12 -6.88 dB -27.08 dB 2:23 07-Scene 1 - Orchesterzwischenspiel
DR14 -6.26 dB -25.87 dB 3:30 08-Scene 2 - Wotan ! Gemahl ! Erwache !
DR14 -1.24 dB -23.00 dB 5:44 09-Scene 2 - Nur Wonne schafft dir, was mich erschreckt
DR14 -2.11 dB -22.38 dB 6:55 10-Scene 2 - Sanft schloß Schlaf dein Aug
DR12 -3.59 dB -20.20 dB 1:30 11-Scene 2 - Zu mir, Freia!
DR17 -1.12 dB -24.83 dB 3:40 12-Scene 2 - Endlich, Loge!
DR15 -3.05 dB -23.99 dB 5:56 13-Scene 2 - Immer ist Undank Loges Lohn
DR17 -2.50 dB -25.62 dB 4:19 14-Scene 2 - Taugte wohl des goldnen Tandes
DR15 -1.16 dB -23.52 dB 4:35 15-Scene 2 - Hör', Wotan, der Harrenden Wort!
DR16 -2.58 dB -25.03 dB 4:53 16-Scene 2 - Jetzt fand ich's! Hört, was euch fehlt!
DR10 -1.83 dB -18.25 dB 1:44 17-Scene 2 - Orchesterzwischenspiel; Abstieg nach Nibelheim
DR15 -0.60 dB -22.14 dB 3:51 18-Scene 3 - Hehe ! hehe ! hieher ! hieher!
--------------------------------------------------------------------------------

Number of tracks: 18
Official DR value: DR14

Samplerate: 44100 Hz
Channels: 2
Bits per sample: 16
Bitrate: 654 kbps
Codec: FLAC
================================================================================

--------------------------------------------------------------------------------
Analyzed: Wagner / Das Rheingold (Karl Böhm, Orchester der Bayreuther Festspiele) [CD 2-2]
--------------------------------------------------------------------------------

DR Peak RMS Duration Track
--------------------------------------------------------------------------------
DR16 -3.12 dB -25.52 dB 4:04 01-Scene 3 - Wer häfe mir ¿
DR12 -0.81 dB -20.05 dB 2:25 02-Scene 3 - Mit eurem Gefrage
DR15 -3.07 dB -24.22 dB 4:35 03-Scene 3 - Was wollt ihr hier ¿
DR15 -4.69 dB -25.33 dB 4:45 04-Scene 3 - Habt acht!
DR15 -3.80 dB -26.58 dB 3:08 05-Scene 3 - Riesen-Wurm winde sich ringelnd
DR12 -3.38 dB -21.37 dB 3:31 06-Scene 3 - Orchesterzwischenspiel; Aufstieg aus Nibelheim
DR15 -6.86 dB -26.58 dB 2:25 07-Scene 4 - Da, Vetter, sitze du fest!
DR14 -2.31 dB -22.28 dB 3:28 08-Scene 4 - Wohlan, die Nibelungen rief ich mir nah
DR14 -1.95 dB -21.60 dB 4:04 09-Scene 4 - Zu deiner Lösung musst du ihn lassen
DR14 -2.02 dB -21.74 dB 3:19 10-Scene 4 - Bin ich nun frei ¿ (Alberichs Fluch)
DR13 -5.73 dB -25.31 dB 2:39 11-Scene 4 - Lauschtest du seinem Liebesgruß ¿
DR14 -4.42 dB -24.61 dB 2:44 12-Scene 4 - Halt! Nicht sie berührt!
DR14 -4.25 dB -23.93 dB 2:18 13-Scene 4 - Nicht so leicht und locker gefügt!
DR13 -1.48 dB -21.04 dB 2:21 14-Scene 4 - Freia, die Schöne, schau' ich nicht mehr
DR15 -4.74 dB -25.12 dB 4:53 15-Scene 4 - Weiche, Wotan, weiche!
DR13 -3.12 dB -21.60 dB 3:17 16-Scene 4 - Hört, ihr Riesen! Zurück und harret
DR12 -5.45 dB -24.52 dB 2:32 17-Scene 4 - Furchtbar nun erfind' ich des Fluches Kraft
DR12 -1.87 dB -20.61 dB 2:22 18-Scene 4 - Schwüles Gedünst schwebt in der Luft
DR14 -2.15 dB -23.03 dB 5:06 19-Scene 4 - Zur Burg führt die Brücke
DR11 -2.78 dB -18.97 dB 3:22 20-Scene 4 - Rheingold! Rheingold!
--------------------------------------------------------------------------------

Number of tracks: 20
Official DR value: DR14

Samplerate: 44100 Hz
Channels: 2
Bits per sample: 16
Bitrate: 650 kbps
Codec: FLAC
================================================================================

foobar2000 1.1.14a / Dynamic Range Meter 1.1.1
log date: 2014-12-02 17:07:20

--------------------------------------------------------------------------------
Analyzed: Wagner / Die Walküre (Karl Böhm, Orchester der Bayreuther Festspiele) [CD 1-4]
--------------------------------------------------------------------------------

DR Peak RMS Duration Track
--------------------------------------------------------------------------------
DR12 -0.46 dB -19.42 dB 3:50 01-Prelude [Die Walküre - Bayreuth - 1967]
DR15 -3.07 dB -25.52 dB 2:41 02-Act I. Scene 1 - Wes' Herd dies auch sei, hier muß ich rasten
DR15 -3.26 dB -24.32 dB 9:15 03-Act I. Scene 1 - Kühlende Labung gab mir der Quell
DR17 -3.62 dB -26.12 dB 4:50 04-Act I. Scene 2 - Müd am Herd fand ich den Mann
DR14 -4.82 dB -23.97 dB 4:01 05-Act I. Scene 2 - Friedmund darf ich nicht heißen
DR13 -4.63 dB -22.57 dB 5:42 06-Act I. Scene 2 - Aus dem Wald trieb es mich fort
DR15 -2.58 dB -23.92 dB 5:06 07-Act I. Scene 2 - Ich weiß ein wildes Geschlecht
DR13 -2.52 dB -21.80 dB 6:49 08-Act I. Scene 3 - Ein Schwert verhieß mir der Vater
DR12 -1.97 dB -19.27 dB 5:33 09-Act I. Scene 3 - Der Männer Sippe saß hier im Saal
DR12 -0.62 dB -19.17 dB 9:14 10-Act I. Scene 3 - Winterstürme wichen dem Wonnemond, Du bist der Lenz
DR13 -1.19 dB -17.33 dB 5:00 11-Act I. Scene 3 - Wehwalt heißt du fürwahr ¿ - Siegmund heiß ich
--------------------------------------------------------------------------------

Number of tracks: 11
Official DR value: DR14

Samplerate: 44100 Hz
Channels: 2
Bits per sample: 16
Bitrate: 660 kbps
Codec: FLAC
================================================================================

--------------------------------------------------------------------------------
Analyzed: Wagner / Die Walküre (Karl Böhm, Orchester der Bayreuther Festspiele) [CD 2-4]
--------------------------------------------------------------------------------

DR Peak RMS Duration Track
--------------------------------------------------------------------------------
DR12 -0.50 dB -16.91 dB 4:55 01-Act II. Prelude - Scene 1 - Nun zäume dein Roß - Hojotoho
DR15 -2.99 dB -22.94 dB 3:21 02-Act II. Scene 1 - Der alte Sturm, die alte Müh'!
DR14 -1.74 dB -21.67 dB 9:03 03-Act II. Scene 1 - Heut hast du's erlebt So ist es denn aus
DR14 -1.52 dB -22.09 dB 4:55 04-Act II. Scene 1 - Was verlangst du ¿ Dort kommt deine kühne Maid
DR12 -1.60 dB -21.06 dB 3:15 05-Act II. Scene 2 - Schlimm, fürcht ich, schloss der Streit
DR16 -1.32 dB -24.91 dB 6:16 06-Act II. Scene 2 - Laß ich's verlauten - Was keinem in Worten ich künde
DR13 -1.09 dB -18.62 dB 13:02 07-Act II. Scene 2 - Ein andres ist's: achte es wohl
DR14 -0.16 dB -20.42 dB 6:02 08-Act II. Scene 2 - So sah ich Siegvater nie
DR13 -0.17 dB -18.81 dB 6:36 09-Act II. Scene 3 - Raste nun hier; gönne dir Ruh - Hinweg! Hinweg! Flieh die E...
--------------------------------------------------------------------------------

Number of tracks: 9
Official DR value: DR14

Samplerate: 44100 Hz
Channels: 2
Bits per sample: 16
Bitrate: 685 kbps
Codec: FLAC
================================================================================

--------------------------------------------------------------------------------
Analyzed: Wagner / Die Walküre (Karl Böhm, Orchester der Bayreuther Festspiele) [CD 3-4]
--------------------------------------------------------------------------------

DR Peak RMS Duration Track
--------------------------------------------------------------------------------
DR16 -1.52 dB -23.20 dB 9:44 01-Act II. Scene 4 - Siegmund, sieh auf mich - Hehr bist du
DR13 -0.30 dB -17.57 dB 7:36 02-Act II. Scene 4 - Du sahest der Walküre sehrenden Blick
DR14 -0.73 dB -20.43 dB 9:18 03-Act II. Scene 5 - Zauberfest bezähmt - Kehrte der Vater nun heim
DR12 -1.23 dB -17.04 dB 8:22 04-Act III. Scene 1 - Hojotoho ! Heiaha ! - Wart ihr Kühnen zu zweit ¿
DR12 -2.43 dB -18.05 dB 3:05 05-Act III. Scene 1 - Schutzt mich und helft mir in höchster Not
DR12 -1.24 dB -17.36 dB 9:39 06-Act III. Scene 1 & 2 - Nicht sehre dich-Fort denn eile & Wo ist Brünnhild', w...
--------------------------------------------------------------------------------

Number of tracks: 6
Official DR value: DR13

Samplerate: 44100 Hz
Channels: 2
Bits per sample: 16
Bitrate: 710 kbps
Codec: FLAC
================================================================================

--------------------------------------------------------------------------------
Analyzed: Wagner / Die Walküre (Karl Böhm, Orchester der Bayreuther Festspiele) [CD 4-4]
--------------------------------------------------------------------------------

DR Peak RMS Duration Track
--------------------------------------------------------------------------------
DR13 -0.33 dB -19.62 dB 9:43 01-Act III. Scene 2 - Hier bin ich, Vater - Nicht straf' ich dich erst
DR14 -1.22 dB -21.62 dB 10:15 02-Act III. Scene 3 - War es so schmächlich ¿ Nicht weise bin ich
DR12 -4.16 dB -21.72 dB 3:30 03-Act III. Scene 3 - Deinen leichten Sinn - Wohl taugte dir nicht
DR12 -3.02 dB -19.86 dB 5:11 04-Act III. Scene 3 - Du zeugtest ein edles Geschlecht - In festen Schlaf
DR13 -0.57 dB -20.20 dB 10:17 05-Act III. Scene 3 - Leb wohl, du kühnes, herrliches Kind!
DR11 -3.13 dB -18.95 dB 4:17 06-Act III. Scene 3 - Loge, hör! Lausche hieher!
--------------------------------------------------------------------------------

Number of tracks: 6
Official DR value: DR13

Samplerate: 44100 Hz
Channels: 2
Bits per sample: 16
Bitrate: 665 kbps
Codec: FLAC
================================================================================

foobar2000 1.1.14a / Dynamic Range Meter 1.1.1
log date: 2014-12-02 17:09:36

--------------------------------------------------------------------------------
Analyzed: Wagner / Götterdämmerung (Karl Böhm, Chor und Orchester der Bayreuther Festspiele) [...
--------------------------------------------------------------------------------

DR Peak RMS Duration Track
--------------------------------------------------------------------------------
DR13 -2.42 dB -20.27 dB 4:20 01-Act I. Scene 2 - Deinem Bruder bot ich mich zum Mann
DR13 -4.48 dB -22.97 dB 2:49 01-Act II. Prelude
DR13 -2.32 dB -20.58 dB 6:20 01-Act III. Scene 1 - Siegfried! (Rheintöchter, Siegfried)
DR14 -2.33 dB -20.26 dB 6:02 02-Act I. Scene 2 - Blühenden Lebens labendes Blut
DR15 -0.81 dB -21.99 dB 7:28 02-Act II. Scene 1 - Schläfst du, Hagen, mein Sohn ¿
DR13 -1.03 dB -19.52 dB 6:04 02-Act III. Scene 1 - Ihr listigen Frauen, laßt das sein!
DR13 -2.36 dB -21.15 dB 3:48 03-Act I. Scene 2 - Hier sitz ich zur Wacht
DR11 -7.79 dB -24.99 dB 1:59 03-Act II. Scene 1 - Orchesterzwischenspiel
DR13 -2.60 dB -19.88 dB 4:16 03-Act III. Scene 2 - Hoiho! (Hagen, Chor, Siegfried)
DR14 -2.00 dB -25.17 dB 5:47 04-Act I. Scene 2 - Orchesterzwischenspiel
DR14 -0.40 dB -19.06 dB 4:22 04-Act II. Scene 2 - Hoiho, Hagen! Müder Mann!
DR12 -3.39 dB -19.93 dB 2:27 04-Act III. Scene 2 - Trink, Gunther, trink! (Siegfried, Gunther, Hagen)
DR14 -1.57 dB -20.24 dB 7:28 05-Act I. Scene 3 - Altgewohntes Geräusch raunt meinem Ohr die Ferne
DR12 -2.00 dB -17.42 dB 9:02 05-Act II. Scene 3 - Hoiho! Ihr Gibichsmannen
DR15 -0.70 dB -20.85 dB 9:34 05-Act III. Scene 2 - Mime hieß ein mürrischer Zwerg
DR13 -2.81 dB -22.24 dB 10:24 06-Act I. Scene 3 - Höre mit Sinn, was ich dir sage
DR11 -3.77 dB -19.65 dB 1:10 06-Act II. Scene 4 - Heil dir, Gunther
DR12 -1.82 dB -22.24 dB 3:38 06-Act III. Scene 2 - Brünnhilde, heilige Braut! (Siegfried)
DR13 -0.82 dB -19.14 dB 8:34 07-Act I. Scene 3 - Welch banger Träume Mären
DR11 -2.61 dB -19.23 dB 3:39 07-Act II. Scene 4 - Brünnhild', die hehrste Frau
DR13 -1.08 dB -20.07 dB 6:48 07-Act III. Scene 2 - Orchesterzwischenspiel: Trauermarsch
DR13 -1.25 dB -20.47 dB 8:42 08-Act I. Scene 3 - Brünnhild'! Ein Freier kam
DR14 -2.70 dB -22.26 dB 3:15 08-Act II. Scene 4 - Was müht Brünnhildes Blick ¿
DR13 -0.73 dB -19.98 dB 7:18 08-Act III. Scene 3 - War das sein Horn ¿ (Gutrune, Hagen, Gunther)
DR11 -2.22 dB -17.83 dB 7:17 09-Act II. Scene 4 - Ha! Dieser war es, der mir den Ring entriß
DR12 -2.56 dB -20.84 dB 3:20 09-Act III. Scene 3 - Schweigt eures Jammers jauchzenden Schwall
DR12 -2.76 dB -19.56 dB 6:57 10-Act II. Scene 4 - Helle Wehr! Heilige Waffe!
DR14 -1.69 dB -21.01 dB 7:20 10-Act III. Scene 3 - Starke Scheite schichtet mir dort (Brünnhilde)
DR13 -2.80 dB -21.28 dB 7:20 11-Act II. Scene 5 - Welches Unholds List liegt hier verhohlen ¿
DR12 -1.19 dB -19.59 dB 3:34 11-Act III. Scene 3 - Mein Erbe nun nehm' ich zu eigen (Brünnhilde)
DR12 -1.15 dB -18.18 dB 6:23 12-Act II. Scene 5 - Dir hilft kein Hirn
DR11 -2.89 dB -17.34 dB 2:02 12-Act III. Scene 3 - Grane, mein Roß, sei mir gegrüßt! (Brünnhilde)
DR12 -3.53 dB -22.19 dB 6:56 13-Act III. Prelude - Scene 1 - Frau Sonne sendet lichte Strahlen
DR12 -1.23 dB -16.73 dB 4:00 13-Act III. Scene 3 - Zurück vom Ring! (Hagen)
--------------------------------------------------------------------------------

Number of tracks: 34
Official DR value: DR13

Samplerate: 44100 Hz
Channels: 2
Bits per sample: 16
Bitrate: 692 kbps
Codec: FLAC
================================================================================

--------------------------------------------------------------------------------
Analyzed: Wagner / Götterdämmerung (Karl Böhm, Chor und Orchester der Bayreuther Festspiele)
--------------------------------------------------------------------------------

DR Peak RMS Duration Track
--------------------------------------------------------------------------------
DR14 -2.09 dB -22.47 dB 9:32 01-Prologue - Welch Licht leuchtet dort ¿
DR14 -1.24 dB -21.67 dB 6:14 02-Prologue - Wisset ihr noch, so windet von neunem das Seil
DR11 -4.77 dB -23.50 dB 2:53 03-Prologue - Orchesterzwischenspiel (Tagesanbruch)
DR13 -1.90 dB -19.54 dB 8:48 04-Prologue - Zu neuen Taten, teurer Helde
DR12 -1.30 dB -17.97 dB 2:34 05-Prologue - O heilige Götter! Hehre Geschlechter!
DR14 -1.42 dB -21.52 dB 5:25 06-Prologue - Orchesterzwischenspiel (Siegfrieds Rheinfart)
DR14 -4.06 dB -21.82 dB 6:14 07-Act I. Scene 1 - Nun hör, Hagen, sage mir, Held
DR13 -1.62 dB -20.27 dB 6:42 08-Act I. Scene 1 - Brächte Siegfrid die Braut dir heim
DR14 -1.08 dB -21.20 dB 6:24 09-Act I. Scene 2 - Heil! Siegfried, teurer Held
DR13 -1.44 dB -24.35 dB 3:26 10-Act I. Scene 2 - Willkommen, Gast, in Gibichs Haus
--------------------------------------------------------------------------------

Number of tracks: 10
Official DR value: DR13

Samplerate: 44100 Hz
Channels: 2
Bits per sample: 16
Bitrate: 668 kbps
Codec: FLAC
================================================================================

foobar2000 1.1.14a / Dynamic Range Meter 1.1.1
log date: 2014-12-02 17:11:00

--------------------------------------------------------------------------------
Analyzed: Wagner / Siegfried (Karl Böhm, Orchester der Bayreuther Festspiele) [CD 1-4]
--------------------------------------------------------------------------------

DR Peak RMS Duration Track
--------------------------------------------------------------------------------
DR16 -4.26 dB -28.04 dB 4:00 01-Act I. Prelude [Siegfried - Bayreuth - 1971]
DR18 -0.99 dB -23.78 dB 6:11 02-Act I. Scene 1 - Zwangvolle Plage! Müh ohne Zweck!
DR14 -2.56 dB -25.47 dB 2:54 03-Act I. Scene 1 - Nun tobst du wieder wie toll
DR16 -4.40 dB -26.69 dB 5:18 04-Act I. Scene 1 - Vieles lehrtest du, Mime
DR16 -3.46 dB -25.85 dB 5:02 05-Act I. Scene 1 - Wo hast du nun, Mime, dein minniges Weibchen
DR17 -2.93 dB -25.26 dB 2:45 06-Act I. Scene 1 - So starb meine Mutter an mir ¿
DR16 -0.50 dB -23.21 dB 3:42 07-Act I. Scene 1 - Das gab mir deine Mutter
DR14 -3.66 dB -23.70 dB 3:38 08-Act I. Scene 2 - Heil dir, weiser Schmied!
DR15 -4.03 dB -25.12 dB 6:01 09-Act I. Scene 2 - Hier sitz' ich am Herd
DR14 -0.98 dB -21.73 dB 3:58 10-Act I. Scene 2 - Viel, Wanderer, weißt du mir
DR16 -3.03 dB -25.03 dB 5:31 11-Act I. Scene 2 - Was zu wissen dir frommt, solltest du fragen
DR16 -2.76 dB -23.01 dB 2:14 12-Act I. Scene 2 - Notung heißt ein neidliches Schwert
--------------------------------------------------------------------------------

Number of tracks: 12
Official DR value: DR15

Samplerate: 44100 Hz
Channels: 2
Bits per sample: 16
Bitrate: 613 kbps
Codec: FLAC
================================================================================

--------------------------------------------------------------------------------
Analyzed: Wagner / Siegfried (Karl Böhm, Orchester der Bayreuther Festspiele) [CD 2-4]
--------------------------------------------------------------------------------

DR Peak RMS Duration Track
--------------------------------------------------------------------------------
DR13 -2.83 dB -22.05 dB 1:54 01-Act I. Scene 3 - Nach eitlen Fernen forschtest du
DR15 -2.86 dB -23.32 dB 4:11 02-Act I. Scene 3 - Verfluchtes Licht! Was flammt dort die Luft ¿
DR15 -3.15 dB -23.11 dB 4:35 03-Act I. Scene 3 - Fühltest du nie im finstren Wald
DR16 -2.43 dB -23.22 dB 3:25 04-Act I. Scene 3 - Her mit den Stücken, fort mit den Stümper!
DR14 -4.51 dB -22.71 dB 7:38 05-Act I. Scene 3 - Notung! Notung! Neidliches Schwert!
DR19 -1.53 dB -23.96 dB 2:50 06-Act I. Scene 3 - Hoho! Hoho! Hohei! Hohei!
DR13 -2.53 dB -21.94 dB 3:07 07-Act I. Scene 3 - Den der Bruder schuf, den schimmerden Reif!
DR17 -5.55 dB -29.69 dB 4:50 08-Act II. Prelude
DR15 -4.77 dB -25.52 dB 4:47 09-Act II. Scene 1 - In Wald und Nacht vor Neidhöhl' halt' ich Wacht
DR14 -3.01 dB -22.98 dB 5:24 10-Act II. Scene 1 - Durch Vertrages Treuerunen
DR15 -3.00 dB -23.89 dB 2:03 11-Act II. Scene 1 - Fafner, Fafner! Erwache, Wurm
DR15 -3.46 dB -24.70 dB 3:36 12-Act II. Scene 1 - Ich lieg' und besitz', laßt mich schlafen!
DR16 -2.65 dB -25.92 dB 3:25 13-Act II. Scene 2 - Wir sind zur Stelle! Bleib hier stehn!
DR14 -4.40 dB -23.18 dB 2:25 14-Act II. Scene 2 - He, du Alter! Ist das alles
DR17 -2.88 dB -27.63 dB 1:44 15-Act II. Scene 2 - Daß der mein Vater nicht ist
--------------------------------------------------------------------------------

Number of tracks: 15
Official DR value: DR15

Samplerate: 44100 Hz
Channels: 2
Bits per sample: 16
Bitrate: 654 kbps
Codec: FLAC
================================================================================

--------------------------------------------------------------------------------
Analyzed: Wagner / Siegfried (Karl Böhm, Orchester der Bayreuther Festspiele) [CD 3-4]
--------------------------------------------------------------------------------

DR Peak RMS Duration Track
--------------------------------------------------------------------------------
DR14 -9.16 dB -30.13 dB 2:44 01-Act II. Scene 2 - Aber, wie sah meine Mutter wohl aus ¿ (Siegfried)
DR14 -7.21 dB -27.67 dB 3:01 02-Act II. Scene 2 - Du holdes Vöglein! Dich hört' ich noch nie
DR16 -1.99 dB -26.71 dB 2:32 03-Act II. Scene 2 - Es schweigt und lauscht
DR8 -11.18 dB -27.38 dB 1:35 04-Act II. Scene 2 - Siegfrieds Hornruf
DR13 -6.28 dB -24.36 dB 2:15 05-Act II. Scene 2 - Haha! da hätte mein Lied mir was Liebes erblasen!
DR14 -1.75 dB -22.04 dB 5:11 06-Act II. Scene 2 - Da lieg, neidischer Kerl
DR14 -6.85 dB -27.72 dB 1:59 07-Act II. Scene 2 - Zur Kunde taugt kein Toter
DR16 -1.11 dB -24.46 dB 4:49 08-Act II. Scene 3 - Wohin schleichst du so eilig und schlau
DR15 -4.24 dB -25.39 dB 3:01 09-Act II. Scene 3 - Willkommen, Siegfried!
DR16 -0.91 dB -23.09 dB 3:48 10-Act II. Scene 3 - Das sagt' ich doch nicht ?
DR15 -5.16 dB -25.00 dB 6:05 11-Act II. Scene 3 - Neides Zoll zahlt Notung
DR13 -1.63 dB -19.99 dB 3:51 12-Act II. Scene 3 - Hei! Siegfried erschlug nun den schlimmen Zwerg!
DR12 -1.17 dB -17.13 dB 2:10 13-Act III. Prelude
DR12 -3.07 dB -19.96 dB 2:02 14-Act III. Scene 1 - Wache, Wala! Wala! Erwach!
DR15 -3.09 dB -23.39 dB 9:30 15-Act III. Scene 1 - Stark ruft das Lied
DR13 -1.58 dB -20.65 dB 3:32 16-Act III. Scene 1 - Dir Unweisen ruf' ich ins Ohr
DR13 -9.01 dB -27.82 dB 0:58 17-Act III. Scene 2 - Dort seh' ich Siegfried nahn
--------------------------------------------------------------------------------

Number of tracks: 17
Official DR value: DR14

Samplerate: 44100 Hz
Channels: 2
Bits per sample: 16
Bitrate: 655 kbps
Codec: FLAC
================================================================================

--------------------------------------------------------------------------------
Analyzed: Wagner / Siegfried (Karl Böhm, Orchester der Bayreuther Festspiele) [CD 4-4]
--------------------------------------------------------------------------------

DR Peak RMS Duration Track
--------------------------------------------------------------------------------
DR17 -2.51 dB -24.40 dB 5:43 01-Act III. Scene 2 - Mein Vöglein schwebte mir fort!
DR14 -0.08 dB -20.89 dB 5:32 02-Act III. Scene 2 - Kenntest du mich, kühner Sproß
DR12 -3.42 dB -20.80 dB 2:44 03-Act III. Scene 2 - Orchesterzwischenspiel
DR13 -24.19 dB -41.37 dB 2:27 04-Act III. Scene 3 - Introduction
DR15 -5.05 dB -30.95 dB 3:55 05-Act III. Scene 3 - Selige Öde auf sonniger Höh'!
DR14 -2.86 dB -23.09 dB 7:10 06-Act III. Scene 3 - Das ist kein Mann
DR13 -2.10 dB -20.70 dB 5:31 07-Act III. Scene 3 - Heil dir, Sonne! Heil dir, Licht
DR13 -3.16 dB -22.54 dB 5:53 08-Act III. Scene 3 - Siegfried! Siegfried! Seliger Held!
DR14 -3.27 dB -23.40 dB 7:46 09-Act III. Scene 3 - Dort seh' ich Grane, mein selig Roß
DR12 -3.39 dB -20.58 dB 10:53 10-Act III. Scene 3 - Ewig war ich, ewig bin ich
--------------------------------------------------------------------------------

Number of tracks: 10
Official DR value: DR14

Samplerate: 44100 Hz
Channels: 2
Bits per sample: 16
Bitrate: 661 kbps
Codec: FLAC
================================================================================



CD Info:

Richard Wagner - Der Ring des Nibelungen (Bayreuther Festspiele 1966/1967)

Label: Philips
Catalog#: 446 057-2
Format: 14 CD Box, Album
Country: Germany
Released: 1967, 2006
Genre: Classical
Style: Opera, Romantic





Das Rheingold

CD1
1. Prelude Das Rheingold - Bayreuth
2. Scene 1 - Weia ! Waga ! Woge, du Welle !
3. Scene 1 - Garstig glatter glitschiger Glimmer!
4. Scene 1 - Wallala! Lalaleia! Leialalei!
5. Scene 1 - Lugt, Schwestern! Die Weckerin lacht in den Grund!
6. Scene 1 - Der Welt Erbe gewдnn' ich zu eigen durch dich
7. Scene 1 - Orchesterzwischenspiel
8. Scene 2 - Wotan ! Gemahl ! Erwache !
9. Scene 2 - Nur Wonne schafft dir, was mich erschreckt
10. Scene 2 - Sanft schloЯ Schlaf dein Aug
11. Scene 2 - Zu mir, Freia!
12. Scene 2 - Endlich, Loge!
13. Scene 2 - Immer ist Undank Loges Lohn
14. Scene 2 - Taugte wohl des goldnen Tandes
15. Scene 2 - Hцr', Wotan, der Harrenden Wort!
16. Scene 2 - Jetzt fand ich's! Hцrt, was euch fehlt!
17. Scene 2 - Orchesterzwischenspiel; Abstieg nach Nibelheim
18. Scene 3 - Hehe ! hehe ! hieher ! hieher!

CD2
1. Scene 3 - Wer hдfe mir ї
2. Scene 3 - Mit eurem Gefrage
3. Scene 3 - Was wollt ihr hier ї
4. Scene 3 - Habt acht!
5. Scene 3 - Riesen-Wurm winde sich ringelnd
6. Scene 3 - Orchesterzwischenspiel; Aufstieg aus Nibelheim
7. Scene 4 - Da, Vetter, sitze du fest!
8. Scene 4 - Wohlan, die Nibelungen rief ich mir nah
9. Scene 4 - Zu deiner Lцsung musst du ihn lassen
10. Scene 4 - Bin ich nun frei ї (Alberichs Fluch)
11. Scene 4 - Lauschtest du seinem LiebesgruЯ ї
12. Scene 4 - Halt! Nicht sie berьhrt!
13. Scene 4 - Nicht so leicht und locker gefьgt!
14. Scene 4 - Freia, die Schцne, schau' ich nicht mehr
15. Scene 4 - Weiche, Wotan, weiche!
16. Scene 4 - Hцrt, ihr Riesen! Zurьck und harret
17. Scene 4 - Furchtbar nun erfind' ich des Fluches Kraft
18. Scene 4 - Schwьles Gedьnst schwebt in der Luft
19. Scene 4 - Zur Burg fьhrt die Brьcke
20. Scene 4 - Rheingold! Rheingold!





Die Walküre

CD1
1. Prelude Die Walkure - Bayreuth
2. Act I. Scene 1 - Wes' Herd dies auch sei, hier muЯ ich rasten
3. Act I. Scene 1 - Kьhlende Labung gab mir der Quell
4. Act I. Scene 2 - Mьd am Herd fand ich den Mann
5. Act I. Scene 2 - Friedmund darf ich nicht heiЯen
6. Act I. Scene 2 - Aus dem Wald trieb es mich fort
7. Act I. Scene 2 - Ich weiЯ ein wildes Geschlecht
8. Act I. Scene 3 - Ein Schwert verhieЯ mir der Vater
9. Act I. Scene 3 - Der Mдnner Sippe saЯ hier im Saal
10. Act I. Scene 3 - Winterstьrme wichen dem Wonnemond, Du bist der Lenz
11. Act I. Scene 3 - Wehwalt heiЯt du fьrwahr ї - Siegmund heiЯ ich

CD2
1. Act II. Prelude - Scene 1 - Nun zдume dein RoЯ - Hojotoho
2. Act II. Scene 1 - Der alte Sturm, die alte Mьh'!
3. Act II. Scene 1 - Heut hast du's erlebt So ist es denn aus
4. Act II. Scene 1 - Was verlangst du ї Dort kommt deine kьhne Maid
5. Act II. Scene 2 - Schlimm, fьrcht ich, schloss der Streit
6. Act II. Scene 2 - LaЯ ich's verlauten - Was keinem in Worten ich kьnde
7. Act II. Scene 2 - Ein andres ist's: achte es wohl
8. Act II. Scene 2 - So sah ich Siegvater nie
9. Act II. Scene 3 - Raste nun hier; gцnne dir Ruh - Hinweg! Hinweg! Flieh die E...

CD3
1. Act II. Scene 4 - Siegmund, sieh auf mich - Hehr bist du
2. Act II. Scene 4 - Du sahest der Walkьre sehrenden Blick
3. Act II. Scene 5 - Zauberfest bezдhmt - Kehrte der Vater nun heim
4. Act III. Scene 1 - Hojotoho ! Heiaha ! - Wart ihr Kьhnen zu zweit ї
5. Act III. Scene 1 - Schutzt mich und helft mir in hцchster Not
6. Act III. Scene 1 & 2 - Nicht sehre dich-Fort denn eile & Wo ist Brьnnhild', w...

CD4
1. Act III. Scene 2 - Hier bin ich, Vater - Nicht straf' ich dich erst
2. Act III. Scene 3 - War es so schmдchlich ї Nicht weise bin ich
3. Act III. Scene 3 - Deinen leichten Sinn - Wohl taugte dir nicht
4. Act III. Scene 3 - Du zeugtest ein edles Geschlecht -



Richard Wagner Gtterdmmerung | Nibelungen | Philips Jackets | Guns N Roses Live Rock Am Ring 2006 | Richard Wagner Walkure | Karl Edward Wagner | Richard Wagner Gtterdmmerung | Metallica Rock Am Ring 2006 | Germany Costa Rica 2006
Free Full Download Richard Wagner - Karl Böhm - Der Ring form MediaFire link RapidShare, ifile.it, Uploaded.to, Zippyshare, FileSonic, turbobit, ul.to, ORON, DepositFiles,rapidgator.net, extabit.com, filefactory.com. Richard Wagner - Karl Böhm - Der Ring Torrent Download with keygen, crack, serial, cdkey,password,1080P,hd, 2015, 2016
Dear visitor, you went to the site as unregistered user.
We encourage you to register .

Add comment

Name:*
E-Mail:*
Comment:
  • bowtiesmilelaughingblushsmileyrelaxedsmirk
    heart_eyeskissing_heartkissing_closed_eyesflushedrelievedsatisfiedgrin
    winkstuck_out_tongue_winking_eyestuck_out_tongue_closed_eyesgrinningkissingstuck_out_tonguesleeping
    worriedfrowninganguishedopen_mouthgrimacingconfusedhushed
    expressionlessunamusedsweat_smilesweatdisappointed_relievedwearypensive
    disappointedconfoundedfearfulcold_sweatperseverecrysob
    joyastonishedscreamtired_faceangryragetriumph
    sleepyyummasksunglassesdizzy_faceimpsmiling_imp
    neutral_faceno_mouthinnocent
Enter the two words shown in the image:

Sitemap We don't Store Any File In Server. The Search and free download links all published by our users.if You Have Any Doubts About Legality Of Content, plz contact us.
  • count 88x31px