Three ballets by Wayne McGregor: Chroma Infra Limen (The Royal Ballet) (2006/2008/2009) BluRay-rip

jone Category: music

Three ballets by Wayne McGregor: Chroma, Infra, Limen (The Royal Ballet) (2006/2008/2009) [BluRay-rip]
Classical | BluRay-rip | AVC | MKV 1920x1080 (16:9) / 8860 kbps / 29,970 fps | 83 min | 6,16GB
Audio: DTS / 6ch / 48.0 KHz / 24 bits

The diversity of Wayne McGregors astonishing talent is demonstrated through Chroma, Infra and Limen, each created for The Royal Ballet, for whom he is resident choreographer. Intimate yet universal, light yet dark, frenetic yet lyrical, McGregor pursues his passion for exploring the inner workings of the human body and mind, his many-layered and beautiful dances providing visual, sensual and kinaesthetic stimulus for the viewer.
Wayne McGregor's Infra: sumptuous beauty and shimmering possibility (The Telegraph)


Cast:
CHROMA (Music by Joby Talbot and Jack White III)
Federico Bonelli, Ricardo Cervera
Tamara Rojo, Mara Galeazzi
Sarah Lamb, Steven McRae
Laura Morera, Ludovic Ondiviela
Eric Underwood, Jonathan Watkins, Edward Watson
Royal Opera House Orchestra
Daniel Capps, conductor
INFRA (Music by Max Richter)
Leanne Benjamin, Ricardo Cervera
Yuhui Choe, Lauren Cuthbertson
Mara Galeazzi, Melissa Hamilton
Ryoichi Hirano, Paul Kay
Marianela Nuñez, Eric Underwood
Jonathan Watkins, Edward Watson
Max Richter Quintet
Robert Clark, piano
LIMEN (Music: Kaija Saariaho 'Notes on Light')
Leanne Benjamin, Yuhui Choe
Mara Galeazzi, Melissa Hamilton
Sarah Lamb, Marianela Nuñez
Leticia Stock, Akane Takada
Tristan Dyer, Paul Kay
Brian Maloney, Steven McRae
Ludovic Ondiviela, Eric Underwood, Edward Watson
Anssi Karttunen, cello
Royal Opera House Orchestra
Barry Wordsworth, conductor

MediaInfo:

Video
ID : 1
Format : AVC
Format/Info : Advanced Video Codec
Format profile : [email protected]
Format settings, CABAC : Yes
Format settings, ReFrames : 2 frames
Format settings, GOP : M=3, N=24
Codec ID : V_MPEG4/ISO/AVC
Duration : 1h 23mn
Bit rate : 8 860 Kbps
Nominal bit rate : 9 322 Kbps
Width : 1 920 pixels
Height : 1 080 pixels
Display aspect ratio : 16:9
Frame rate mode : Constant
Frame rate : 29.970 fps
Color space : YUV
Chroma subsampling : 4:2:0
Bit depth : 8 bits
Scan type : Progressive
Bits/(Pixel*Frame) : 0.143
Stream size : 5.16 GiB (84%)
Writing library : x264 core 142
Encoding settings : cabac=1 / ref=1 / deblock=1:-1:-1 / analyse=0x3:0 / me=hex / subme=5 / psy=0 / mixed_ref=0 / me_range=16 / chroma_me=1 / trellis=0 / 8x8dct=1 / cqm=0 / deadzone=21,11 / fast_pskip=1 / chroma_qp_offset=0 / threads=8 / lookahead_threads=2 / sliced_threads=0 / nr=0 / decimate=1 / interlaced=0 / bluray_compat=0 / constrained_intra=0 / bframes=2 / b_pyramid=0 / b_adapt=1 / b_bias=0 / direct=1 / weightb=1 / open_gop=0 / weightp=0 / keyint=24 / keyint_min=13 / scenecut=40 / intra_refresh=0 / rc=abr / mbtree=0 / bitrate=9322 / ratetol=1.0 / qcomp=0.60 / qpmin=0 / qpmax=69 / qpstep=4 / ip_ratio=1.40 / pb_ratio=1.30 / aq=1:1.00
Default : Yes
Forced : No
Color primaries : BT.709
Transfer characteristics : BT.709
Matrix coefficients : BT.709
Color range : Limited

Audio
ID : 2
Format : DTS
Format/Info : Digital Theater Systems
Mode : 16
Format settings, Endianness : Big
Codec ID : A_DTS
Duration : 1h 23mn
Bit rate mode : Constant
Bit rate : 1 509 Kbps
Channel(s) : 6 channels
Channel positions : Front: L C R, Side: L R, LFE
Sampling rate : 48.0 KHz
Bit depth : 24 bits
Compression mode : Lossy
Stream size : 900 MiB (14%)
Default : Yes
Forced : No

Menu
00:00:00.000 : en:Chapter 01
00:02:50.537 : en:Chapter 02
00:06:20.880 : en:Chapter 03
00:10:03.703 : en:Chapter 04
00:12:51.971 : en:Chapter 05
00:15:51.283 : en:Chapter 06
00:19:15.654 : en:Chapter 07
00:23:59.438 : en:Chapter 08
00:25:00.732 : en:Chapter 01
00:28:57.201 : en:Chapter 02
00:32:07.458 : en:Chapter 03
00:35:11.742 : en:Chapter 04
00:38:21.765 : en:Chapter 05
00:39:52.990 : en:Chapter 06
00:45:48.645 : en:Chapter 07
00:50:14.377 : en:Chapter 08
00:53:32.942 : en:Chapter 09
00:54:35.138 : en:Chapter 01
01:00:08.170 : en:Chapter 02
01:03:33.876 : en:Chapter 03
01:11:13.935 : en:Chapter 04
01:15:07.402 : en:Chapter 05
01:22:23.504 : en:Chapter 06







Mcgregor | 2006 1080P Bluray | Click Bluray 2006 | Royal Rumble 2006 | Step Up Bluray 2006 | Lil Wayne 2008 | The Dark Knight 2008 Imax Bluray 1080P Bluray X264 | Ufc Fight Night 46 Mcgregor Vs Brandao | The Host Bluray 2006 | Black Book 2006 Bluray
Free Full Download Three ballets by Wayne McGregor: Chroma form MediaFire link RapidShare, ifile.it, Uploaded.to, Zippyshare, FileSonic, turbobit, ul.to, ORON, DepositFiles,rapidgator.net, extabit.com, filefactory.com. Three ballets by Wayne McGregor: Chroma Torrent Download with keygen, crack, serial, cdkey,password,1080P,hd, 2015, 2016
Dear visitor, you went to the site as unregistered user.
We encourage you to register .

Add comment

Name:*
E-Mail:*
Comment:
  • bowtiesmilelaughingblushsmileyrelaxedsmirk
    heart_eyeskissing_heartkissing_closed_eyesflushedrelievedsatisfiedgrin
    winkstuck_out_tongue_winking_eyestuck_out_tongue_closed_eyesgrinningkissingstuck_out_tonguesleeping
    worriedfrowninganguishedopen_mouthgrimacingconfusedhushed
    expressionlessunamusedsweat_smilesweatdisappointed_relievedwearypensive
    disappointedconfoundedfearfulcold_sweatperseverecrysob
    joyastonishedscreamtired_faceangryragetriumph
    sleepyyummasksunglassesdizzy_faceimpsmiling_imp
    neutral_faceno_mouthinnocent
Enter the two words shown in the image:

Sitemap We don't Store Any File In Server. The Search and free download links all published by our users.if You Have Any Doubts About Legality Of Content, plz contact us.
  • count 88x31px