Angela Bofill - Let Me Be The One (1984) / Tell Me Tomorrow (1985) 2009 Reissue

jone Category: music

Angela Bofill - Let Me Be The One (1984) / Tell Me Tomorrow (1985) [2009, Reissue]
R&B, Soul/Funk, Electronic, Disco | EAC Rip | FLAC, Tracks+CUE + LOG + Artwork-300dpi (JPEG) | 74:07 Min | 553,22 Mb
Label: Passion Music Ltd./Soul Music.Com (UK) | Released: 2009, February, 5

Released a year after a similar combination reissue of Angela Bofill's 1983 albums (Too Tough/Teaser), soulmusic.com gives her 1984 and 1985 albums similar treatment. Let Me Be the One, a peculiar but occasionally excellent collaboration with the System, leads with its highlights - "Can't Slow Down," the closest Bofill got to making her own "I Feel for You," and the supremely sleek ballad "Let Me Be the One." Tell Me Tomorrow, produced by George Duke, is not as eventful. Only the title track charted, and rightfully so.
Review by Andy Kellman




Release of these albums: "Let Me Be The One" - 1984 [LP Arista Records, Cat.# AL8-8258, USA]; "Tell Me Tomorrow" - 1985 [LP Arista Records, Cat.# AL8-8396, USA]
Release of this CD: 2009, February, 5 [CD Passion Music Ltd./Soul Music.Com (UK), Cat.# SMDC 04 CD / UPC: 5013993110453]
Tracks 1-8: ℗ 1984 & tracks 9-17 ℗ 1985 Arista Records LLC., lisenced courtesy of Sony BMG Music Entertainment (UK) Ltd.
© 2009 Passion Music Ltd.
Manufactured and marketed by Passion Music Ltd.

Tracklist:

"Let Me Be The One" (1984)

01. Can't Slow Down (05:02)
(David Frank & Mic Murphy)
02. Let Me Be The One (03:24)
(Alan Palanker, Angela Bofill, Rick Suchow)
03. Who Knows You Better (03:33)
(Gary Stockdale, Stephen Geyer)
04. You're Always There (05:21)
(Angela Bofill, David Frank & Mic Murphy)
05. Getting Into Love (04:43)
(David Frank & Mic Murphy)
06. No Love In Sight (03:26)
(Angela Bofill, Loree Gold)
07. Love Me For Today (04:25)
(Alan Palanker, Angela Bofill, Derrick Hoitsma)
08. This Is The Start (04:42)
(David Frank & Mic Murphy, Ian McDonald, Paul Pesco)

"Tell Me Tomorrow" (1985)

09. Generate Love (04:38)
(Dennis Lambert, Franne Golde)
10. Tell Me Tomorrow (04:40)
(David Lasley, Randy Goodrum)
11. Midnight Shine (04:06)
(Brian Potter, Frank Wildhorn)
12. I Don't Wanna Come Down (From Love) (05:05)
(Alan Palanker, Angela Bofill)
13. First Time (03:42)
(David Batteau, Don Freeman, Michael Sembello)
14. This Change Of Yours (04:17)
(Louise Porter, Matthew Davis)
15. Still In Love (04:58)
(Derek Bramble)
16. Woman's Intuition (04:14)
(Sam Lorber, Tom Campbell)
17. (If You Wanna Love Me) You're On (03:50)
(David Innes, Jimmy Scott (5), Sam Lorber)

~Let Me Be The One~
Art Direction – Maude Gilman
Backing Vocals – Cindy Mizelle, Lisa Fischer, Mic Murphy, Michelle Cobbs, Sandy Bofill
Bass – Tinker Barfield
Drum Programming – David Frank, Paul Pesco
Drums – Yogi Horton
Engineer – Mario Salvati, Rick Sanchez
Engineer [Drums] – Michael Brauer
Guitar – William Powell, Mickey Leonard, Paul Pesco
Illustration [Cover] – Gil Ashby
Keyboards – Alan Palanker, David Frank
Mixed By – Carl Beatty (tracks: 5), Michael Brauer (tracks: 1 to 4, 6 to 8)
Other [Clothing Design] – Anthony Ferrara
Producer – David Frank, Mic Murphy
Saxophone – Mark Russo

~Tell Me Tomorrow~
Alto Saxophone [Alto Sax] – Mark Russo (tracks: 1, 5)
Art Direction – Donn Davenport
Backing Vocals [Background Vocals] – George Duke (tracks: 7, 8), Howard Hewett (tracks: 1 to 3, 5, 7, 8), Lynn Davis (tracks: 1 to 3, 5 to 9), Shirley Jones (tracks: 1 to 3, 6, 7, 9)
Bass – "Ready" Freddie Washington (tracks: 2, 5, 7), Louis Johnson (tracks: 3, 7)
Cover [Front Cover, Jacket] – Gene Ewing
Drums – John Robinson (tracks: 1 to 5, 7, 9)
Engineer [2nd Engineer] – Mitch Gibson (tracks: 1 to 5, 7, 9)
Engineer [Assistant Engineer] – Khaliq Glover
Engineer [Engineered By] – Erik Zobler
Guitar – Paul Jackson Jr. (tracks: 1 to 5, 7, 9)
Lead Vocals – Angela Bofill
Mixed By [All Tracks Mixed By] – Tommy Vicari
Other [Back Cover, Jumpsuit & Coat By] – Norma Kamali
Other [Front Cover, Necklace By] – Richard Sevrin
Other [Front Cover, Pin & Earrings By], Other [Back Cover, Bracelets By] – Catherine Stein
Other [Hair & Make-up] – Clifford Peterson
Other [Personal Direction] – Vincent Romeo
Other [Stylist] – Jane Hoffman
Percussion – Paulinho Da Costa (tracks: 1 to 3, 5, 6, 9)
Photography By – Garry Gross
Piano [Acoustic Piano] – George Duke (tracks: 1, 4, 5)
Producer – George Duke
Producer [Assistant Producer] – Raymond Jones (tracks: 6, 8)
Producer [Production Assistant] – Alice Murrell
Synthesizer [Dx-7] – George Duke (tracks: 3, 4, 7, 9)
Synthesizer [Memory Moog] – George Duke (tracks: 1 to 3, 7)
Synthesizer [Prophet V] – George Duke (tracks: 1 to 3, 7)
Synthesizer [Synclavier 11] – George Duke (tracks: 1 to 5, 7, 9)
Synthesizer [Yamaha Tx-8] – George Duke (tracks: 2, 5)


EAC log
Exact Audio Copy V0.99 prebeta 5 from 4. May 2009

EAC extraction logfile from 1. January 2010, 9:43

Angela Bofill / Let Me Be The One + Tell Me Tomorrow

Used drive : TSSTcorpCDDVDW SH-S223F Adapter: 0 ID: 1

Read mode : Secure
Utilize accurate stream : Yes
Defeat audio cache : Yes
Make use of C2 pointers : No

Read offset correction : 6
Overread into Lead-In and Lead-Out : No
Fill up missing offset samples with silence : Yes
Delete leading and trailing silent blocks : No
Null samples used in CRC calculations : Yes
Used interface : Native Win32 interface for Win NT & 2000
Gap handling : Appended to previous track

Used output format : User Defined Encoder
Selected bitrate : 320 kBit/s
Quality : High
Add ID3 tag : No
Command line compressor : C:ProgrammeExact Audio CopyFlacflac.exe
Additional command line options : -V -8 -T "artist=%a" -T "title=%t" -T "album=%g" -T "date=%y" -T "tracknumber=%n" -T "genre=%m" %s TOC of the extracted CD

Track | Start | Length | Start sector | End sector
---------------------------------------------------------
1 | 0:00.00 | 5:01.57 | 0 | 22631
2 | 5:01.57 | 3:24.37 | 22632 | 37968
3 | 8:26.19 | 3:33.07 | 37969 | 53950
4 | 11:59.26 | 5:21.36 | 53951 | 78061
5 | 17:20.62 | 4:43.18 | 78062 | 99304
6 | 22:04.05 | 3:26.11 | 99305 | 114765
7 | 25:30.16 | 4:25.14 | 114766 | 134654
8 | 29:55.30 | 4:41.69 | 134655 | 155798
9 | 34:37.24 | 4:37.74 | 155799 | 176647
10 | 39:15.23 | 4:39.43 | 176648 | 197615
11 | 43:54.66 | 4:05.71 | 197616 | 216061
12 | 48:00.62 | 5:05.22 | 216062 | 238958
13 | 53:06.09 | 3:41.51 | 238959 | 255584
14 | 56:47.60 | 4:17.22 | 255585 | 274881
15 | 61:05.07 | 4:57.72 | 274882 | 297228
16 | 66:03.04 | 4:14.06 | 297229 | 316284
17 | 70:17.10 | 3:50.22 | 316285 | 333556 Track 1

Filename H:Eac Ripps1. Can't Slow Down.wav

Pre-gap length 0:00:02.00

Peak level 100.0 %
Track quality 100.0 %
Test CRC E7C06905
Copy CRC E7C06905
Track not present in AccurateRip database
Copy OK

Track 2

Filename H:Eac Ripps2. Let Me Be The One.wav

Pre-gap length 0:00:00.89

Peak level 100.0 %
Track quality 100.0 %
Test CRC A40F878C
Copy CRC A40F878C
Track not present in AccurateRip database
Copy OK

Track 3

Filename H:Eac Ripps3. Who Knows You Better.wav

Pre-gap length 0:00:00.98

Peak level 100.0 %
Track quality 100.0 %
Test CRC 512F123E
Copy CRC 512F123E
Track not present in AccurateRip database
Copy OK

Track 4

Filename H:Eac Ripps4. You're Always There.wav

Pre-gap length 0:00:00.93

Peak level 94.4 %
Track quality 100.0 %
Test CRC EE1C23BE
Copy CRC EE1C23BE
Track not present in AccurateRip database
Copy OK

Track 5

Filename H:Eac Ripps5. Getting Into Love.wav

Pre-gap length 0:00:01.32

Peak level 100.0 %
Track quality 99.9 %
Test CRC 1B196B9F
Copy CRC 1B196B9F
Track not present in AccurateRip database
Copy OK

Track 6

Filename H:Eac Ripps6. No Love In Sight.wav

Pre-gap length 0:00:00.68

Peak level 100.0 %
Track quality 100.0 %
Test CRC 787441C7
Copy CRC 787441C7
Track not present in AccurateRip database
Copy OK

Track 7

Filename H:Eac Ripps7. Love Me For Today.wav

Pre-gap length 0:00:00.86

Peak level 100.0 %
Track quality 100.0 %
Test CRC 8587943D
Copy CRC 8587943D
Track not present in AccurateRip database
Copy OK

Track 8

Filename H:Eac Ripps8. This Is The Start.wav

Pre-gap length 0:00:01.25

Peak level 100.0 %
Track quality 99.9 %
Test CRC F8B16D79
Copy CRC F8B16D79
Track not present in AccurateRip database
Copy OK

Track 9

Filename H:Eac Ripps9. Generate Love.wav

Pre-gap length 0:00:01.57

Peak level 100.0 %
Track quality 100.0 %
Test CRC 4D729DD7
Copy CRC 4D729DD7
Track not present in AccurateRip database
Copy OK

Track 10

Filename H:Eac Ripps10. Tell Me Tomorrow.wav

Pre-gap length 0:00:00.24

Peak level 100.0 %
Track quality 99.9 %
Test CRC 676C903F
Copy CRC 676C903F
Track not present in AccurateRip database
Copy OK

Track 11

Filename H:Eac Ripps11. Midnight Shine.wav

Pre-gap length 0:00:00.82

Peak level 100.0 %
Track quality 100.0 %
Test CRC 13C7321A
Copy CRC 13C7321A
Track not present in AccurateRip database
Copy OK

Track 12

Filename H:Eac Ripps12. I Don't Wanna Come Down (From Love).wav

Pre-gap length 0:00:01.34

Peak level 100.0 %
Track quality 100.0 %
Test CRC 897C13EB
Copy CRC 897C13EB
Track not present in AccurateRip database
Copy OK

Track 13

Filename H:Eac Ripps13. First Time.wav

Pre-gap length 0:00:01.12

Peak level 100.0 %
Track quality 100.0 %
Test CRC E32F8B9C
Copy CRC E32F8B9C
Track not present in AccurateRip database
Copy OK

Track 14

Filename H:Eac Ripps14. This Change Of Yours.wav

Pre-gap length 0:00:01.72

Peak level 100.0 %
Track quality 100.0 %
Test CRC 53C184F8
Copy CRC 53C184F8
Track not present in AccurateRip database
Copy OK

Track 15

Filename H:Eac Ripps15. Still In Love.wav

Pre-gap length 0:00:01.93

Peak level 100.0 %
Track quality 100.0 %
Test CRC 64D32801
Copy CRC 64D32801
Track not present in AccurateRip database
Copy OK

Track 16

Filename H:Eac Ripps16. Woman's Intuition.wav

Pre-gap length 0:00:01.25

Peak level 100.0 %
Track quality 100.0 %
Test CRC B5A8D7A9
Copy CRC B5A8D7A9
Track not present in AccurateRip database
Copy OK

Track 17

Filename H:Eac Ripps17. (If You Wanna Love Me) You're On.wav

Pre-gap length 0:00:00.96

Peak level 100.0 %
Track quality 100.0 %
Test CRC 7F3A8386
Copy CRC 7F3A8386
Track not present in AccurateRip database
Copy OK None of the tracks are present in the AccurateRip database

No errors occurred

End of status report

Dynamic Range Meter log
foobar2000 1.3.7 / Dynamic Range Meter 1.1.1
log date: 2015-10-16 23:51:34

--------------------------------------------------------------------------------
Analyzed: Angela Bofill / Let Me Be The One + Tell Me Tomorrow
--------------------------------------------------------------------------------

DR Peak RMS Duration Track
--------------------------------------------------------------------------------
DR8 0.00 dB -9.33 dB 5:02 01-Can't Slow Down
DR9 0.00 dB -10.62 dB 3:24 02-Let Me Be The One
DR8 0.00 dB -9.50 dB 3:33 03-Who Knows You Better
DR9 -0.50 dB -11.26 dB 5:21 04-You're Always There
DR8 0.00 dB -10.11 dB 4:43 05-Getting Into Love
DR8 0.00 dB -10.45 dB 3:26 06-No Love In Sight
DR9 0.00 dB -10.97 dB 4:25 07-Love Me For Today
DR9 0.00 dB -10.88 dB 4:42 08-This Is The Start
DR9 0.00 dB -10.43 dB 4:38 09-Generate Love
DR8 0.00 dB -10.54 dB 4:40 10-Tell Me Tomorrow
DR9 0.00 dB -10.94 dB 4:06 11-Midnight Shine
DR10 0.00 dB -12.29 dB 5:05 12-I Don't Wanna Come Down (From Love)
DR9 0.00 dB -10.86 dB 3:42 13-First Time
DR9 0.00 dB -10.52 dB 4:17 14-This Change Of Yours
DR10 0.00 dB -11.86 dB 4:58 15-Still In Love
DR10 0.00 dB -11.65 dB 4:14 16-Woman's Intuition
DR10 0.00 dB -11.16 dB 3:50 17-(If You Wanna Love Me) You're On
--------------------------------------------------------------------------------

Number of tracks: 17
Official DR value: DR9

Samplerate: 44100 Hz
Channels: 2
Bits per sample: 16
Bitrate: 1016 kbps
Codec: FLAC
================================================================================


All thanks to - zacki




password: BlondStyle

Uploadable



Angela C Ryan | Angela Model Vid 010 | Angela White 044 | Angela White 11 | His Art Is Deep Angela | Angela S Assassin 003 | Angela Sommers Mp4 | Angela White Pov | Episode 49 Angela | Angela White 070
Free Full Download Angela Bofill - Let Me Be The One form MediaFire link RapidShare, ifile.it, Uploaded.to, Zippyshare, FileSonic, turbobit, ul.to, ORON, DepositFiles,rapidgator.net, extabit.com, filefactory.com. Angela Bofill - Let Me Be The One Torrent Download with keygen, crack, serial, cdkey,password,1080P,hd, 2015, 2016
Dear visitor, you went to the site as unregistered user.
We encourage you to register .

Add comment

Name:*
E-Mail:*
Comment:
  • bowtiesmilelaughingblushsmileyrelaxedsmirk
    heart_eyeskissing_heartkissing_closed_eyesflushedrelievedsatisfiedgrin
    winkstuck_out_tongue_winking_eyestuck_out_tongue_closed_eyesgrinningkissingstuck_out_tonguesleeping
    worriedfrowninganguishedopen_mouthgrimacingconfusedhushed
    expressionlessunamusedsweat_smilesweatdisappointed_relievedwearypensive
    disappointedconfoundedfearfulcold_sweatperseverecrysob
    joyastonishedscreamtired_faceangryragetriumph
    sleepyyummasksunglassesdizzy_faceimpsmiling_imp
    neutral_faceno_mouthinnocent
Enter the two words shown in the image:

Sitemap We don't Store Any File In Server. The Search and free download links all published by our users.if You Have Any Doubts About Legality Of Content, plz contact us.
  • count 88x31px