VA - Cafe Del Mar Jazz 2: Selected by Toni Simonen (2014)

peter Category: music

VA - Café Del Mar Jazz 2: Selected by Toni Simonen (2014)
EAC | FLAC | Tracks (Cue&Log) ~ 382 Mb (incl 5%) | Mp3 (CBR320) ~ 164 Mb (incl 5%) | Scans included
Genre: Lounge, Electro-Jazz, Downtempo | Label: Café Del Mar Music | # 1-2014-106, DL I-122-2014 | Time: 00:56:22

An album that shows the inventiveness of an "essential" recording of Fine Electro-Jazz for all Café Del Mar' collectors. It compiles the efforts of several top European producers, the sounds and styles on display here have strong links to London's electronic scene, the Parisian/American jazz-house community, and Germany's earthy breakbeat maestros. Toni Simonen has succeeded in creating a tight compilation which will excite aficionados of electro beats while even jazz fans will not have any trouble keeping up their interest. Highlights are numerous, from Jakatta' "The other world," Tom Middleton and The Karminski Experience "The Sea". Employing deep house, tittering breaks, and down-tempo attitudes that virtually re-invented the entire electro jazz movement, taking cues from ambient and its chin-stroking underground, songs like "Timeless" or "Zeus" seem to highly respond to the jazz excursions while carrying all the emotional weight of an inspiring collection Sometimes spiced with vocals, and always supported with backings that are sensitive and spare enough to let the work of the main soloist take center stage! But at another level, there's a slightly more modern "cosmic" feel going on too - not one that's too broken or skittish, as in versions of such work from London or Detroit, but cohesively soulful and really stretching out with a warm sense of imagination!"


Tracklist:

01. Tom Middleton - Return To Atlantis (05:42)
02. Jakatta - The Other World (05:31)
03. Jonny Trunk - Zeus (04:28)
04. Vono Box - Teddy Acapulco (05:10)
05. Cinematic Orchestra feat. Fontella Bass - Evolution II (Mr.P Remix) (06:37)
06. Hint - Mutes & Drops (04:06)
07. Black Mighty Orchestra - Black Rain (02:34)
08. Lucky Pierre - Rotspots From The Crap Map (06:11)
09. Grantby - The Jonah (05:30)
10. Karminsky Experience Inc. - The Sea (03:34)
11. 2 Men 4 Soul - So Fine (Trumpet Instrumental) (02:41)
12. Gelka feat. Ella May - Timeless (04:13)


EAC log
Exact Audio Copy V1.0 beta 4 from 7. December 2014

EAC extraction logfile from 30. May 2015, 17:29

Various / Cafe Del Mar Jazz 2

Used drive : ASUS DRW-24B3ST Adapter: 1 ID: 2

Read mode : Secure
Utilize accurate stream : Yes
Defeat audio cache : Yes
Make use of C2 pointers : No

Read offset correction : 6
Overread into Lead-In and Lead-Out : No
Fill up missing offset samples with silence : Yes
Delete leading and trailing silent blocks : No
Null samples used in CRC calculations : Yes
Used interface : Native Win32 interface for Win NT & 2000
Gap handling : Appended to previous track

Used output format : User Defined Encoder
Selected bitrate : 896 kBit/s
Quality : High
Add ID3 tag : No
Command line compressor : C:Program Files (x86)Exact Audio CopyFlacflac.exe
Additional command line options : -8 -V -T "ARTIST=%artist%" -T "TITLE=%title%" -T "ALBUM=%albumtitle%" -T "DATE=%year%" -T "TRACKNUMBER=%tracknr%" -T "GENRE=%genre%" -T "COMMENT=ripped by Oleandris" %source% TOC of the extracted CD

Track | Start | Length | Start sector | End sector
---------------------------------------------------------
1 | 0:00.00 | 5:42.09 | 0 | 25658
2 | 5:42.09 | 5:31.64 | 25659 | 50547
3 | 11:13.73 | 4:28.03 | 50548 | 70650
4 | 15:42.01 | 5:10.11 | 70651 | 93911
5 | 20:52.12 | 6:37.58 | 93912 | 123744
6 | 27:29.70 | 4:06.41 | 123745 | 142235
7 | 31:36.36 | 2:34.48 | 142236 | 153833
8 | 34:11.09 | 6:11.05 | 153834 | 181663
9 | 40:22.14 | 5:30.49 | 181664 | 206462
10 | 45:52.63 | 3:34.38 | 206463 | 222550
11 | 49:27.26 | 2:41.71 | 222551 | 234696
12 | 52:09.22 | 4:13.49 | 234697 | 253720 Track 1

Filename F:AUDIO - I Ambient - Chill Out - Lounge - Easy Listening - Electronic Cafe Del Mar - Jazz 1, 2 (2013, 2014)2014 - Cafe Del Mar - Jazz 21. Tom Middleton - Return To Atlantis.wav

Pre-gap length 0:00:02.00

Peak level 84.0 %
Extraction speed 3.9 X
Track quality 100.0 %
Test CRC 43A7BCBE
Copy CRC 43A7BCBE
Accurately ripped (confidence 2) [C501FDCA] (AR v2)
Copy OK

Track 2

Filename F:AUDIO - I Ambient - Chill Out - Lounge - Easy Listening - Electronic Cafe Del Mar - Jazz 1, 2 (2013, 2014)2014 - Cafe Del Mar - Jazz 22. Jakatta - The Other World.wav

Pre-gap length 0:00:02.00

Peak level 98.7 %
Extraction speed 4.5 X
Track quality 100.0 %
Test CRC 19682889
Copy CRC 19682889
Accurately ripped (confidence 2) [30D1EE56] (AR v2)
Copy OK

Track 3

Filename F:AUDIO - I Ambient - Chill Out - Lounge - Easy Listening - Electronic Cafe Del Mar - Jazz 1, 2 (2013, 2014)2014 - Cafe Del Mar - Jazz 23. Jonny Trunk - Zeus.wav

Pre-gap length 0:00:02.00

Peak level 96.6 %
Extraction speed 4.7 X
Track quality 100.0 %
Test CRC 14E86616
Copy CRC 14E86616
Accurately ripped (confidence 2) [BA476D47] (AR v2)
Copy OK

Track 4

Filename F:AUDIO - I Ambient - Chill Out - Lounge - Easy Listening - Electronic Cafe Del Mar - Jazz 1, 2 (2013, 2014)2014 - Cafe Del Mar - Jazz 24. Vono Box - Teddy Acapulco.wav

Pre-gap length 0:00:02.00

Peak level 100.0 %
Extraction speed 5.1 X
Track quality 100.0 %
Test CRC DF3D7D03
Copy CRC DF3D7D03
Accurately ripped (confidence 2) [3E4F3515] (AR v2)
Copy OK

Track 5

Filename F:AUDIO - I Ambient - Chill Out - Lounge - Easy Listening - Electronic Cafe Del Mar - Jazz 1, 2 (2013, 2014)2014 - Cafe Del Mar - Jazz 25. Cinematic Orchestra feat. Fontella Bass - Evolution II (Mr.P Remix).wav

Pre-gap length 0:00:02.00

Peak level 95.3 %
Extraction speed 5.6 X
Track quality 100.0 %
Test CRC B846333F
Copy CRC B846333F
Accurately ripped (confidence 2) [2CA60309] (AR v2)
Copy OK

Track 6

Filename F:AUDIO - I Ambient - Chill Out - Lounge - Easy Listening - Electronic Cafe Del Mar - Jazz 1, 2 (2013, 2014)2014 - Cafe Del Mar - Jazz 26. Hint - Mutes & Drops.wav

Pre-gap length 0:00:02.00

Peak level 79.1 %
Extraction speed 5.6 X
Track quality 100.0 %
Test CRC 152ECDD7
Copy CRC 152ECDD7
Accurately ripped (confidence 2) [0DAC6C6E] (AR v2)
Copy OK

Track 7

Filename F:AUDIO - I Ambient - Chill Out - Lounge - Easy Listening - Electronic Cafe Del Mar - Jazz 1, 2 (2013, 2014)2014 - Cafe Del Mar - Jazz 27. Black Mighty Orchestra - Black Rain.wav

Pre-gap length 0:00:02.00

Peak level 93.7 %
Extraction speed 5.5 X
Track quality 100.0 %
Test CRC AC3CD333
Copy CRC AC3CD333
Accurately ripped (confidence 2) [9CCFA5A6] (AR v2)
Copy OK

Track 8

Filename F:AUDIO - I Ambient - Chill Out - Lounge - Easy Listening - Electronic Cafe Del Mar - Jazz 1, 2 (2013, 2014)2014 - Cafe Del Mar - Jazz 28. Lucky Pierre - Rotspots From The Crap Map.wav

Pre-gap length 0:00:02.00

Peak level 80.7 %
Extraction speed 6.3 X
Track quality 100.0 %
Test CRC 0669AD5D
Copy CRC 0669AD5D
Accurately ripped (confidence 2) [B10F908A] (AR v2)
Copy OK

Track 9

Filename F:AUDIO - I Ambient - Chill Out - Lounge - Easy Listening - Electronic Cafe Del Mar - Jazz 1, 2 (2013, 2014)2014 - Cafe Del Mar - Jazz 29. Grantby - The Jonah.wav

Pre-gap length 0:00:02.00

Peak level 100.0 %
Extraction speed 5.6 X
Track quality 99.9 %
Test CRC B9B5A745
Copy CRC B9B5A745
Accurately ripped (confidence 2) [F8FE32DE] (AR v2)
Copy OK

Track 10

Filename F:AUDIO - I Ambient - Chill Out - Lounge - Easy Listening - Electronic Cafe Del Mar - Jazz 1, 2 (2013, 2014)2014 - Cafe Del Mar - Jazz 210. Karminsky Experience Inc. - The Sea.wav

Pre-gap length 0:00:02.00

Peak level 95.2 %
Extraction speed 6.5 X
Track quality 100.0 %
Test CRC 0EE4C6EB
Copy CRC 0EE4C6EB
Accurately ripped (confidence 2) [C9312FAB] (AR v2)
Copy OK

Track 11

Filename F:AUDIO - I Ambient - Chill Out - Lounge - Easy Listening - Electronic Cafe Del Mar - Jazz 1, 2 (2013, 2014)2014 - Cafe Del Mar - Jazz 211. 2 Men 4 Soul - So Fine (Trumpet Instrumental).wav

Pre-gap length 0:00:02.00

Peak level 96.6 %
Extraction speed 6.3 X
Track quality 100.0 %
Test CRC C002D134
Copy CRC C002D134
Accurately ripped (confidence 2) [378E20F8] (AR v2)
Copy OK

Track 12

Filename F:AUDIO - I Ambient - Chill Out - Lounge - Easy Listening - Electronic Cafe Del Mar - Jazz 1, 2 (2013, 2014)2014 - Cafe Del Mar - Jazz 212. Gelka feat. Ella May - Timeless.wav

Pre-gap length 0:00:02.00

Peak level 96.6 %
Extraction speed 5.6 X
Track quality 99.9 %
Test CRC FAA3E0A5
Copy CRC FAA3E0A5
Accurately ripped (confidence 2) [329C8CC8] (AR v2)
Copy OK All tracks accurately ripped

No errors occurred

End of status report

---- CUETools DB Plugin V2.1.4

[CTDB TOCID: K6_VsC19FtU.4_EZ0rzIJJBaS.U-] found
Submit result: K6_VsC19FtU.4_EZ0rzIJJBaS.U- has been confirmed
Track | CTDB Status
1 | (4/4) Accurately ripped
2 | (4/4) Accurately ripped
3 | (4/4) Accurately ripped
4 | (4/4) Accurately ripped
5 | (4/4) Accurately ripped
6 | (4/4) Accurately ripped
7 | (4/4) Accurately ripped
8 | (4/4) Accurately ripped
9 | (4/4) Accurately ripped
10 | (4/4) Accurately ripped
11 | (4/4) Accurately ripped
12 | (4/4) Accurately ripped ==== Log checksum 88F827617A7CF5E501AB13967FE29FE5400AE70272B9E82F33C5D46B1AE44E2B ====

DR log
foobar2000 1.2 / Dynamic Range Meter 1.1.1
log date: 2015-06-14 17:37:57

--------------------------------------------------------------------------------
Analyzed: 2 Men 4 Soul / Cafe Del Mar Jazz 2 (1)
Black Mighty Orchestra / Cafe Del Mar Jazz 2 (2)
Cinematic Orchestra feat. Fontella Bass / Cafe Del Mar Jazz 2 (3)
Gelka feat. Ella May / Cafe Del Mar Jazz 2 (4)
Grantby / Cafe Del Mar Jazz 2 (5)
Hint / Cafe Del Mar Jazz 2 (6)
Jakatta / Cafe Del Mar Jazz 2 (7)
Jonny Trunk / Cafe Del Mar Jazz 2 (8)
Karminsky Experience Inc. / Cafe Del Mar Jazz 2 (9)
Lucky Pierre / Cafe Del Mar Jazz 2 (10)
Tom Middleton / Cafe Del Mar Jazz 2 (11)
Vono Box / Cafe Del Mar Jazz 2 (12)
--------------------------------------------------------------------------------

DR Peak RMS Duration Track
--------------------------------------------------------------------------------
DR12 -0.30 dB -12.86 dB 2:42 11-So Fine (Trumpet Instrumental)
DR9 -0.56 dB -11.22 dB 2:35 07-Black Rain
DR7 -0.41 dB -10.17 dB 6:38 05-Evolution II (Mr.P Remix)
DR8 -0.30 dB -9.23 dB 4:14 12-Timeless
DR9 0.00 dB -12.64 dB 5:31 09-The Jonah
DR7 -2.04 dB -10.64 dB 4:07 06-Mutes & Drops
DR8 -0.11 dB -9.89 dB 5:32 02-The Other World
DR5 -0.30 dB -6.58 dB 4:28 03-Zeus
DR10 -0.42 dB -12.97 dB 3:35 10-The Sea
DR6 -1.86 dB -9.25 dB 6:11 08-Rotspots From The Crap Map
DR4 -1.51 dB -8.30 dB 5:42 01-Return To Atlantis
DR10 0.00 dB -11.68 dB 5:10 04-Teddy Acapulco
--------------------------------------------------------------------------------

Number of tracks: 12
Official DR value: DR8

Samplerate: 44100 Hz
Channels: 2
Bits per sample: 16
Bitrate: 801 kbps
Codec: FLAC
================================================================================



All thanks to original releaser - Oleandris








New York Jazz Lounge Jazz Moods Is Safe 1 | Telugu Selected Songs | Neo Jazz 2014 | 2014 New Orleans Jazz Fest | Chillout Jazz 2014 | Toni Morrison Jazz | Selected Ambient Works | Smooth Jazz Caf | Cafe Mambo 2014 | New York Jazz Lounge Jazz Moods Is Safe 1
Free Full Download VA - Cafe Del Mar Jazz 2: Selected by form MediaFire link RapidShare, ifile.it, Uploaded.to, Zippyshare, FileSonic, turbobit, ul.to, ORON, DepositFiles,rapidgator.net, extabit.com, filefactory.com. VA - Cafe Del Mar Jazz 2: Selected by Torrent Download with keygen, crack, serial, cdkey,password,1080P,hd, 2015, 2016
Dear visitor, you went to the site as unregistered user.
We encourage you to register .

Add comment

Name:*
E-Mail:*
Comment:
  • bowtiesmilelaughingblushsmileyrelaxedsmirk
    heart_eyeskissing_heartkissing_closed_eyesflushedrelievedsatisfiedgrin
    winkstuck_out_tongue_winking_eyestuck_out_tongue_closed_eyesgrinningkissingstuck_out_tonguesleeping
    worriedfrowninganguishedopen_mouthgrimacingconfusedhushed
    expressionlessunamusedsweat_smilesweatdisappointed_relievedwearypensive
    disappointedconfoundedfearfulcold_sweatperseverecrysob
    joyastonishedscreamtired_faceangryragetriumph
    sleepyyummasksunglassesdizzy_faceimpsmiling_imp
    neutral_faceno_mouthinnocent
Enter the two words shown in the image:

Sitemap We don't Store Any File In Server. The Search and free download links all published by our users.if You Have Any Doubts About Legality Of Content, plz contact us.
  • count 88x31px