Percy Faith & His Orchestra - Born free / The Windmills Of Your Mind ( 2LP in 1 CD ) CD 2002 Re Up

peter Category: music

Percy Faith & His Orchestra
Born free / Windmills Of Your Mind ( 2 LP in 1 CD ) [ CD 2002 ]

EAC Rip | FLAC-TRACKS+CUE+LOG | 1CD | Scans | 63 Min. | 391 MB
Label: Sony Music Collectables / Catalogue: COL-CD-7428 /
Easy Listening Pop / LP´s Originally Released in 1967 and 1969

Another perfect reissiue by collectibles music,This album contains themes from movies.Most of these songs have been unavailable by Faith since Lps went out.This album contains such songs as somewhere my love, this hotel,And we were lovers,This is my song,Alfie,How are things in Glacca Morra and many more .
All of these songs are beautifully done Faith style.The album empasizes just his orchestra.Their's no chrous here.The original liner notes to born free are included in the bookelet as well as pictures of Faith probebly from born free under the clear cd holder.The liner notes to Windmills of your mind are not included.If your a collector of Percy Faith's music you have to get this cd since many of these songs are on cd for the first time .





Track Listings :

1. Georgy Girl
2. Somewhere My Love (Lara's Theme From "Dr. Zhivago")
3. A Man And A Woman
4. This Hotel
5. And We Were Lovers (Theme From "The Sand Pebbles")
6. The Wishing Doll
7. Born Free
8. This Is My Song
9. Alfie
10. Song From "The Oscar"
11. A Time For Love
12. How Are Things In Glocca Morra?
13. Theme From "The Fox"
14. Funny Girl
15. The Windmills Of Your Mind
16. Star!
17. The Heart Is A Lonely Hunter
18. The Lion In Winter
19. Elvira's Theme
20. For Love Of Ivy
21. Chitty Chitty Bang Bang
22. As Long As He Needs Me

EAC LOG
Exact Audio Copy V1.0 beta 3 from 29. August 2011

EAC extraction logfile from 23. August 2012, 20:44

Percy Faith / Born Free / Windmills Of Your Mind (K)

Used drive : SONY DVD RW DRU-840A Adapter: 0 ID: 1

Read mode : Secure
Utilize accurate stream : Yes
Defeat audio cache : Yes
Make use of C2 pointers : No

Read offset correction : 6
Overread into Lead-In and Lead-Out : No
Fill up missing offset samples with silence : Yes
Delete leading and trailing silent blocks : No
Null samples used in CRC calculations : Yes
Used interface : Native Win32 interface for Win NT & 2000
Gap handling : Not detected, thus appended to previous track

Used output format : User Defined Encoder
Selected bitrate : 320 kBit/s
Quality : High
Add ID3 tag : No
Command line compressor : C:Archivos de programaExact Audio CopyFLACFLAC.EXE
Additional command line options : -6 -V -T "ARTIST=%artist%" -T "TITLE=%title%" -T "ALBUM=%albumtitle%" -T "DATE=%year%" -T "TRACKNUMBER=%tracknr%" -T "GENRE=%genre%" -T "COMMENT=%comment%" -T "BAND=%albuminterpret%" -T "ALBUMARTIST=%albuminterpret%" -T "COMPOSER=%composer%" %haslyrics%--tag-from-file=LYRICS="%lyricsfile%"%haslyrics% -T "DISCNUMBER=%cdnumber%" -T "TOTALDISCS=%totalcds%" -T "TOTALTRACKS=%numtracks%" %hascover%--picture="%coverfile%"%hascover% %source% -o %dest% TOC of the extracted CD

Track | Start | Length | Start sector | End sector
---------------------------------------------------------
1 | 0:00.00 | 2:25.50 | 0 | 10924
2 | 2:25.50 | 3:11.50 | 10925 | 25299
3 | 5:37.25 | 2:14.10 | 25300 | 35359
4 | 7:51.35 | 3:05.55 | 35360 | 49289
5 | 10:57.15 | 3:05.67 | 49290 | 63231
6 | 14:03.07 | 2:18.28 | 63232 | 73609
7 | 16:21.35 | 2:27.40 | 73610 | 84674
8 | 18:49.00 | 2:45.45 | 84675 | 97094
9 | 21:34.45 | 3:05.62 | 97095 | 111031
10 | 24:40.32 | 3:31.38 | 111032 | 126894
11 | 28:11.70 | 3:46.10 | 126895 | 143854
12 | 31:58.05 | 3:38.10 | 143855 | 160214
13 | 35:36.15 | 2:43.70 | 160215 | 172509
14 | 38:20.10 | 3:33.15 | 172510 | 188499
15 | 41:53.25 | 2:32.17 | 188500 | 199916
16 | 44:25.42 | 2:42.03 | 199917 | 212069
17 | 47:07.45 | 3:25.37 | 212070 | 227481
18 | 50:33.07 | 2:10.08 | 227482 | 237239
19 | 52:43.15 | 2:37.60 | 237240 | 249074
20 | 55:21.00 | 2:56.32 | 249075 | 262306
21 | 58:17.32 | 2:31.58 | 262307 | 273689
22 | 60:49.15 | 2:52.07 | 273690 | 286596 Track 1

Filename E:MUSICAMi MúsicaPercy Faith - Born Free - Windmills of MindCD1 Georgy Girl (Dale-Springfield).wav

Peak level 99.3 %
Extraction speed 4.4 X
Track quality 100.0 %
Test CRC 087FEFC3
Copy CRC 087FEFC3
Track not present in AccurateRip database
Copy OK

Track 2

Filename E:MUSICAMi MúsicaPercy Faith - Born Free - Windmills of MindCD2 Somewhere My Love (Webster-Jarre).wav

Peak level 83.4 %
Extraction speed 5.0 X
Track quality 100.0 %
Test CRC 7A64618C
Copy CRC 7A64618C
Track not present in AccurateRip database
Copy OK

Track 3

Filename E:MUSICAMi MúsicaPercy Faith - Born Free - Windmills of MindCD3 A Man And A Woman (Barouh-Lai).wav

Peak level 93.0 %
Extraction speed 3.5 X
Track quality 99.9 %
Test CRC 76977395
Copy CRC 76977395
Track not present in AccurateRip database
Copy OK

Track 4

Filename E:MUSICAMi MúsicaPercy Faith - Born Free - Windmills of MindCD4 This Hotel (Keating-Quine).wav

Peak level 79.4 %
Extraction speed 5.4 X
Track quality 100.0 %
Test CRC 6703D40B
Copy CRC 6703D40B
Track not present in AccurateRip database
Copy OK

Track 5

Filename E:MUSICAMi MúsicaPercy Faith - Born Free - Windmills of MindCD5 Theme From The Sand Pebbles (Bricusse-Goldsmith).wav

Peak level 93.7 %
Extraction speed 4.4 X
Track quality 99.9 %
Test CRC E798B5FA
Copy CRC E798B5FA
Track not present in AccurateRip database
Copy OK

Track 6

Filename E:MUSICAMi MúsicaPercy Faith - Born Free - Windmills of MindCD6 The Wishing Doll (David-Bernstein).wav

Peak level 93.5 %
Extraction speed 5.6 X
Track quality 100.0 %
Test CRC 01B780C0
Copy CRC 01B780C0
Track not present in AccurateRip database
Copy OK

Track 7

Filename E:MUSICAMi MúsicaPercy Faith - Born Free - Windmills of MindCD7 Born Free (John Barry).wav

Peak level 100.0 %
Extraction speed 5.8 X
Track quality 100.0 %
Test CRC 54319E0F
Copy CRC 54319E0F
Track not present in AccurateRip database
Copy OK

Track 8

Filename E:MUSICAMi MúsicaPercy Faith - Born Free - Windmills of MindCD8 This Is My Song (C.Chaplin).wav

Peak level 79.3 %
Extraction speed 6.2 X
Track quality 100.0 %
Test CRC 62E3A04D
Copy CRC 62E3A04D
Track not present in AccurateRip database
Copy OK

Track 9

Filename E:MUSICAMi MúsicaPercy Faith - Born Free - Windmills of MindCD9 Alfie (David-Bacharach).wav

Peak level 92.4 %
Extraction speed 6.4 X
Track quality 100.0 %
Test CRC 3D569F41
Copy CRC 3D569F41
Track not present in AccurateRip database
Copy OK

Track 10

Filename E:MUSICAMi MúsicaPercy Faith - Born Free - Windmills of MindCD10 Song From The Oscar (Evans-Faith-Livingston).wav

Peak level 88.4 %
Extraction speed 5.4 X
Track quality 99.9 %
Test CRC 7FE6F7A9
Copy CRC 7FE6F7A9
Track not present in AccurateRip database
Copy OK

Track 11

Filename E:MUSICAMi MúsicaPercy Faith - Born Free - Windmills of MindCD11 A Time For Love And Sex (Webster-Mandel).wav

Peak level 83.2 %
Extraction speed 7.2 X
Track quality 100.0 %
Test CRC 8648B3BD
Copy CRC 8648B3BD
Track not present in AccurateRip database
Copy OK

Track 12

Filename E:MUSICAMi MúsicaPercy Faith - Born Free - Windmills of MindCD12 How Are Things In Glocca Morra (Harburg-Lane).wav

Peak level 93.7 %
Extraction speed 5.8 X
Track quality 99.9 %
Test CRC 78BFB52B
Copy CRC 78BFB52B
Track not present in AccurateRip database
Copy OK

Track 13

Filename E:MUSICAMi MúsicaPercy Faith - Born Free - Windmills of MindCD13 Theme From The Fox (Lalo Schifrin).wav

Peak level 100.0 %
Extraction speed 7.3 X
Track quality 100.0 %
Test CRC DCF1A691
Copy CRC DCF1A691
Track not present in AccurateRip database
Copy OK

Track 14

Filename E:MUSICAMi MúsicaPercy Faith - Born Free - Windmills of MindCD14 Funny Girl (Merrill-Styne).wav

Peak level 99.9 %
Extraction speed 5.1 X
Track quality 99.9 %
Test CRC E7CB8FF4
Copy CRC E7CB8FF4
Track not present in AccurateRip database
Copy OK

Track 15

Filename E:MUSICAMi MúsicaPercy Faith - Born Free - Windmills of MindCD15 The Windmills Of You Mind (Bergman-Legrand).wav

Peak level 100.0 %
Extraction speed 7.5 X
Track quality 100.0 %
Test CRC 07EBCE24
Copy CRC 07EBCE24
Track not present in AccurateRip database
Copy OK

Track 16

Filename E:MUSICAMi MúsicaPercy Faith - Born Free - Windmills of MindCD16 Star! (Cahn-Van Heusen).wav

Peak level 99.9 %
Extraction speed 7.3 X
Track quality 100.0 %
Test CRC 9EB16C98
Copy CRC 9EB16C98
Track not present in AccurateRip database
Copy OK

Track 17

Filename E:MUSICAMi MúsicaPercy Faith - Born Free - Windmills of MindCD17 The Heart Is A Lonely Hunter (Peggy Lee-David Grusin).wav

Peak level 97.2 %
Extraction speed 6.4 X
Track quality 99.9 %
Test CRC DB6FCE64
Copy CRC DB6FCE64
Track not present in AccurateRip database
Copy OK

Track 18

Filename E:MUSICAMi MúsicaPercy Faith - Born Free - Windmills of MindCD18 The Lion In Winter (John Barry).wav

Peak level 100.0 %
Extraction speed 5.4 X
Track quality 99.9 %
Test CRC 39790B70
Copy CRC 39790B70
Track not present in AccurateRip database
Copy OK

Track 19

Filename E:MUSICAMi MúsicaPercy Faith - Born Free - Windmills of MindCD19 Elvira's Theme (Percy Faith).wav

Peak level 73.6 %
Extraction speed 8.2 X
Track quality 100.0 %
Test CRC B8A27C12
Copy CRC B8A27C12
Track not present in AccurateRip database
Copy OK

Track 20

Filename E:MUSICAMi MúsicaPercy Faith - Born Free - Windmills of MindCD20 For Love Of Ivy (S. K.Russell-Q.Jones).wav

Peak level 91.7 %
Extraction speed 8.4 X
Track quality 100.0 %
Test CRC C7CFBA5E
Copy CRC C7CFBA5E
Track not present in AccurateRip database
Copy OK

Track 21

Filename E:MUSICAMi MúsicaPercy Faith - Born Free - Windmills of MindCD21 Chitty Chitty Bang Bang (B. & M.Sherman).wav

Peak level 100.0 %
Extraction speed 8.5 X
Track quality 100.0 %
Test CRC CBD72D3B
Copy CRC CBD72D3B
Track not present in AccurateRip database
Copy OK

Track 22

Filename E:MUSICAMi MúsicaPercy Faith - Born Free - Windmills of MindCD22 As Long As He Needs Me (Lionel Bart).wav

Peak level 91.8 %
Extraction speed 8.8 X
Track quality 100.0 %
Test CRC 0DA6CD24
Copy CRC 0DA6CD24
Track not present in AccurateRip database
Copy OK None of the tracks are present in the AccurateRip database

No errors occurred

End of status report

==== Log checksum 9C6B06653F946792F5B5CFBD5C4CE14DFAC564424A1F5D3ABCA8EFA8D9099567 ====

------------------------------------------------------------

Exact Audio Copy V1.0 beta 3 from 29. August 2011

EAC extraction logfile from 23. August 2012, 20:45

Percy Faith / Born Free / Windmills Of Your Mind (K)

Used drive : SONY DVD RW DRU-840A Adapter: 0 ID: 1

Read mode : Secure
Utilize accurate stream : Yes
Defeat audio cache : Yes
Make use of C2 pointers : No

Read offset correction : 6
Overread into Lead-In and Lead-Out : No
Fill up missing offset samples with silence : Yes
Delete leading and trailing silent blocks : No
Null samples used in CRC calculations : Yes
Used interface : Native Win32 interface for Win NT & 2000
Gap handling : Not detected, thus appended to previous track

Used output format : User Defined Encoder
Selected bitrate : 320 kBit/s
Quality : High
Add ID3 tag : No
Command line compressor : C:Archivos de programaExact Audio CopyFLACFLAC.EXE
Additional command line options : -6 -V -T "ARTIST=%artist%" -T "TITLE=%title%" -T "ALBUM=%albumtitle%" -T "DATE=%year%" -T "TRACKNUMBER=%tracknr%" -T "GENRE=%genre%" -T "COMMENT=%comment%" -T "BAND=%albuminterpret%" -T "ALBUMARTIST=%albuminterpret%" -T "COMPOSER=%composer%" %haslyrics%--tag-from-file=LYRICS="%lyricsfile%"%haslyrics% -T "DISCNUMBER=%cdnumber%" -T "TOTALDISCS=%totalcds%" -T "TOTALTRACKS=%numtracks%" %hascover%--picture="%coverfile%"%hascover% %source% -o %dest% TOC of the extracted CD

Track | Start | Length | Start sector | End sector
---------------------------------------------------------
1 | 0:00.00 | 2:25.50 | 0 | 10924
2 | 2:25.50 | 3:11.50 | 10925 | 25299
3 | 5:37.25 | 2:14.10 | 25300 | 35359
4 | 7:51.35 | 3:05.55 | 35360 | 49289
5 | 10:57.15 | 3:05.67 | 49290 | 63231
6 | 14:03.07 | 2:18.28 | 63232 | 73609
7 | 16:21.35 | 2:27.40 | 73610 | 84674
8 | 18:49.00 | 2:45.45 | 84675 | 97094
9 | 21:34.45 | 3:05.62 | 97095 | 111031
10 | 24:40.32 | 3:31.38 | 111032 | 126894
11 | 28:11.70 | 3:46.10 | 126895 | 143854
12 | 31:58.05 | 3:38.10 | 143855 | 160214
13 | 35:36.15 | 2:43.70 | 160215 | 172509
14 | 38:20.10 | 3:33.15 | 172510 | 188499
15 | 41:53.25 | 2:32.17 | 188500 | 199916
16 | 44:25.42 | 2:42.03 | 199917 | 212069
17 | 47:07.45 | 3:25.37 | 212070 | 227481
18 | 50:33.07 | 2:10.08 | 227482 | 237239
19 | 52:43.15 | 2:37.60 | 237240 | 249074
20 | 55:21.00 | 2:56.32 | 249075 | 262306
21 | 58:17.32 | 2:31.58 | 262307 | 273689
22 | 60:49.15 | 2:52.07 | 273690 | 286596 Track 1

Filename E:MUSICAMi MúsicaPercy Faith - Born Free - Windmills of MindCD1 Georgy Girl (Dale-Springfield).wav

Peak level 99.3 %
Extraction speed 4.4 X
Track quality 100.0 %
Test CRC 087FEFC3
Copy CRC 087FEFC3
Track not present in AccurateRip database
Copy OK

Track 2

Filename E:MUSICAMi MúsicaPercy Faith - Born Free - Windmills of MindCD2 Somewhere My Love (Webster-Jarre).wav

Peak level 83.4 %
Extraction speed 5.0 X
Track quality 100.0 %
Test CRC 7A64618C
Copy CRC 7A64618C
Track not present in AccurateRip database
Copy OK

Track 3

Filename E:MUSICAMi MúsicaPercy Faith - Born Free - Windmills of MindCD3 A Man And A Woman (Barouh-Lai).wav

Peak level 93.0 %
Extraction speed 3.5 X
Track quality 99.9 %
Test CRC 76977395
Copy CRC 76977395
Track not present in AccurateRip database
Copy OK

Track 4

Filename E:MUSICAMi MúsicaPercy Faith - Born Free - Windmills of MindCD4 This Hotel (Keating-Quine).wav

Peak level 79.4 %
Extraction speed 5.4 X
Track quality 100.0 %
Test CRC 6703D40B
Copy CRC 6703D40B
Track not present in AccurateRip database
Copy OK

Track 5

Filename E:MUSICAMi MúsicaPercy Faith - Born Free - Windmills of MindCD5 Theme From The Sand Pebbles (Bricusse-Goldsmith).wav

Peak level 93.7 %
Extraction speed 4.4 X
Track quality 99.9 %
Test CRC E798B5FA
Copy CRC E798B5FA
Track not present in AccurateRip database
Copy OK

Track 6

Filename E:MUSICAMi MúsicaPercy Faith - Born Free - Windmills of MindCD6 The Wishing Doll (David-Bernstein).wav

Peak level 93.5 %
Extraction speed 5.6 X
Track quality 100.0 %
Test CRC 01B780C0
Copy CRC 01B780C0
Track not present in AccurateRip database
Copy OK

Track 7

Filename E:MUSICAMi MúsicaPercy Faith - Born Free - Windmills of MindCD7 Born Free (John Barry).wav

Peak level 100.0 %
Extraction speed 5.8 X
Track quality 100.0 %
Test CRC 54319E0F
Copy CRC 54319E0F
Track not present in AccurateRip database
Copy OK

Track 8

Filename E:MUSICAMi MúsicaPercy Faith - Born Free - Windmills of MindCD8 This Is My Song (C.Chaplin).wav

Peak level 79.3 %
Extraction speed 6.2 X
Track quality 100.0 %
Test CRC 62E3A04D
Copy CRC 62E3A04D
Track not present in AccurateRip database
Copy OK

Track 9

Filename E:MUSICAMi MúsicaPercy Faith - Born Free - Windmills of MindCD9 Alfie (David-Bacharach).wav

Peak level 92.4 %
Extraction speed 6.4 X
Track quality 100.0 %
Test CRC 3D569F41
Copy CRC 3D569F41
Track not present in AccurateRip database
Copy OK

Track 10

Filename E:MUSICAMi MúsicaPercy Faith - Born Free - Windmills of MindCD10 Song From The Oscar (Evans-Faith-Livingston).wav

Peak level 88.4 %
Extraction speed 5.4 X
Track quality 99.9 %
Test CRC 7FE6F7A9
Copy CRC 7FE6F7A9
Track not present in AccurateRip database
Copy OK

Track 11

Filename E:MUSICAMi MúsicaPercy Faith - Born Free - Windmills of MindCD11 A Time For Love And Sex (Webster-Mandel).wav

Peak level 83.2 %
Extraction speed 7.2 X
Track quality 100.0 %
Test CRC 8648B3BD
Copy CRC 8648B3BD
Track not present in AccurateRip database
Copy OK

Track 12

Filename E:MUSICAMi MúsicaPercy Faith - Born Free - Windmills of MindCD12 How Are Things In Glocca Morra (Harburg-Lane).wav

Peak level 93.7 %
Extraction speed 5.8 X
Track quality 99.9 %
Test CRC 78BFB52B
Copy CRC 78BFB52B
Track not present in AccurateRip database
Copy OK

Track 13

Filename E:MUSICAMi MúsicaPercy Faith - Born Free - Windmills of MindCD13 Theme From The Fox (Lalo Schifrin).wav

Peak level 100.0 %
Extraction speed 7.3 X
Track quality 100.0 %
Test CRC DCF1A691
Copy CRC DCF1A691
Track not present in AccurateRip database
Copy OK

Track 14

Filename E:MUSICAMi MúsicaPercy Faith - Born Free - Windmills of MindCD14 Funny Girl (Merrill-Styne).wav

Peak level 99.9 %
Extraction speed 5.1 X
Track quality 99.9 %
Test CRC E7CB8FF4
Copy CRC E7CB8FF4
Track not present in AccurateRip database
Copy OK

Track 15

Filename E:MUSICAMi MúsicaPercy Faith - Born Free - Windmills of MindCD15 The Windmills Of You Mind (Bergman-Legrand).wav

Peak level 100.0 %
Extraction speed 7.5 X
Track quality 100.0 %
Test CRC 07EBCE24
Copy CRC 07EBCE24
Track not present in AccurateRip database
Copy OK

Track 16

Filename E:MUSICAMi MúsicaPercy Faith - Born Free - Windmills of MindCD16 Star! (Cahn-Van Heusen).wav

Peak level 99.9 %
Extraction speed 7.3 X
Track quality 100.0 %
Test CRC 9EB16C98
Copy CRC 9EB16C98
Track not present in AccurateRip database
Copy OK

Track 17

Filename E:MUSICAMi MúsicaPercy Faith - Born Free - Windmills of MindCD17 The Heart Is A Lonely Hunter (Peggy Lee-David Grusin).wav

Peak level 97.2 %
Extraction speed 6.4 X
Track quality 99.9 %
Test CRC DB6FCE64
Copy CRC DB6FCE64
Track not present in AccurateRip database
Copy OK

Track 18

Filename E:MUSICAMi MúsicaPercy Faith - Born Free - Windmills of MindCD18 The Lion In Winter (John Barry).wav

Peak level 100.0 %
Extraction speed 5.4 X
Track quality 99.9 %
Test CRC 39790B70
Copy CRC 39790B70
Track not present in AccurateRip database
Copy OK

Track 19

Filename E:MUSICAMi MúsicaPercy Faith - Born Free - Windmills of MindCD19 Elvira's Theme (Percy Faith).wav

Peak level 73.6 %
Extraction speed 8.2 X
Track quality 100.0 %
Test CRC B8A27C12
Copy CRC B8A27C12
Track not present in AccurateRip database
Copy OK

Track 20

Filename E:MUSICAMi MúsicaPercy Faith - Born Free - Windmills of MindCD20 For Love Of Ivy (S. K.Russell-Q.Jones).wav

Peak level 91.7 %
Extraction speed 8.4 X
Track quality 100.0 %
Test CRC C7CFBA5E
Copy CRC C7CFBA5E
Track not present in AccurateRip database
Copy OK

Track 21

Filename E:MUSICAMi MúsicaPercy Faith - Born Free - Windmills of MindCD21 Chitty Chitty Bang Bang (B. & M.Sherman).wav

Peak level 100.0 %
Extraction speed 8.5 X
Track quality 100.0 %
Test CRC CBD72D3B
Copy CRC CBD72D3B
Track not present in AccurateRip database
Copy OK

Track 22

Filename E:MUSICAMi MúsicaPercy Faith - Born Free - Windmills of MindCD22 As Long As He Needs Me (Lionel Bart).wav

Peak level 91.8 %
Extraction speed 8.8 X
Track quality 100.0 %
Test CRC 0DA6CD24
Copy CRC 0DA6CD24
Track not present in AccurateRip database
Copy OK None of the tracks are present in the AccurateRip database

No errors occurred

End of status report

==== Log checksum 535EFB6C3362267FA99571036FEEFC4D7B7005A14E132791A6D2E7AC1200D862 ====





Free Download Charlotte Lamb Free Download | Windmills Of Your Mind | Losing Faith In Faith | Kmplayer Hd Video Media Free V1 3 5 Ad Free | Free Love Free Way | Born Free 2010 | Free The Mind | Black Orchestra Within | Ew Ql Symphonic Orchestra Au | Red Orchestra 1
Free Full Download Percy Faith & His Orchestra - Born free form MediaFire link RapidShare, ifile.it, Uploaded.to, Zippyshare, FileSonic, turbobit, ul.to, ORON, DepositFiles,rapidgator.net, extabit.com, filefactory.com. Percy Faith & His Orchestra - Born free Torrent Download with keygen, crack, serial, cdkey,password,1080P,hd, 2015, 2016
Dear visitor, you went to the site as unregistered user.
We encourage you to register .

Add comment

Name:*
E-Mail:*
Comment:
  • bowtiesmilelaughingblushsmileyrelaxedsmirk
    heart_eyeskissing_heartkissing_closed_eyesflushedrelievedsatisfiedgrin
    winkstuck_out_tongue_winking_eyestuck_out_tongue_closed_eyesgrinningkissingstuck_out_tonguesleeping
    worriedfrowninganguishedopen_mouthgrimacingconfusedhushed
    expressionlessunamusedsweat_smilesweatdisappointed_relievedwearypensive
    disappointedconfoundedfearfulcold_sweatperseverecrysob
    joyastonishedscreamtired_faceangryragetriumph
    sleepyyummasksunglassesdizzy_faceimpsmiling_imp
    neutral_faceno_mouthinnocent
Enter the two words shown in the image:

Sitemap We don't Store Any File In Server. The Search and free download links all published by our users.if You Have Any Doubts About Legality Of Content, plz contact us.
  • count 88x31px