Anathema - A Sort of Homecoming (2015) BDRip 720p

alice Category: video
http://i75.fastpic.ru/big/2015/1109/7b/c50d24b840722571bd8769f7c87a777b.jpg
Anathema - A Sort of Homecoming (2015)
BDRip 720p | MKV | 4602 kbps, 1280x720 at 23.976 fps, AVC ([email protected]) | 4.37 GB
Audio: 1509 kbps, 48 khz, 24 bits, 6 channels, DTS | Length: 01:42:00
Genre: Progressive Rock | Nitroflare/Uploadable/Filefactory
A Sort Of Home Coming is a stunning concert film of Anathemas homecoming show on March 7th 2015 in the spectacular setting of the LiverpoolAnglican Cathedral
http://i66.fastpic.ru/big/2015/1109/39/ff0e566d97ebb945dbe3321e09709839.jpg

01 The lost song [Part 2]
02 Untouchable [Part 1]
03 Untouchable [Part 2]
04 Thin air Anathema have spent the
05 Dreaming light vast majority of their
06 Anathema career making music
07 Ariel that defies description
08 Electricity
09 Temporary peace
10 The beginning and the end
11 Distant satellites
12 Take shelter
13 Internal landscapes Formed in the mid 90s
14 A natural disaster they have risen to
15 Fragile dreams
General
Unique ID : 244622437733213101804471951785466252336 (0xB808915AAE7615909F64AF770403CC30)
Complete name : C:UsersgguDesktopgguAnathema.A.Sort.of.Homecoming.2015.720p.MBluRay.x264-LiQUiDanathemahome720p.mkv
Format : Matroska
Format version : Version 4 / Version 2
File size : 4.37 GiB
Duration : 1h 42mn
Overall bit rate : 6 114 Kbps
Encoded date : UTC 2015-11-05 22:01:03
Writing application : mkvmerge v8.0.0 (Til The Day That I Die) 64bit
Writing library : libebml v1.3.1 + libmatroska v1.4.2
DURATION : 01:42:25.131000000
NUMBER_OF_FRAMES : 576106
NUMBER_OF_BYTES : 1159125272
_STATISTICS_WRITING_APP : mkvmerge v8.0.0 (Til The Day That I Die) 64bit
_STATISTICS_WRITING_DATE_UTC : 2015-11-05 22:01:03
_STATISTICS_TAGS : BPS DURATION NUMBER_OF_FRAMES NUMBER_OF_BYTES
Video
ID : 1
Format : AVC
Format/Info : Advanced Video Codec
Format profile : [email protected]
Format settings, CABAC : Yes
Format settings, ReFrames : 5 frames
Codec ID : V_MPEG4/ISO/AVC
Duration : 1h 42mn
Bit rate : 4 602 Kbps
Width : 1 280 pixels
Height : 720 pixels
Display aspect ratio : 16:9
Frame rate mode : Constant
Frame rate : 23.976 fps
Color space : YUV
Chroma subsampling : 4:2:0
Bit depth : 8 bits
Scan type : Progressive
Bits/(Pixel*Frame) : 0.208
Stream size : 3.21 GiB (73%)
Writing library : x264 core 148 r2638 7599210
Encoding settings : cabac=1 / ref=5 / deblock=1:0:0 / analyse=0x3:0x133 / me=umh / subme=8 / psy=1 / psy_rd=1.00:0.00 / mixed_ref=1 / me_range=16 / chroma_me=1 / trellis=1 / 8x8dct=1 / cqm=0 / deadzone=21,11 / fast_pskip=0 / chroma_qp_offset=-2 / threads=12 / lookahead_threads=2 / sliced_threads=0 / nr=0 / decimate=1 / interlaced=0 / bluray_compat=0 / constrained_intra=0 / bframes=3 / b_pyramid=2 / b_adapt=1 / b_bias=0 / direct=1 / weightb=1 / open_gop=0 / weightp=2 / keyint=250 / keyint_min=23 / scenecut=40 / intra_refresh=0 / rc_lookahead=40 / rc=2pass / mbtree=1 / bitrate=4602 / ratetol=1.0 / qcomp=0.60 / qpmin=0 / qpmax=69 / qpstep=4 / cplxblur=20.0 / qblur=0.5 / ip_ratio=1.40 / aq=1:1.00
Language : English
Default : Yes
Forced : No
DURATION : 01:42:25.139000000
NUMBER_OF_FRAMES : 147336
NUMBER_OF_BYTES : 3535161019
_STATISTICS_WRITING_APP : mkvmerge v8.0.0 (Til The Day That I Die) 64bit
_STATISTICS_WRITING_DATE_UTC : 2015-11-05 22:01:03
_STATISTICS_TAGS : BPS DURATION NUMBER_OF_FRAMES NUMBER_OF_BYTES
Audio
ID : 2
Format : DTS
Format/Info : Digital Theater Systems
Mode : 16
Format settings, Endianness : Big
Codec ID : A_DTS
Duration : 1h 42mn
Bit rate mode : Constant
Bit rate : 1 509 Kbps
Channel(s) : 6 channels
Channel positions : Front: L C R, Side: L R, LFE
Sampling rate : 48.0 KHz
Bit depth : 24 bits
Compression mode : Lossy
Stream size : 1.08 GiB (25%)
Default : Yes
Forced : No
Menu
00:00:00.000 : en:00:00:00.000
00:02:08.962 : en:00:02:08.962
00:06:42.736 : en:00:06:42.736
00:13:06.869 : en:00:13:06.869
00:19:33.464 : en:00:19:33.464
00:26:18.035 : en:00:26:18.035
00:32:44.504 : en:00:32:44.504
00:40:13.036 : en:00:40:13.036
00:46:23.614 : en:00:46:23.614
00:50:53.300 : en:00:50:53.300
00:56:10.284 : en:00:56:10.284
01:01:30.729 : en:01:01:30.729
01:09:39.384 : en:01:09:39.384
01:19:03.197 : en:01:19:03.197
01:26:06.578 : en:01:26:06.578
01:35:26.179 : en:01:35:26.179
01:40:47.708 : en:01:40:47.708
Download link:
Links are Interchangeable - Single Extraction - Premium is support resumable



Anathema | Snger Bob Kare Sort | Cartel Land 2015 720P Bdrip X264 Ac3 Playnow | 720P Following Bdrip | Sort Your Brain Out | The World Made Straight 2015 Bdrip X264 Rovers | Dream Theater A Sort Of Homecoming | The Big Sort | 2015 Ita Bdrip | Bdrip 720P Ger
Free Full Download Anathema - A Sort of Homecoming (2015) form MediaFire link RapidShare, ifile.it, Uploaded.to, Zippyshare, FileSonic, turbobit, ul.to, ORON, DepositFiles,rapidgator.net, extabit.com, filefactory.com. Anathema - A Sort of Homecoming (2015) Torrent Download with keygen, crack, serial, cdkey,password,1080P,hd, 2015, 2016
Dear visitor, you went to the site as unregistered user.
We encourage you to register .

Add comment

Name:*
E-Mail:*
Comment:
  • bowtiesmilelaughingblushsmileyrelaxedsmirk
    heart_eyeskissing_heartkissing_closed_eyesflushedrelievedsatisfiedgrin
    winkstuck_out_tongue_winking_eyestuck_out_tongue_closed_eyesgrinningkissingstuck_out_tonguesleeping
    worriedfrowninganguishedopen_mouthgrimacingconfusedhushed
    expressionlessunamusedsweat_smilesweatdisappointed_relievedwearypensive
    disappointedconfoundedfearfulcold_sweatperseverecrysob
    joyastonishedscreamtired_faceangryragetriumph
    sleepyyummasksunglassesdizzy_faceimpsmiling_imp
    neutral_faceno_mouthinnocent
Enter the two words shown in the image:

Sitemap We don't Store Any File In Server. The Search and free download links all published by our users.if You Have Any Doubts About Legality Of Content, plz contact us.
  • count 88x31px